osu file format v9

[General]
AudioFilename: 3OH!3 feat. Ke$ha - My First Kiss .MP3
AudioLeadIn: 2000
PreviewTime: 42107
Countdown: 0
SampleSet: Soft
StackLeniency: 0.7
Mode: 0
LetterboxInBreaks: 1

[Editor]
DistanceSpacing: 1.1
BeatDivisor: 4
GridSize: 4

[Metadata]
Title:My First Kiss
Artist:3OH!3 feat. Ke$ha
Creator:mancusojuanmattos
Version:Hard
Source:
Tags:Kesha

[Difficulty]
HPDrainRate:6
CircleSize:4
OverallDifficulty:6
ApproachRate:7
SliderMultiplier:1.8
SliderTickRate:2

[Events]
//Background and Video events
0,0,"My First Kiss (Official BG).jpg"
//Break Periods
2,70149,72528
2,129280,142093
//Storyboard Layer 0 (Background)
//Storyboard Layer 1 (Fail)
//Storyboard Layer 2 (Pass)
//Storyboard Layer 3 (Foreground)
//Storyboard Sound Samples
//Background Colour Transformations
3,100,163,162,255

[TimingPoints]
385,434.782608695652,4,2,0,80,1,0
40276,-100,4,2,0,30,0,0
42124,-100,4,1,0,65,0,1
55819,-100,4,1,0,65,0,0
56037,-100,4,1,0,65,0,1
69950,-100,4,1,0,35,0,0
73428,-100,4,2,0,80,0,0
101254,-100,4,1,0,65,0,1
114950,-100,4,1,0,65,0,0
115167,-100,4,1,0,65,0,1
129080,-100,4,1,0,65,0,0
142993,-100,4,2,0,60,0,0
153428,-100,4,2,0,60,0,0
155167,-100,4,2,0,50,0,0
156906,-100,4,1,0,65,0,1
170602,-100,4,1,0,65,0,0
170819,-100,4,1,0,65,0,1
184732,-100,4,2,0,80,0,0
191689,-100,4,1,0,65,0,1
191798,-100,4,1,0,65,0,0

[Colours]
Combo1 : 51,51,51
Combo2 : 225,225,0
Combo3 : 255,255,255
SliderBorder : 251,234,28

[HitObjects]
176,96,385,2,0,B|224:96|256:60|256:60|288:96|336:96,1,180,4|8
256,156,1037,1,8
336,216,1254,2,0,B|288:216|256:252|256:252|224:216|176:216,1,180,0|8
168,316,1906,1,2
256,368,2124,1,0
340,316,2341,1,2
256,368,2558,2,0,B|256:188,1,180,8|0
60,152,3428,6,0,B|11:126|23:47|102:41|125:86,1,180,8|2
176,172,4080,1,0
256,232,4298,1,8
332,172,4515,1,8
386,86,4732,2,0,B|409:41|488:47|500:126|452:152,1,180,2|8
332,172,5384,6,0,B|332:228|388:248,2,90,2|0|2
180,172,6037,2,0,B|180:228|124:248,2,90,8|8|0
256,132,6689,1,0
256,132,6906,1,8
168,308,7341,6,0,B|127:282|81:296|81:296|72:249|31:224,1,180,4|8
128,208,7993,1,8
92,116,8211,2,0,B|132:141|178:127|178:127|187:174|228:199,1,180,2|8
236,300,8863,2,0,B|308:360,1,90,2|0
404,357,9298,2,0,B|473:299,1,90,2|8
440,200,9732,1,8
440,200,9950,2,0,B|351:224|262:200,1,180,2|8
262,109,10602,5,0
262,109,10819,2,0,B|351:85|439:109,1,180,2|8
440,200,11471,2,0,B|448:244|440:292,1,90,8|0
352,244,11906,2,0,B|264:244,1,90,2|8
196,316,12341,1,0
196,316,12558,2,0,B|196:268|160:236|160:236|196:212|196:156,1,180,2|8
256,80,13211,1,8
320,156,13428,2,0,B|320:212|356:236|356:236|320:268|320:316,1,180,0|8
256,240,14080,5,0
256,240,14298,2,0,B|436:240,1,180,4|8
436,144,14950,2,0,B|256:144,1,180,8|2
184,76,15602,1,8
104,132,15819,1,2
104,232,16037,1,0
184,292,16254,1,2
184,192,16471,2,0,B|288:192,1,90,8|8
328,292,16906,5,0
408,232,17124,1,0
408,132,17341,1,8
328,76,17558,1,0
256,148,17776,6,0,B|256:240,1,90,4|0
156,240,18211,2,0,B|156:148,2,90,8|8|0
56,240,18863,1,0
104,324,19080,1,8
204,324,19298,1,0
256,240,19515,5,0
256,240,19732,2,0,B|256:192|216:152,1,90,0|8
256,240,20167,2,0,B|256:192|296:152,1,90,8|0
256,64,20602,1,0
256,64,20819,2,0,B|304:64|348:36,1,90,8|0
416,104,21254,6,0,B|391:141|391:189,1,90,4|0
300,152,21689,1,8
220,212,21906,1,8
300,272,22124,2,0,B|400:272|456:376,1,180,2|8
344,368,22776,2,0,B|288:368|252:336,1,90
176,368,23211,2,0,B|232:368|268:336,1,90,0|8
188,272,23645,1,8
188,272,23863,2,0,B|88:272|32:376,1,180,2|8
68,160,24732,5,4
148,104,24950,2,0,B|216:36,1,90,0|8
312,40,25384,2,0,B|375:103,1,90,8|0
364,204,25819,2,0,B|296:272,1,90,0|8
200,268,26254,2,0,B|136:204,1,90,2|0
168,112,26689,2,0,B|256:60|340:112,1,180,2|8
276,188,27341,2,0,B|364:240|448:188,2,180,2|8|4
448,288,28645,6,0,B|400:288|370:327,1,90,8|8
272,328,29080,1,0
172,328,29298,1,0
80,328,29515,2,0,B|50:288|2:288,2,90,8|0|4
124,240,30167,1,2
172,328,30384,2,0,B|201:288|249:288,1,90,8|8
124,240,30819,2,0,B|124:136,1,90
44,92,31254,2,0,B|92:92|124:56|124:56|156:92|204:92,1,180,8|4
336,240,32124,6,0,B|384:240|416:276|416:276|448:240|496:240,1,180,8|0
500,340,32776,1,0
404,364,32993,1,8
308,340,33211,1,0
308,340,33428,1,4
256,256,33645,5,0
256,156,33863,2,0,B|256:64,1,90,8|8
176,124,34298,2,0,B|151:79|103:59|55:79|31:123,1,180,0|8
104,192,34950,1,0
32,252,35167,2,0,B|56:296|104:316|152:296|176:251,1,180,4|8
260,196,35819,6,0,B|324:204|384:152|372:80,1,180,8|0
292,80,36471,2,0,B|292:164|364:164|364:248,1,180,8|4
456,272,37124,2,0,B|408:356,1,90,2|8
312,348,37558,2,0,B|267:269,1,90,8|0
204,196,37993,2,0,B|140:204|80:152|90:87,1,180,0|2
172,80,38645,2,0,B|172:164|100:164|100:240,1,180,4|8
80,336,39298,6,0,B|164:372|164:300|256:332,1,180,8|0
428,336,39950,2,0,B|344:372|344:300|252:332,1,180,8|4
256,72,42124,6,0,B|312:72|344:36,1,90,4|0
408,112,42558,2,0,B|377:138|377:194,1,90,8|0
288,236,42993,1,0
200,192,43211,1,0
168,100,43428,2,0,B|68:100,1,90,8|0
72,200,43863,6,0,B|72:248|24:276,1,90
72,200,44298,2,0,B|72:248|120:276,1,90,8|0
72,200,44732,2,0,B|72:112,2,90,0|0|8
164,160,45384,1,0
256,200,45602,6,0,B|356:200,1,90,4|0
346,299,46037,2,0,B|256:299,1,90,8|0
164,304,46471,2,0,B|120:280|100:232|120:184|165:159,1,180,0|8
228,236,47124,1,0
228,236,47341,2,0,B|273:261|293:309|273:357|229:381,2,180,4|8|0
228,136,48428,1,0
256,40,48645,1,8
444,104,49080,6,0,B|444:192,1,90,2|0
388,276,49515,2,0,B|316:332,1,90,8|0
256,252,49950,2,0,B|256:152,2,90,2|0|8
192,328,50602,2,0,B|120:272,1,90,0|2
68,194,51037,2,0,B|68:104,1,90,2|8
160,72,51471,1,2
256,120,51689,2,0,B|243:82|261:32|261:32|313:17|351:33,2,180,2|8|2
168,164,52776,5,0
208,256,52993,1,8
308,256,53211,1,0
344,164,53428,1,2
256,120,53645,2,0,B|256:208,2,90,0|8|0
168,116,54298,5,2
208,24,54515,1,2
308,24,54732,1,8
344,116,54950,1,2
256,120,55167,2,0,B|228:204|288:204|256:296,1,180,2|8
428,196,56037,6,0,B|428:256|428:256|496:256|496:340,1,180,4|8
396,336,56689,1,0
296,336,56906,2,0,B|296:256|363:255|363:255|363:195,2,180,0|8|0
396,336,57993,1,0
396,336,58211,2,0,B|416:292|416:292|456:280,1,90,8|0
396,336,58645,2,0,B|376:292|376:292|336:280,1,90
404,208,59080,1,8
256,76,59515,6,0,B|256:124|304:144,1,90,4|0
256,76,59950,2,0,B|256:124|208:144,1,90,8|0
256,216,60384,2,0,B|212:288|308:288|256:392,1,180,0|8
188,316,61037,1,0
188,316,61254,2,0,B|285:365|285:269|357:313,1,180,0|8
252,164,62124,1,0
252,164,62341,1,0
252,164,62558,1,8
80,256,62993,6,0,B|172:299|256:263|256:263|340:299|429:256,1,360,2|2
256,188,64298,1,8
80,120,64732,2,0,B|171:76|255:112|255:112|339:76|429:119,1,360,2|2
256,220,66037,1,8
256,220,66471,6,0,B|256:128,1,90,2|0
256,32,66906,2,0,B|184:100,1,90,8|0
256,32,67341,2,0,B|328:100,1,90,2|0
332,192,67776,2,0,B|332:284,1,90,8|0
180,282,68211,6,0,B|180:192,1,90,2|2
180,92,68645,1,8
92,140,68863,1,2
92,240,69080,1,2
92,340,69298,1,0
120,340,69406,1,0
148,340,69515,1,8
248,340,69732,2,0,B|340:340,1,90,0|0
128,88,73428,6,0,B|128:152|200:200|256:176,1,180,4|8
384,88,74080,2,0,B|380:152|308:200|252:176,1,180,8|2
256,272,74732,2,0,B|256:362,2,90,8|0|2
356,264,75385,2,0,B|420:272|480:220|469:155,1,180,2|8
464,304,76037,2,0,B|464:227|392:227|392:143,1,180,0|8
256,136,76689,5,2
164,264,76906,2,0,B|100:272|40:220|52:148,1,180,4|8
56,304,77558,2,0,B|55:227|127:227|127:143,1,180,8|0
256,136,78211,2,0,B|256:48,1,90,8|2
354,46,78645,6,0,B|354:136,1,90,4|0
436,188,79080,1,8
356,248,79298,1,8
256,248,79515,1,0
176,192,79732,1,0
176,192,79950,1,8
176,192,80167,1,0
180,92,80385,6,0,B|276:92|352:40,1,180,4|8
364,140,81037,1,8
348,240,81254,2,0,B|276:192|176:192,1,180,2|8
100,236,81906,2,0,B|56:248|56:248|13:236,1,90,2|0
12,148,82341,2,0,B|54:136|54:136|100:148,1,90,0|8
168,88,82776,1,8
192,176,82993,1,0
244,100,83211,5,2
244,100,83428,2,0,B|300:76|372:160|332:212,1,180,8|4
244,200,84080,1,0
148,172,84298,1,8
116,264,84515,1,8
112,364,84732,2,0,B|56:388|-16:304|24:252,1,180,0|8
116,264,85385,2,0,B|196:312,1,90
318,310,85819,6,0,B|396:264,1,90,2|8
364,168,86254,1,8
280,224,86471,1,0
232,136,86689,2,0,B|309:89,1,90,2|8
364,168,87124,2,0,B|440:120,1,90,0|4
440,120,87558,1,0
448,220,87776,5,8
448,320,87993,1,8
348,324,88211,2,0,B|308:340|256:324,1,90,0|2
256,228,88645,2,0,B|300:208|348:228,2,90,8|8|4
172,280,89298,5,0
84,236,89515,1,8
88,136,89732,1,8
172,88,89950,1,0
256,136,90167,1,2
256,236,90385,1,8
256,236,90602,2,0,B|336:288,1,90,0|4
428,236,91037,5,0
424,136,91254,1,8
340,88,91471,1,8
256,136,91689,1,2
256,236,91906,1,0
256,236,92124,2,0,B|184:291,1,90,8|0
84,308,92558,5,4
84,308,92776,2,0,B|8:236,1,90,0|8
16,148,93211,2,0,B|81:86,1,90,8|0
180,96,93645,1,0
180,96,93863,2,0,B|212:180|212:180|180:264,1,180,8|4
332,264,94515,5,0
332,264,94732,2,0,B|300:180|300:180|332:96,1,180,8|0
384,180,95385,2,0,B|476:180,2,90,2|8|0
428,88,96037,1,4
332,60,96254,6,0,B|272:60|256:16,1,90,0|8
184,60,96689,2,0,B|244:60|260:16,1,90,8|0
256,120,97124,2,0,B|256:172|200:192,1,90,2|8
256,120,97558,2,0,B|256:172|312:192,1,90,0|4
256,276,97993,1,0
116,280,98211,6,8,B|155:367|255:415|356:368|401:279,1,360,8|8
400,180,99298,1,0
400,180,99515,2,0,B|354:91|256:44|154:91|114:179,1,360,4|8
192,228,100602,2,0,B|208:188|256:168,1,90,2|0
320,228,101037,2,0,B|304:188|256:168,1,90,8|4
256,268,101471,5,0
192,344,101689,2,0,B|120:288,1,90,8|0
44,228,102124,1,0
120,164,102341,2,0,B|191:108,1,90,0|8
292,108,102776,1,0
292,108,102993,6,0,B|396:108|456:44,2,180,4|8|0
360,176,104080,2,0,B|316:176|272:216,1,90,0|8
360,176,104515,2,0,B|404:176|448:148,1,90
488,240,104950,1,0
460,336,105167,1,8
360,336,105385,1,0
328,240,105602,2,0,B|224:240|165:176,1,180,0|8
165,176,106254,1,0
96,104,106471,6,0,B|12:56,1,90,4|0
96,104,106906,2,0,B|180:56,1,90,8|0
96,184,107341,2,0,B|17:228,1,90
96,184,107776,2,0,B|174:228,1,90,8|0
120,304,108211,5,2
204,356,108428,1,0
304,356,108645,1,8
388,304,108863,1,0
324,232,109080,2,0,B|256:152,1,90,2|0
220,252,109515,2,0,B|152:172,1,90,8|0
120,80,109950,5,2
204,28,110167,1,2
304,28,110385,1,8
388,80,110602,1,2
388,80,110819,2,0,B|432:136|392:164|348:200|392:260,1,180,2|8
480,228,111471,6,0,B|480:280|440:308,1,90,0|2
344,308,111906,1,0
344,308,112124,2,0,B|308:280|308:228,1,90,8|0
208,228,112558,2,0,B|208:280|172:308,2,90,2|0|8
108,216,113211,2,0,B|160:140,1,90,0|2
256,140,113645,2,0,B|306:214,2,90,2|8|2
176,80,114298,2,0,B|212:44|256:32|300:44|336:80,1,180,2|8
256,260,115167,5,4
180,324,115385,1,0
256,384,115602,1,8
336,324,115819,1,0
256,260,116037,2,0,B|280:220|256:164,1,90
172,220,116471,2,0,B|148:180|172:124,1,90,8|0
84,80,116906,6,0,B|104:36|160:36,1,90
236,96,117341,2,0,B|288:96|308:52,1,90,8|0
408,52,117776,2,0,B|428:96|480:96,1,90
416,168,118211,2,0,B|416:248|344:248|344:328,1,180,8|0
284,248,118863,5,0
228,328,119080,1,8
168,248,119298,1,0
108,328,119515,2,0,B|108:248|36:248|36:168,1,180,0|8
188,40,120385,5,4
208,136,120602,1,0
308,136,120819,1,8
336,40,121037,1,0
308,136,121254,2,0,B|324:180|300:224,1,90
204,208,121689,2,0,B|188:252|212:296,1,90,8|0
84,352,122124,6,0,B|176:396|260:360|260:360|344:396|433:353,1,360,2|2
256,284,123428,1,8
80,200,123863,2,0,B|171:156|255:192|255:192|339:156|429:199,1,360,2|2
256,284,125167,1,8
256,284,125602,6,0,B|256:196,1,90,2|0
160,164,126037,2,0,B|216:96,1,90,8|0
294,94,126471,2,0,B|352:164,1,90,2|0
396,76,126906,2,0,B|368:36|324:24,1,90,8|0
224,24,127341,2,0,B|180:36|152:76,1,90,2|2
236,128,127776,2,0,B|208:168|164:180,1,90,8|2
76,136,128211,5,2
76,236,128428,1,0
76,264,128537,1,0
76,292,128645,1,8
176,292,128863,2,0,B|224:280|264:292,1,90,0|4
180,104,142993,6,0,B|216:192,1,90,4|0
280,116,143428,2,0,B|316:204,1,90,2|0
412,200,143863,1,8
348,272,144080,1,0
248,276,144298,1,2
448,276,144732,5,4
348,272,144950,1,2
284,200,145167,1,0
236,116,145385,2,0,B|201:32,2,90,2|8|0
236,116,146037,1,2
136,204,146471,6,0,B|96:236|104:284,1,90,4|0
204,276,146906,2,0,B|252:268|284:308,2,90,2|0|8
204,176,147558,2,0,B|252:184|284:144,1,90,2|0
436,268,148211,6,0,B|416:228|416:228|432:180,1,90,4|0
332,188,148645,2,0,B|346:230|346:230|326:270,2,90,2|0|8
344,88,149298,2,0,B|388:108|432:88,1,90,0|2
240,32,149950,6,0,B|196:12|152:32,1,90,4|0
196,120,150385,2,0,B|196:212,1,90,2|8
152,300,150819,2,0,B|196:320|240:300,1,90,0|2
340,304,151254,2,0,B|384:284|428:304,1,90
448,208,151689,5,8
384,132,151906,1,2
284,132,152124,1,8
216,204,152341,1,2
172,116,152558,2,0,B|96:66,1,90
97,67,152993,1,4
256,192,153428,12,0,156037
256,84,156906,6,0,B|304:84|332:44,1,90,4|0
432,56,157341,2,0,B|432:104|472:132,1,90,8|0
392,192,157776,2,0,B|336:264,1,90
237,263,158211,2,0,B|181:191,1,90,8|0
148,100,158645,5,4
228,40,158863,1,0
328,40,159080,1,8
408,100,159298,1,0
328,160,159515,1,0
228,160,159732,1,0
280,244,159950,2,0,B|296:288|280:336,1,90,8|0
196,284,160385,6,0,B|180:328|196:376,2,90,4|0|8
152,192,161037,2,0,B|109:172|85:128,1,90
132,44,161471,2,0,B|174:63|198:107,1,90,0|8
196,104,161906,1,0
296,104,162124,6,0,B|388:104,1,90,4|0
388,204,162558,2,0,B|298:204,1,90,8|0
200,204,162993,2,0,B|176:164|120:164,1,90
124,64,163428,2,0,B|176:64|200:24,1,90,8|0
252,108,163863,6,0,B|340:108,1,90,2|0
416,40,164298,2,0,B|464:48|508:40,1,90,8|0
512,140,164732,2,0,B|470:132|422:140,1,90,2|0
480,220,165167,2,0,B|480:312,1,90,8|0
392,264,165602,6,0,B|392:216|352:188,1,90,2|2
252,188,166037,2,0,B|211:216|211:264,2,90,8|2|2
320,116,166689,1,0
320,88,166798,1,0
320,60,166906,1,8
220,60,167124,1,0
120,60,167341,6,0,B|36:100|36:208,1,180,2|8
136,192,167993,1,0
136,292,168211,1,2
228,260,168428,1,0
228,148,168645,1,8
316,192,168863,1,0
316,292,169080,5,2
400,348,169298,1,2
400,348,169515,2,0,B|484:308|484:200,1,180,8|2
472,104,170167,1,0
472,104,170276,1,0
472,104,170385,2,0,B|472:12,1,90,8|0
376,40,170819,6,0,B|288:40,1,90,4|0
332,128,171254,2,0,B|344:176|332:220,1,90,8|0
376,308,171689,2,0,B|286:308,1,90
240,220,172124,2,0,B|228:178|240:130,1,90,8|0
144,160,172558,6,0,B|155:118|143:70,2,90,4|0|8
144,260,173211,2,0,B|132:304|144:352,2,90
232,212,173863,2,0,B|280:200|321:211,1,90,8|0
320,312,174298,6,0,B|368:312|368:312|400:280,1,90,4|0
464,208,174732,2,0,B|464:120,1,90,8|0
400,44,175167,2,0,B|308:44|308:44|232:88,1,180,0|8
256,284,176037,5,4
168,240,176254,1,0
168,140,176471,1,8
256,92,176689,1,0
256,192,176906,2,0,B|348:192,3,90,0|0|8|0
348,92,177776,6,0,B|399:92|428:128,1,90,2|0
436,228,178211,2,0,B|436:320,1,90,8|0
348,268,178645,2,0,B|256:268,1,90,2|0
172,320,179080,2,0,B|172:230,1,90,8|0
96,164,179515,1,2
48,80,179732,1,2
213,141,179950,2,0,B|148:80,2,90,8|2|2
256,232,180602,1,0
256,232,180819,1,8
80,60,181254,6,0,B|172:16|256:52|256:52|340:16|429:59,1,360,2|2
360,132,182341,1,0
256,152,182558,1,8
160,132,182776,1,0
80,240,182993,2,0,B|171:196|256:232|256:232|339:196|429:239,1,360,2|2
344,292,184080,1,0
344,292,184189,1,0
344,292,184298,1,8
168,292,184515,1,0
96,352,184732,6,0,B|192:396|256:312|256:312|320:396|416:352,1,360,2|2
400,256,185819,2,0,B|372:212|320:212,1,90,2|0
416,36,186471,2,0,B|320:-8|256:76|256:76|192:-8|96:36,1,360,2|2
160,112,187558,2,0,B|188:156|234:155,1,90,2|0
256,352,188211,5,2
192,276,188428,1,0
256,200,188645,1,2
320,276,188863,1,2
408,324,189080,2,0,B|428:280|408:236,1,90
320,276,189515,1,2
256,88,189950,5,2
192,164,190167,1,0
256,240,190385,1,2
320,164,190602,1,2
408,116,190819,2,0,B|428:160|408:204,1,90
320,164,191254,1,2
256,352,191689,5,4
