osu file format v11

[General]
AudioFilename: 3OH!3 Ft. Kesha - My First Kiss.mp3
AudioLeadIn: 3000
PreviewTime: 41879
Countdown: 1
SampleSet: Soft
StackLeniency: 0.7
Mode: 0
LetterboxInBreaks: 1

[Editor]
Bookmarks: 26661,159705
DistanceSpacing: 1
BeatDivisor: 4
GridSize: 8

[Metadata]
Title:My First Kiss
TitleUnicode:
Artist:3OH!3 Ft. Ke$ha
ArtistUnicode:
Creator:MystykAMV
Version:Shadow
Source:
Tags:Kiddo-kun ShadowSoul
BeatmapID:174988
BeatmapSetID:51616

[Difficulty]
HPDrainRate:7
CircleSize:4
OverallDifficulty:7
ApproachRate:8
SliderMultiplier:2
SliderTickRate:1

[Events]
//Background and Video events
0,0,"myfirstkiss1.jpg"
//Break Periods
2,129470,142433
//Storyboard Layer 0 (Background)
//Storyboard Layer 1 (Fail)
//Storyboard Layer 2 (Pass)
//Storyboard Layer 3 (Foreground)
//Storyboard Sound Samples
//Background Colour Transformations
3,100,163,162,255

[TimingPoints]
575,434.782608695652,4,2,1,40,1,0
42314,-66.6666666666667,4,1,0,60,0,1
69270,-66.6666666666667,4,2,0,60,0,1
70140,-100,4,2,0,60,0,0
101444,-66.6666666666667,4,1,0,60,0,1
129270,-100,4,2,0,60,0,0
157096,-66.6666666666667,4,1,0,60,0,1
184922,-100,4,2,0,60,0,0

[Colours]
Combo1 : 255,255,255
Combo2 : 228,200,1
Combo3 : 191,191,191
Combo4 : 248,105,223
SliderBorder : 255,255,255

[HitObjects]
160,40,575,2,0,B|256:88|352:40,1,200,2|8,0:0|0:0,0:0:0
256,336,1444,1,0,0:0:0
152,168,1879,5,8,0:0:0
256,224,2096,1,0,0:0:0
360,168,2314,1,0,0:0:0
256,136,2531,1,0,0:0:0
160,80,2748,2,0,B|256:32|352:80,1,200,8|0,0:0|0:0,0:0:0
448,112,3401,1,0,0:0:0
480,208,3618,1,8,0:0:0
480,208,4053,1,0,0:0:0
184,320,4705,5,8,0:0:0
184,320,4922,2,0,B|144:288|144:288|128:304|128:304|160:272|160:272|152:296|152:296|112:256,1,200,0|8,0:0|0:0,0:0:0
96,56,5792,1,0,0:0:0
328,64,6444,5,8,0:0:0
328,64,6661,2,0,B|368:96|368:96|384:80|384:80|352:112|352:112|360:88|360:88|400:128,1,200,0|8,0:0|0:0,0:0:0
456,208,7314,1,0,0:0:0
408,296,7531,5,4,3:3:0
320,240,7748,1,0,0:0:0
256,320,7966,2,0,B|224:360|168:368,1,100,8|0,0:0|0:0,0:0:0
96,296,8401,1,0,0:0:0
160,216,8618,1,0,0:0:0
72,176,8835,2,0,B|128:88,1,100,8|0,0:0|0:0,0:0:0
224,112,9270,5,0,0:0:0
304,56,9488,1,0,0:0:0
384,112,9705,1,8,0:0:0
304,176,9922,1,8,0:0:0
304,176,10140,2,0,B|328:224|376:248|376:248|424:224|448:176,1,200,0|8,0:0|0:0,0:0:0
256,336,11009,5,0,0:0:0
256,336,11661,1,8,0:0:0
184,264,11879,1,0,0:0:0
256,192,12096,1,0,0:0:0
328,264,12314,1,8,0:0:0
344,64,12748,6,0,B|376:104|432:104,1,100
168,64,13183,2,0,B|136:104|80:104,1,100,8|8,0:0|0:0,0:0:0
256,120,13618,1,0,0:0:0
256,216,13835,1,0,0:0:0
256,320,14053,1,8,0:0:0
256,320,14488,6,0,B|344:272,1,100,4|0,3:3|0:0,0:0:0
440,288,14922,2,0,B|416:192,1,100,8|8,0:0|0:0,0:0:0
360,112,15357,2,0,B|368:56|416:32,2,100,0|0|8,0:0|0:0|0:0,0:0:0
256,112,16009,1,0,0:0:0
160,88,16227,6,0,B|112:176,1,100
152,336,16661,2,8,B|168:232,1,100
256,192,17096,1,0,0:0:0
304,280,17314,1,0,0:0:0
384,336,17531,2,0,B|472:288,1,100,8|0,0:0|0:0,0:0:0
392,232,17966,5,4,3:3:0
304,280,18183,1,0,0:0:0
224,344,18401,2,8,B|200:296|144:288,1,100
80,216,18835,2,0,B|32:304,2,100,0|0|8,0:0|0:0|0:0,0:0:0
48,120,19488,5,0,0:0:0
136,64,19705,1,0,0:0:0
152,160,19922,2,0,B|224:232,2,100,0|8|8,0:0|0:0|0:0,0:0:0
256,64,20574,5,0,0:0:0
384,128,20792,1,0,0:0:0
408,144,20901,1,0,0:0:0
320,232,21118,1,0,0:0:0
296,256,21227,1,0,0:0:0
272,280,21335,1,0,0:0:0
248,304,21444,6,0,B|152:352,1,100,4|0,3:3|0:0,0:0:0
80,288,21879,1,8,0:0:0
48,192,22096,1,8,0:0:0
144,216,22314,2,0,B|200:216|232:160,2,100,0|0|8,0:0|0:0|0:0,0:0:0
48,192,22966,1,0,0:0:0
80,96,23183,6,0,B|176:56,1,100
432,96,23618,2,8,B|336:56,1,100,8|8,0:0|0:0,0:0:0
256,112,24053,1,0,0:0:0
160,192,24270,1,0,0:0:0
256,272,24488,1,8,0:0:0
352,192,24705,1,0,0:0:0
352,288,24922,5,4,3:3:0
256,272,25140,1,0,0:0:0
160,288,25357,1,8,0:0:0
256,272,25574,2,0,B|256:376,2,100,8|0|0,0:0|0:0|0:0,0:0:0
200,192,26227,2,0,B|160:152|112:144,1,100,8|0,0:0|0:0,0:0:0
312,192,26661,2,0,B|352:152|400:144,1,100,8|0,0:0|0:0,0:0:0
320,88,27096,5,8,0:0:0
256,16,27314,1,8,0:0:0
192,88,27531,1,0,0:0:0
256,272,27966,1,8,0:0:0
320,88,28401,1,4,3:3:0
440,248,28835,5,8,0:0:0
376,320,29053,1,8,0:0:0
280,344,29270,1,0,0:0:0
184,320,29488,2,0,B|152:272|96:272,1,100,0|8,0:0|0:0,0:0:0
40,192,29922,2,0,B|96:104,1,100,0|4,0:0|3:3,0:0:0
152,192,30357,5,0,0:0:0
200,104,30574,1,8,0:0:0
176,8,30792,1,8,0:0:0
272,40,31009,2,0,B|304:80|360:88,1,100
448,40,31444,1,8,0:0:0
440,136,31661,2,0,B|488:224,1,100,0|4,0:0|3:3,0:0:0
440,312,32096,5,0,0:0:0
344,296,32314,1,8,0:0:0
256,248,32531,1,8,0:0:0
184,184,32748,1,0,0:0:0
120,104,32966,2,0,B|87:142|34:148,2,100,0|8|0,0:0|0:0|0:0,0:0:0
216,96,33618,1,4,3:3:0
296,40,33835,5,0,0:0:0
384,88,34053,1,8,0:0:0
480,64,34270,1,8,0:0:0
448,160,34488,2,0,B|496:256,1,100
400,272,34922,1,8,0:0:0
312,344,35140,1,0,0:0:0
200,192,35357,2,0,B|296:240,1,100,4|0,3:3|0:0,0:0:0
200,192,35792,5,8,0:0:0
136,264,36009,1,8,0:0:0
32,264,36227,2,0,B|72:296|80:352,2,100,0|0|8,0:0|0:0|0:0,0:0:0
96,192,36879,1,0,0:0:0
32,112,37096,2,0,B|112:48,1,100,4|0,3:3|0:0,0:0:0
184,120,37531,5,8,0:0:0
256,48,37748,1,8,0:0:0
328,120,37966,1,0,0:0:0
256,192,38183,2,0,B|256:296,2,100,0|8|0,0:0|0:0|0:0,0:0:0
256,192,38835,1,4,3:3:0
256,48,39053,1,0,0:0:0
256,48,39270,5,8,0:0:0
397,189,39488,1,8,0:0:0
255,330,39705,1,0,0:0:0
115,189,39922,1,0,0:0:0
360,280,40140,5,8,0:0:0
152,280,40357,1,0,0:0:0
256,48,40574,1,0,0:0:0
256,192,40792,12,0,41879,0:0:0
40,192,42314,5,4,0:0:0
184,216,42531,1,0,0:0:0
136,360,42748,1,8,0:0:0
256,272,42966,1,0,0:0:0
376,360,43183,1,0,0:0:0
328,216,43400,1,0,0:0:0
472,192,43617,1,8,0:0:0
208,48,44053,5,0,0:0:0
64,96,44270,1,0,0:0:0
184,192,44488,1,8,0:0:0
256,328,44705,1,0,0:0:0
328,192,44922,1,0,0:0:0
448,96,45140,1,0,0:0:0
304,48,45357,1,8,0:0:0
168,320,45792,6,0,B|32:248,1,150.000005722046
184,232,46227,2,0,B|64:144,1,150.000005722046,8|0,0:0|0:0,0:0:0
208,120,46661,2,0,B|96:16,2,150.000005722046,0|0|8,0:0|0:0|0:0,0:0:0
208,120,47314,1,0,0:0:0
344,320,47531,6,0,B|480:248,1,150.000005722046
328,232,47966,2,0,B|448:144,1,150.000005722046,8|0,0:0|0:0,0:0:0
304,120,48400,2,0,B|416:16,2,150.000005722046,0|0|8,0:0|0:0|0:0,0:0:0
304,120,49053,1,0,0:0:0
168,48,49270,5,0,0:0:0
48,136,49488,1,0,0:0:0
344,336,49705,5,8,0:0:0
464,248,49923,1,0,0:0:0
400,112,50140,6,0,B|336:256,1,150.000005722046
112,272,50574,2,0,B|176:128,1,150.000005722046,8|0,0:0|0:0,0:0:0
400,112,51009,5,0,0:0:0
172,134,51227,1,0,0:0:0
339,249,51444,1,8,0:0:0
112,272,51661,1,0,0:0:0
232,352,51879,1,0,0:0:0
232,352,52096,1,0,0:0:0
232,352,52205,1,0,0:0:0
232,352,52314,1,8,0:0:0
320,40,52748,6,0,B|392:72|472:48,1,150.000005722046
192,40,53183,2,0,B|120:72|40:48,1,150.000005722046,8|0,0:0|0:0,0:0:0
320,144,53618,2,0,B|352:216|432:240,1,150.000005722046
192,144,54053,2,0,B|160:216|80:240,1,150.000005722046,8|0,0:0|0:0,0:0:0
256,344,54488,2,0,B|256:192,3,150.000005722046,0|0|8|0,0:0|0:0|0:0|0:0,0:0:0
160,80,55357,1,0,0:0:0
352,80,55574,1,0,0:0:0
256,344,55792,1,8,0:0:0
352,80,56227,5,4,0:0:0
464,208,56444,1,0,0:0:0
352,312,56661,1,8,0:0:0
256,200,56879,1,0,0:0:0
160,312,57096,1,0,0:0:0
48,208,57313,1,0,0:0:0
160,80,57530,1,8,0:0:0
256,344,57966,5,0,0:0:0
168,232,58183,1,0,0:0:0
48,208,58401,1,8,0:0:0
160,80,58618,1,0,0:0:0
352,80,58836,1,0,0:0:0
464,208,59053,1,0,0:0:0
344,232,59271,1,8,0:0:0
256,344,59488,1,0,0:0:0
168,232,59705,6,0,B|144:304|64:336,2,150.000005722046,0|0|8,0:0|0:0|0:0,0:0:0
200,88,60357,1,0,0:0:0
344,152,60574,2,0,B|368:80|448:48,2,150.000005722046,0|0|8,0:0|0:0|0:0,0:0:0
312,296,61227,1,0,0:0:0
208,192,61444,6,0,B|120:312,1,150.000005722046
304,192,61879,2,0,B|392:72,1,150.000005722046,8|0,0:0|0:0,0:0:0
304,192,62314,5,0,0:0:0
208,192,62531,1,0,0:0:0
400,192,62748,1,8,0:0:0
112,192,62966,1,0,0:0:0
192,64,63183,6,0,B|112:96|40:64,1,150.000005722046
320,64,63618,2,0,B|400:96|472:64,1,150.000005722046,8|0,0:0|0:0,0:0:0
464,216,64053,1,0,0:0:0
360,320,64270,1,0,0:0:0
152,320,64488,1,8,0:0:0
48,216,64705,1,0,0:0:0
192,176,64922,6,0,B|144:112|72:88,1,150.000005722046
320,176,65357,2,0,B|368:112|440:88,1,150.000005722046,8|0,0:0|0:0,0:0:0
256,40,65792,1,0,0:0:0
192,176,66009,1,0,0:0:0
320,176,66227,1,8,0:0:0
256,312,66444,1,0,0:0:0
440,256,66661,6,0,B|368:248|320:176,1,150.000005722046
71,256,67096,2,0,B|144:248|192:176,1,150.000005722046,8|0,0:0|0:0,0:0:0
80,72,67531,1,0,0:0:0
256,32,67748,1,0,0:0:0
432,72,67966,1,8,0:0:0
336,184,68183,2,0,B|368:256|440:288,1,150.000005722046
176,184,68618,2,0,B|144:256|72:288,1,150.000005722046,0|8,0:0|0:0,0:0:0
256,336,69053,1,0,0:0:0
256,216,69270,5,0,0:0:0
256,192,69379,1,0,0:0:0
256,168,69488,1,0,0:0:0
256,144,69596,1,0,0:0:0
256,120,69705,1,8,0:0:0
256,96,69814,1,0,0:0:0
256,72,69922,1,0,0:0:0
256,48,70031,1,0,0:0:0
256,32,70140,5,0,0:0:0
456,192,70574,1,0,0:0:0
256,352,71009,1,0,0:0:0
56,192,71444,1,0,0:0:0
152,192,71661,1,0,0:0:0
256,192,71879,1,0,0:0:0
352,192,72096,1,0,0:0:0
456,192,72314,1,0,0:0:0
456,192,72748,1,0,0:0:0
400,104,72966,5,0,0:0:0
320,48,73183,1,0,0:0:0
320,48,73401,1,0,0:0:0
224,64,73618,6,0,B|192:112|136:112,1,100,4|0,3:3|0:0,0:0:0
80,192,74053,1,8,0:0:0
120,280,74270,1,8,0:0:0
200,216,74488,2,0,B|256:304,1,100
344,248,74922,1,8,0:0:0
416,320,75140,1,0,0:0:0
440,224,75357,6,0,B|360:144|392:32,1,200,0|8,0:0|0:0,0:0:0
288,56,76009,1,8,0:0:0
192,96,76227,1,0,0:0:0
96,80,76444,1,0,0:0:0
128,176,76661,6,0,B|96:288,1,100,8|0,0:0|0:0,0:0:0
192,232,77096,2,0,B|192:344,1,100,4|0,3:3|0:0,0:0:0
264,264,77531,2,0,B|320:352,1,100,8|8,0:0|0:0,0:0:0
376,272,77966,1,0,0:0:0
448,200,78183,1,0,0:0:0
352,176,78401,6,0,B|256:128,2,100,8|0|0,0:0|0:0|0:0,0:0:0
448,200,79053,1,0,0:0:0
424,104,79270,1,8,0:0:0
336,48,79488,1,8,0:0:0
262,131,79705,2,0,B|224:168|168:168,2,100,0|0|8,0:0|0:0|0:0,0:0:0
184,64,80357,1,0,0:0:0
96,104,80574,6,0,B|32:184,1,100,4|0,3:3|0:0,0:0:0
128,224,81009,1,8,0:0:0
80,312,81227,1,8,0:0:0
272,328,81444,2,0,B|216:336|176:296,1,100
240,216,81879,2,0,B|296:208|336:248,1,100,8|0,0:0|0:0,0:0:0
384,328,82314,5,0,0:0:0
448,248,82531,1,0,0:0:0
408,160,82748,1,8,0:0:0
336,88,82966,2,0,B|304:128|256:144,2,100,8|0|0,0:0|0:0|0:0,0:0:0
256,32,83618,5,8,0:0:0
176,88,83835,2,0,B|144:128|88:136,1,100,0|4,0:0|3:3,0:0:0
336,88,84270,2,0,B|368:128|424:136,1,100,0|8,0:0|0:0,0:0:0
392,232,84705,1,8,0:0:0
304,280,84922,2,0,B|200:280,1,100
120,232,85357,1,8,0:0:0
176,152,85574,6,0,B|176:48,1,100
336,56,86009,2,0,B|336:160,1,100,0|8,0:0|0:0,0:0:0
256,216,86444,1,8,0:0:0
208,304,86661,2,0,B|256:328|304:304,2,100,0|0|8,0:0|0:0|0:0,0:0:0
144,224,87314,1,0,0:0:0
48,192,87531,1,4,3:3:0
128,136,87748,5,0,0:0:0
160,40,87966,1,8,0:0:0
256,72,88183,1,8,0:0:0
352,40,88401,1,0,0:0:0
392,136,88618,1,0,0:0:0
368,232,88835,2,0,B|400:272|456:280,2,100,8|0|4,0:0|0:0|3:3,0:0:0
312,320,89488,5,0,0:0:0
256,240,89705,1,8,0:0:0
160,256,89922,1,8,0:0:0
200,160,90140,2,0,B|96:144,1,100
120,48,90574,2,0,B|224:32,1,100,8|0,0:0|0:0,0:0:0
288,104,91009,1,4,3:3:0
368,48,91227,5,0,0:0:0
440,120,91444,1,8,0:0:0
360,176,91661,2,0,B|376:224|432:256,1,100,8|0,0:0|0:0,0:0:0
360,328,92096,2,0,B|320:288|272:280,1,100,0|8,0:0|0:0,0:0:0
273,280,92531,1,0,0:0:0
273,280,92748,1,4,3:3:0
184,328,92966,5,0,0:0:0
88,304,93183,1,8,0:0:0
160,232,93401,1,8,0:0:0
64,208,93618,2,0,B|32:112,1,100
128,144,94053,2,0,B|112:32,1,100,8|0,0:0|0:0,0:0:0
113,45,94488,1,4,3:3:0
208,72,94705,5,0,0:0:0
304,72,94922,1,8,0:0:0
256,160,95140,1,8,0:0:0
256,256,95357,1,0,0:0:0
336,320,95574,2,0,B|376:280|432:288,1,100,0|8,0:0|0:0,0:0:0
176,320,96009,2,0,B|136:280|80:288,1,100,0|4,0:0|3:3,0:0:0
48,192,96444,5,0,0:0:0
120,120,96661,1,8,0:0:0
184,192,96879,1,8,0:0:0
464,192,97096,1,0,0:0:0
392,120,97313,1,0,0:0:0
328,192,97531,1,8,0:0:0
256,48,97748,1,0,0:0:0
256,336,97966,1,4,3:3:0
56,328,98401,6,0,B|104:240,1,100,8|8,0:0|0:0,0:0:0
456,328,98835,2,0,B|408:240,1,100
256,48,99270,2,0,B|256:152,1,100,8|0,0:0|0:0,0:0:0
256,336,99705,1,0,0:0:0
256,192,99814,12,0,101009,0:0:0
472,192,101444,5,4,0:0:0
328,168,101661,1,0,0:0:0
376,24,101878,1,8,0:0:0
256,112,102096,1,0,0:0:0
136,24,102313,1,0,0:0:0
184,168,102530,1,0,0:0:0
40,192,102747,1,8,0:0:0
304,336,103183,5,0,0:0:0
448,288,103400,1,0,0:0:0
328,192,103618,1,8,0:0:0
256,56,103835,1,0,0:0:0
184,192,104052,1,0,0:0:0
64,288,104270,1,0,0:0:0
208,336,104487,1,8,0:0:0
328,64,104922,6,0,B|376:128|456:136,2,150.000005722046,0|0|8,0:0|0:0|0:0,0:0:0
256,192,105574,1,0,0:0:0
184,64,105792,2,0,B|136:128|56:136,2,150.000005722046,0|0|8,0:0|0:0|0:0,0:0:0
256,192,106444,1,0,0:0:0
168,312,106661,5,0,0:0:0
32,248,106879,1,0,0:0:0
168,192,107096,1,8,0:0:0
256,72,107314,1,0,0:0:0
352,192,107531,1,0,0:0:0
480,248,107748,1,0,0:0:0
344,312,107966,1,8,0:0:0
256,192,108183,1,0,0:0:0
328,64,108401,6,0,B|392:112|472:88,3,150.000005722046,0|0|8|0,0:0|0:0|0:0|0:0,0:0:0
184,64,109270,2,0,B|120:112|40:88,3,150.000005722046,0|0|8|0,0:0|0:0|0:0|0:0,0:0:0
152,192,110140,2,0,B|64:312,1,150.000005722046
360,192,110574,2,0,B|448:312,1,150.000005722046,8|0,0:0|0:0,0:0:0
256,344,111009,1,0,0:0:0
256,40,111444,1,8,0:0:0
464,256,111879,6,0,B|424:328|336:328,1,150.000005722046
48,256,112314,2,0,B|88:328|176:328,1,150.000005722046,8|0,0:0|0:0,0:0:0
176,176,112748,1,0,0:0:0
336,176,112966,1,0,0:0:0
176,176,113183,1,8,0:0:0
336,176,113401,1,0,0:0:0
328,40,113618,2,0,B|256:80|184:40,3,150.000005722046,0|0|8|0,0:0|0:0|0:0|0:0,0:0:0
256,176,114488,5,0,0:0:0
256,192,114596,1,0,0:0:0
256,208,114705,1,0,0:0:0
256,224,114814,1,0,0:0:0
256,240,114922,1,8,0:0:0
256,256,115031,1,0,0:0:0
256,272,115140,1,0,0:0:0
256,288,115248,1,0,0:0:0
256,304,115357,5,0,0:0:0
400,336,115574,1,0,0:0:0
448,192,115792,1,8,0:0:0
336,96,116009,1,0,0:0:0
176,96,116227,1,0,0:0:0
64,192,116444,1,0,0:0:0
112,336,116662,1,8,0:0:0
256,304,116879,1,0,0:0:0
352,192,117096,6,0,B|448:72,1,150.000005722046
160,192,117531,2,0,B|64:72,1,150.000005722046,8|0,0:0|0:0,0:0:0
445,309,117966,6,0,B|352:192,1,150.000005722046
66,309,118401,2,0,B|160:192,1,150.000005722046,8|0,0:0|0:0,0:0:0
96,56,118835,5,0,0:0:0
160,191,119053,1,0,0:0:0
256,72,119270,1,8,0:0:0
352,191,119488,1,0,0:0:0
416,56,119706,1,0,0:0:0
256,312,120140,1,8,0:0:0
96,56,120574,5,0,0:0:0
160,192,120792,1,0,0:0:0
352,192,121009,1,8,0:0:0
416,56,121227,1,0,0:0:0
256,32,121444,2,0,B|256:184,2,150.000005722046,0|0|8,0:0|0:0|0:0,0:0:0
64,336,122314,5,0,0:0:0
192,256,122531,1,0,0:0:0
448,48,122748,5,8,0:0:0
320,128,122965,1,0,0:0:0
168,128,123183,5,0,0:0:0
344,256,123401,1,0,0:0:0
168,128,123618,1,8,0:0:0
344,256,123836,1,0,0:0:0
456,160,124053,6,0,B|496:232|456:304,1,150.000005722046
56,160,124488,2,0,B|16:232|56:304,2,150.000005722046,8|0|0,0:0|0:0|0:0,0:0:0
256,40,125357,1,8,0:0:0
472,248,125792,5,0,0:0:0
368,352,126009,1,0,0:0:0
256,248,126227,1,8,0:0:0
40,136,126661,5,0,0:0:0
144,32,126878,1,0,0:0:0
256,136,127096,1,8,0:0:0
256,136,127531,5,0,0:0:0
392,192,127748,1,0,0:0:0
336,336,127966,1,8,0:0:0
176,336,128183,1,0,0:0:0
120,192,128401,1,0,0:0:0
256,32,128835,1,8,0:0:0
256,232,129270,5,4,0:0:0
256,192,143183,5,2,3:3:0
336,248,143401,1,0,0:0:0
336,248,143618,1,0,0:0:0
336,152,143835,1,0,0:0:0
336,152,144053,1,8,0:0:0
392,72,144270,2,0,B|432:104|488:96,1,100
256,192,144922,5,0,0:0:0
176,248,145140,1,0,0:0:0
176,248,145357,1,0,0:0:0
176,152,145574,1,0,0:0:0
176,152,145792,1,8,0:0:0
120,72,146009,2,0,B|80:104|24:96,1,100
64,296,146661,5,0,0:0:0
152,352,146879,1,0,0:0:0
208,272,147096,2,0,B|256:248|304:272,1,100
360,352,147531,1,8,0:0:0
448,296,147749,1,0,0:0:0
448,296,147966,1,0,0:0:0
448,96,148401,5,0,0:0:0
352,128,148618,1,0,0:0:0
304,40,148835,2,0,B|256:56|200:40,1,100
160,128,149270,1,8,0:0:0
64,96,149487,1,0,0:0:0
64,96,149705,1,0,0:0:0
56,296,150140,6,0,B|144:344,1,100,4|0,3:3|0:0,0:0:0
64,216,150574,2,0,B|152:264,1,100
64,132,151009,2,0,B|152:180,1,100,8|0,0:0|0:0,0:0:0
304,264,151444,2,0,B|216:216,1,100
168,56,151879,2,0,B|256:104,1,100
424,112,152314,1,0,0:0:0
304,264,152748,1,8,0:0:0
144,328,153183,1,0,0:0:0
256,192,153618,12,0,156661,0:0:0
256,48,157096,5,4,0:0:0
400,112,157314,1,0,0:0:0
384,264,157531,1,8,0:0:0
256,328,157748,1,0,0:0:0
128,264,157966,1,0,0:0:0
112,112,158183,1,0,0:0:0
256,48,158401,1,8,0:0:0
256,192,158618,1,0,0:0:0
408,192,158835,5,0,0:0:0
104,192,159053,1,0,0:0:0
344,336,159270,1,8,0:0:0
168,48,159488,1,0,0:0:0
168,336,159705,1,0,0:0:0
344,48,159923,1,0,0:0:0
256,192,160140,1,8,0:0:0
256,192,160357,1,0,0:0:0
128,120,160574,6,0,B|40:128|24:216,1,150.000005722046
384,120,161009,2,0,B|472:128|488:216,1,150.000005722046,8|0,0:0|0:0,0:0:0
408,344,161444,1,0,0:0:0
104,344,161661,1,0,0:0:0
256,40,161879,1,8,0:0:0
256,40,162096,1,0,0:0:0
384,120,162314,5,0,0:0:0
256,192,162531,1,0,0:0:0
128,120,162748,1,8,0:0:0
160,256,162966,1,0,0:0:0
352,256,163183,1,0,0:0:0
256,344,163401,1,0,0:0:0
256,40,163618,1,8,0:0:0
256,344,163835,1,0,0:0:0
160,256,164053,6,0,B|112:320|32:336,1,150.000005722046
352,256,164488,2,0,B|400:320|480:336,1,150.000005722046,8|0,0:0|0:0,0:0:0
432,192,164922,1,0,0:0:0
336,72,165140,1,0,0:0:0
176,72,165357,1,8,0:0:0
80,192,165575,1,0,0:0:0
136,336,165792,2,0,B|184:280|184:192,1,150.000005722046
376,336,166227,2,0,B|328:280|328:192,1,150.000005722046,8|0,0:0|0:0,0:0:0
256,40,166661,1,0,0:0:0
256,192,166879,1,0,0:0:0
256,344,167096,1,8,0:0:0
344,48,167531,5,0,0:0:0
464,136,167749,1,0,0:0:0
168,336,167966,5,8,0:0:0
48,248,168184,1,0,0:0:0
112,112,168401,6,0,B|176:256,1,150.000005722046
400,272,168835,2,0,B|336:128,1,150.000005722046,8|0,0:0|0:0,0:0:0
112,112,169270,5,0,0:0:0
340,134,169488,1,0,0:0:0
173,249,169705,1,8,0:0:0
400,272,169922,1,0,0:0:0
280,352,170140,1,0,0:0:0
280,352,170357,1,0,0:0:0
280,352,170466,1,0,0:0:0
280,352,170575,1,8,0:0:0
256,48,171009,5,4,0:0:0
112,112,171227,1,0,0:0:0
128,264,171444,1,8,0:0:0
256,328,171661,1,0,0:0:0
384,264,171879,1,0,0:0:0
400,112,172096,1,0,0:0:0
256,48,172314,1,8,0:0:0
256,192,172531,1,0,0:0:0
104,192,172748,5,0,0:0:0
408,192,172966,1,0,0:0:0
168,336,173183,1,8,0:0:0
344,48,173401,1,0,0:0:0
344,336,173618,1,0,0:0:0
168,48,173836,1,0,0:0:0
256,192,174053,1,8,0:0:0
256,192,174270,1,0,0:0:0
128,112,174488,6,0,B|160:184|128:264,1,150.000005722046
384,264,174922,2,0,B|352:192|384:112,1,150.000005722046,8|0,0:0|0:0,0:0:0
128,112,175357,1,0,0:0:0
384,264,175574,1,0,0:0:0
130,258,175792,1,8,0:0:0
381,117,176009,1,0,0:0:0
256,40,176227,5,0,0:0:0
256,40,176444,1,0,0:0:0
256,344,176661,1,8,0:0:0
256,344,176878,1,0,0:0:0
64,192,177096,5,0,0:0:0
448,192,177314,1,0,0:0:0
256,192,177531,5,8,0:0:0
64,48,177966,5,0,0:0:0
192,128,178183,1,0,0:0:0
448,336,178400,5,8,0:0:0
320,256,178617,1,0,0:0:0
168,256,178835,5,0,0:0:0
344,128,179053,1,0,0:0:0
168,256,179270,1,8,0:0:0
344,128,179488,1,0,0:0:0
456,224,179705,6,0,B|496:152|456:80,1,150.000005722046
56,224,180140,2,0,B|16:152|56:80,2,150.000005722046,8|0|0,0:0|0:0|0:0,0:0:0
256,344,181009,1,8,0:0:0
104,88,181444,5,0,0:0:0
256,40,181661,1,0,0:0:0
408,88,181879,1,8,0:0:0
256,192,182096,1,0,0:0:0
104,296,182314,5,0,0:0:0
256,344,182531,1,0,0:0:0
408,296,182749,1,8,0:0:0
256,192,182966,1,0,0:0:0
104,72,183183,5,0,0:0:0
408,72,183401,1,0,0:0:0
256,344,183618,1,8,0:0:0
56,240,183835,1,0,0:0:0
456,240,184053,1,0,0:0:0
460,224,184161,1,0,0:0:0
464,208,184270,1,0,0:0:0
468,192,184379,1,0,0:0:0
472,176,184488,1,8,0:0:0
476,160,184596,1,0,0:0:0
480,144,184705,1,0,0:0:0
484,128,184814,1,0,0:0:0
488,112,184922,5,0,0:0:0
408,52,185140,1,0,0:0:0
384,148,185357,2,0,B|296:192,1,100
256,100,185792,2,0,B|196:184,1,100
256,264,186227,1,0,0:0:0
68,192,186661,6,0,B|44:96,2,100
168,160,187314,1,0,0:0:0
256,112,187531,1,0,0:0:0
344,160,187748,1,0,0:0:0
256,112,187966,1,0,0:0:0
304,304,188401,6,0,B|256:328|208:304,1,100
128,240,188835,1,0,0:0:0
256,192,189053,1,0,0:0:0
384,240,189270,1,0,0:0:0
256,40,189705,1,0,0:0:0
432,136,190140,6,0,B|392:104|336:120,1,100
80,136,190574,2,0,B|120:104|176:120,1,100
256,192,191009,12,0,191879,0:0:0
