osu file format v11

[General]
AudioFilename: 3OH!3 Ft. Kesha - My First Kiss.mp3
AudioLeadIn: 3000
PreviewTime: 41879
Countdown: 1
SampleSet: Normal
StackLeniency: 0.7
Mode: 0
LetterboxInBreaks: 1

[Editor]
DistanceSpacing: 1
BeatDivisor: 4
GridSize: 4

[Metadata]
Title:My First Kiss
TitleUnicode:
Artist:3OH!3 Ft. Ke$ha
ArtistUnicode:
Creator:MystykAMV
Version:Normal
Source:
Tags:Kiddo-kun ShadowSoul
BeatmapID:174987
BeatmapSetID:51616

[Difficulty]
HPDrainRate:5
CircleSize:4
OverallDifficulty:5
ApproachRate:5
SliderMultiplier:1.4
SliderTickRate:1

[Events]
//Background and Video events
0,0,"myfirstkiss1.jpg"
//Break Periods
2,69904,72418
2,129470,141983
//Storyboard Layer 0 (Background)
//Storyboard Layer 1 (Fail)
//Storyboard Layer 2 (Pass)
//Storyboard Layer 3 (Foreground)
//Storyboard Sound Samples
//Background Colour Transformations
3,100,163,162,255

[TimingPoints]
575,434.782608695652,4,2,1,100,1,0
42314,-100,4,1,0,60,0,1
70140,-100,4,1,0,60,0,0
73618,-100,4,2,0,100,0,0
101444,-100,4,1,0,60,0,1
129270,-100,4,2,0,100,0,0
157096,-100,4,1,0,60,0,1
184922,-100,4,2,0,100,0,0

[Colours]
Combo1 : 255,255,255
Combo2 : 228,200,1
Combo3 : 191,191,191
Combo4 : 248,105,223
SliderBorder : 255,255,255

[HitObjects]
192,112,575,2,0,B|256:72|324:112,2,140,0|8|0,0:0|0:0|0:0,0:0:0
220,248,1879,2,0,B|184:244|160:216,2,70,8|0|0,0:0|0:0|0:0,0:0:0
292,248,2531,2,0,B|328:244|352:216,1,70,0|8,0:0|0:0,0:0:0
256,316,3183,1,0,0:0:0
84,52,4488,5,8,0:0:0
84,52,4705,1,8,0:0:0
68,120,4922,2,0,B|108:128|144:108|160:72|152:36,1,140,0|8,0:0|0:0,0:0:0
428,52,6227,5,8,0:0:0
428,52,6444,1,8,0:0:0
444,120,6661,2,0,B|404:128|368:108|352:72|360:36,1,140,0|8,0:0|0:0,0:0:0
359,37,7314,5,0,0:0:0
288,36,7531,2,0,B|284:112|340:160,2,140,4|8|0,3:3|0:0|0:0,0:0:0
256,172,8835,1,8,0:0:0
224,36,9270,2,0,B|228:112|172:160,2,140,0|8|0,0:0|0:0|0:0,0:0:0
84,52,10574,1,8,0:0:0
84,332,11444,5,8,0:0:0
84,332,11661,1,8,0:0:0
68,264,11878,2,0,B|108:256|144:276|160:312|152:348,1,140,0|8,0:0|0:0,0:0:0
428,332,13183,5,8,0:0:0
428,332,13400,1,8,0:0:0
444,264,13617,2,0,B|404:256|368:276|352:312|360:348,1,140,0|8,0:0|0:0,0:0:0
256,248,14488,6,0,B|384:192,2,140,4|8|0,3:3|0:0|0:0,0:0:0
128,192,15792,1,8,0:0:0
256,136,16227,6,0,B|128:80,2,140,0|8|0,0:0|0:0|0:0,0:0:0
384,192,17531,1,8,0:0:0
396,332,17966,6,0,B|368:260|292:248,1,140,4|8,3:3|0:0,0:0:0
188,156,18835,2,0,B|256:128|324:156,1,140,0|8,0:0|0:0,0:0:0
220,248,19705,2,0,B|144:260|116:332,1,140,0|8,0:0|0:0,0:0:0
256,332,20574,1,0,0:0:0
256,192,21009,2,0,B|256:156,4,35,8|0|0|0|4,0:0|0:0|0:0|0:0|3:3,0:0:0
396,192,21879,5,8,0:0:0
392,52,22314,1,0,0:0:0
256,80,22748,1,8,0:0:0
120,52,23183,5,0,0:0:0
116,192,23618,1,8,0:0:0
256,192,24053,1,0,0:0:0
256,192,24488,1,8,0:0:0
396,192,24922,6,0,B|420:160|504:224|528:192,2,140,4|8|0,3:3|0:0|0:0,0:0:0
256,192,26227,1,8,0:0:0
116,192,26661,6,0,B|92:160|8:224|-16:192,2,140,0|8|0,0:0|0:0|0:0,0:0:0
256,192,27966,1,8,0:0:0
136,120,28401,1,4,3:3:0
28,32,28835,6,0,B|136:120,1,140,8|0,0:0|0:0,0:0:0
256,48,29705,1,8,0:0:0
376,120,30140,2,0,B|484:32,1,140,4|8,3:3|0:0,0:0:0
440,156,31009,5,0,0:0:0
500,192,31227,1,0,0:0:0
440,228,31444,1,8,0:0:0
324,308,31879,2,0,B|256:348|192:308,1,140,4|8,3:3|0:0,0:0:0
72,228,32748,5,0,0:0:0
12,192,32965,1,0,0:0:0
72,156,33183,1,8,0:0:0
216,192,33618,5,4,3:3:0
256,136,33835,1,0,0:0:0
296,192,34053,1,8,0:0:0
256,248,34270,1,8,0:0:0
196,288,34488,2,0,P|256:320|316:288,2,140,0|8|4,0:0|0:0|3:3,0:0:0
160,156,35792,6,0,B|164:120|164:120|196:112,1,70,8|8,0:0|0:0,0:0:0
228,48,36227,2,0,B|256:28|256:28|284:48,1,70
316,112,36661,2,0,B|348:120|348:120|352:156,1,70,8|0,0:0|0:0,0:0:0
320,220,37096,2,0,B|284:228|256:252|256:252|228:228|196:220,1,140,4|8,3:3|0:0,0:0:0
128,224,37748,6,0,B|128:264|164:280,1,70,8|0,0:0|0:0,0:0:0
220,320,38183,2,0,B|256:332|288:320,1,70,0|8,0:0|0:0,0:0:0
348,280,38618,2,0,B|384:264|384:224,1,70,0|4,0:0|3:3,0:0:0
292,120,39270,5,8,0:0:0
220,120,39488,1,8,0:0:0
256,180,39705,2,0,B|228:208|288:284|256:312,2,140,0|8|4,0:0|0:0|0:0,0:0:0
72,248,42314,6,0,B|40:236|24:192|40:148|72:136,1,140,4|8,0:0|0:0,0:0:0
200,192,43183,1,0,0:0:0
256,64,43618,1,8,0:0:0
312,192,44053,5,0,0:0:0
439,135,44488,2,0,B|472:148|488:192|472:236|440:248,2,140,8|0|8,0:0|0:0|0:0,0:0:0
312,192,45792,5,0,0:0:0
312,332,46227,2,0,B|299:365|255:381|211:365|199:333,1,140,8|0,0:0|0:0,0:0:0
200,192,47096,1,8,0:0:0
256,64,47531,2,0,B|336:56|372:124,1,140,0|8,0:0|0:0,0:0:0
372,259,48401,2,0,B|336:328|256:320,1,140,0|8,0:0|0:0,0:0:0
132,256,49270,6,0,B|100:216|164:164|132:124,2,140,0|8|0,0:0|0:0|0:0,0:0:0
256,192,50574,1,8,0:0:0
380,123,51009,2,0,B|348:164|412:216|380:256,2,140,0|8|0,0:0|0:0|0:0,0:0:0
256,56,52314,1,8,0:0:0
172,168,52748,6,0,B|136:232|56:232,2,140,0|8|0,0:0|0:0|0:0,0:0:0
256,280,54053,1,8,0:0:0
340,168,54488,2,0,B|376:232|456:232,2,140,0|8|0,0:0|0:0|0:0,0:0:0
256,56,55792,1,8,0:0:0
128,40,56227,6,0,B|120:112|120:112|60:140,1,140,4|8,0:0|0:0,0:0:0
68,280,57096,1,0,0:0:0
192,220,57531,2,0,B|256:192|256:192|320:220,1,140,8|0,0:0|0:0,0:0:0
444,280,58401,1,8,0:0:0
453,140,58835,2,0,B|392:112|392:112|384:40,1,140,0|8,0:0|0:0,0:0:0
256,96,59705,5,0,0:0:0
156,192,60140,1,8,0:0:0
256,288,60574,1,0,0:0:0
356,192,61009,1,8,0:0:0
316,56,61444,6,0,B|272:72|256:88|256:88|240:72|192:56,3,140,0|8|0|8,0:0|0:0|0:0|0:0,0:0:0
68,120,63183,6,0,B|116:112|132:200|180:192,1,140,0|8,0:0|0:0,0:0:0
60,264,64053,1,0,0:0:0
192,316,64488,2,0,B|256:268|320:316,1,140,8|0,0:0|0:0,0:0:0
452,264,65357,1,8,0:0:0
332,192,65792,2,0,B|380:200|396:112|444:120,1,140,0|8,0:0|0:0,0:0:0
340,24,66661,6,0,B|272:40|272:40|256:108,1,140,0|8,0:0|0:0,0:0:0
124,152,67531,1,0,0:0:0
256,192,67966,1,8,0:0:0
388,232,68401,1,0,0:0:0
256,276,68835,2,0,B|240:344|240:344|172:360,2,140,8|0|8,0:0|0:0|0:0,0:0:0
256,192,73618,6,0,B|116:192,1,140,4|8,3:3|0:0,0:0:0
188,72,74488,2,0,B|328:72,1,140,0|8,0:0|0:0,0:0:0
396,192,75357,2,0,B|256:192,1,140,0|8,0:0|0:0,0:0:0
188,312,76227,2,0,B|328:312,1,140,0|8,0:0|0:0,0:0:0
256,192,77096,5,4,3:3:0
388,144,77531,1,8,0:0:0
440,192,77748,1,8,0:0:0
388,240,77966,1,0,0:0:0
256,192,78401,5,8,0:0:0
124,144,78835,1,0,0:0:0
72,192,79052,1,0,0:0:0
124,240,79270,1,8,0:0:0
180,196,79488,1,8,0:0:0
192,264,79705,2,0,B|256:308|324:264,1,140,0|8,0:0|0:0,0:0:0
256,140,80574,6,0,B|252:100|216:88,2,70,4|0|8,3:3|0:0|0:0,0:0:0
276,0,81444,2,0,B|344:32|356:108,1,140,0|8,0:0|0:0,0:0:0
312,164,82096,6,0,B|312:232,1,70
200,164,82748,2,0,B|200:232,1,70,8|8,0:0|0:0,0:0:0
88,56,83618,6,0,B|144:24|176:88|216:88,1,140,8|4,0:0|3:3,0:0:0
212,160,84270,1,0,0:0:0
256,216,84488,2,8,P|256:288,2,70,8|8|0,0:0|0:0|0:0,0:0:0
300,160,85140,1,0,0:0:0
295,88,85357,2,0,B|336:88|368:24|424:56,1,140,8|0,0:0|0:0,0:0:0
392,192,86227,5,8,0:0:0
428,252,86444,1,8,0:0:0
356,252,86661,1,0,0:0:0
256,152,87096,5,8,0:0:0
256,292,87531,1,4,3:3:0
84,252,87966,5,8,0:0:0
120,192,88183,1,8,0:0:0
156,252,88400,1,0,0:0:0
188,192,88618,2,0,B|256:192,1,70,0|8,0:0|0:0,0:0:0
256,52,89270,1,4,3:3:0
356,132,89705,5,8,0:0:0
428,132,89922,1,8,0:0:0
392,192,90139,1,0,0:0:0
324,192,90357,2,0,B|256:192,1,70,0|8,0:0|0:0,0:0:0
256,332,91009,1,4,3:3:0
144,248,91444,6,0,B|72:128,2,140,8|0|8,0:0|0:0|0:0,0:0:0
256,164,92748,1,4,3:3:0
368,248,93183,2,0,B|440:128,2,140,8|0|8,0:0|0:0|0:0,0:0:0
256,164,94488,1,4,3:3:0
144,248,94922,6,0,B|180:236|220:264|228:308|212:336,1,140,8|0,0:0|0:0,0:0:0
76,372,95792,2,0,B|128:328,2,70,8|0|4,0:0|0:0|3:3,0:0:0
40,236,96661,5,8,0:0:0
96,192,96879,1,8,0:0:0
40,148,97096,1,0,0:0:0
76,12,97531,6,0,B|129:57,2,70,8|0|4,0:0|0:0|3:3,0:0:0
144,136,98401,2,0,B|180:148|220:120|228:76|212:48,1,140,8|0,0:0|0:0,0:0:0
256,180,99270,1,8,0:0:0
256,180,99488,1,0,0:0:0
256,192,99705,12,0,101009,0:0:0
452,192,101444,6,0,B|440:224|396:236|348:224|336:192,2,140,4|8|0,0:0|0:0|0:0,0:0:0
392,64,102748,1,8,0:0:0
256,32,103183,6,0,B|256:172,2,140,0|8|0,0:0|0:0|0:0,0:0:0
120,64,104488,1,8,0:0:0
60,192,104922,6,0,B|72:224|116:236|164:224|176:192,2,140,0|8|0,0:0|0:0|0:0,0:0:0
116,320,106227,1,8,0:0:0
256,336,106661,1,0,0:0:0
396,320,107096,1,8,0:0:0
328,200,107531,2,0,B|188:200,1,140,0|8,0:0|0:0,0:0:0
48,192,108401,6,0,B|112:144|120:76|120:76|188:92|256:64,1,280
196,192,109705,1,8,0:0:0
256,64,110140,2,0,B|324:92|392:76|392:76|400:144|464:192,1,280
324,192,111444,1,8,0:0:0
256,316,111879,6,0,P|220:304|212:268|212:268|180:272|144:252,1,140,0|8,0:0|0:0,0:0:0
192,120,112748,1,0,0:0:0
320,120,113183,1,8,0:0:0
368,252,113618,2,0,P|332:272|300:268|300:268|292:304|256:316,1,140,0|8,0:0|0:0,0:0:0
256,176,114488,2,0,P|256:36,1,140,0|8,0:0|0:0,0:0:0
160,140,115357,6,0,P|132:156|116:192|116:192|136:236|160:248,1,140,4|8,0:0|0:0,0:0:0
28,192,116227,2,0,P|60:256|104:308,1,140,0|8,0:0|0:0,0:0:0
28,192,117096,2,0,P|60:128|104:76,1,140,0|8,0:0|0:0,0:0:0
158,247,117966,2,0,P|136:236|116:192|116:192|132:156|160:140,1,140,0|8,0:0|0:0,0:0:0
300,156,118835,6,0,P|372:156,1,70
370,228,119270,2,0,P|300:228,1,70,8|0,0:0|0:0,0:0:0
232,240,119705,2,0,P|188:192|232:148,1,140,0|8,0:0|0:0,0:0:0
92,128,120574,2,0,P|68:192|92:256,2,140,0|8|0,0:0|0:0|0:0,0:0:0
216,192,121879,1,8,0:0:0
256,60,122314,6,0,P|308:64|384:104,1,140,0|8,0:0|0:0,0:0:0
496,192,123183,2,0,P|356:192,1,140,0|8,0:0|0:0,0:0:0
256,324,124053,2,0,P|308:320|384:280,1,140,0|8,0:0|0:0,0:0:0
276,192,124922,2,0,P|236:56,1,140,0|8,0:0|0:0,0:0:0
104,100,125792,6,0,P|168:140|204:192,1,140,0|8,0:0|0:0,0:0:0
328,128,126661,2,0,P|348:192|328:260,1,140,0|8,0:0|0:0,0:0:0
204,192,127531,2,0,P|168:244|104:284,2,140,0|8|0,0:0|0:0|0:0,0:0:0
256,64,128835,1,8,0:0:0
316,192,129270,1,4,3:3:0
256,192,143183,6,0,P|320:216|384:192,2,140,4|0|8,3:3|0:0|0:0,0:0:0
256,52,144488,1,0,0:0:0
256,192,144922,2,0,P|192:216|128:192,2,140,0|0|8,0:0|0:0|0:0,0:0:0
256,332,146227,1,0,0:0:0
396,328,146661,6,0,P|456:296|464:228,1,140
328,192,147531,1,8,0:0:0
464,152,147966,1,0,0:0:0
348,72,148401,5,0,0:0:0
220,128,148835,2,0,P|264:112|248:32|288:12,2,140,0|8|0,0:0|0:0|0:0,0:0:0
92,192,150140,6,0,P|164:192,1,70,4|0,3:3|0:0,0:0:0
164,260,150574,2,0,P|212:316,1,70
256,364,151009,1,8,0:0:0
302,313,151227,2,0,P|348:260,1,70
350,192,151661,2,0,P|420:192,2,70
300,140,152314,1,0,0:0:0
212,32,152748,1,8,0:0:0
256,192,153618,12,0,156227,0:0:0
36,192,157096,6,0,P|40:264|84:312,2,140,4|8|0,0:0|0:0|0:0,0:0:0
176,192,158401,1,8,0:0:0
336,192,158835,1,0,0:0:0
476,192,159270,2,0,P|472:120|428:72,2,140,8|0|8,0:0|0:0|0:0,0:0:0
444,328,160574,6,0,P|320:352|256:232,1,280
388,192,161879,1,8,0:0:0
256,152,162314,2,0,P|192:32|68:56,1,280
124,192,163618,1,8,0:0:0
184,320,164053,6,0,P|124:356,2,70,0|0|8,0:0|0:0|0:0,0:0:0
328,320,164922,2,0,P|388:356,2,70,0|0|8,0:0|0:0|0:0,0:0:0
224,228,165792,2,0,P|256:216|288:228,2,70,0|0|8,0:0|0:0|0:0,0:0:0
184,92,166661,1,0,0:0:0
328,92,167096,1,8,0:0:0
428,192,167531,6,0,P|432:256|400:324,2,140,4|8|0,0:0|0:0|0:0,0:0:0
300,248,168835,1,8,0:0:0
212,136,169270,1,0,0:0:0
84,192,169705,2,0,P|80:128|112:60,2,140,8|0|8,0:0|0:0|0:0,0:0:0
128,324,171009,6,0,P|204:328|256:296,1,140,0|8,0:0|0:0,0:0:0
224,160,171879,2,0,P|256:144|256:144|288:160,2,70,0|0|8,0:0|0:0|0:0,0:0:0
256,296,172748,6,0,P|308:328|384:324,1,140,0|8,0:0|0:0,0:0:0
484,224,173618,2,0,P|499:193|499:193|483:161,2,70,0|0|8,0:0|0:0|0:0,0:0:0
360,156,174488,6,0,P|256:76|156:156,1,280
20,192,175792,1,8,0:0:0
156,228,176227,6,0,P|256:308|360:228,1,280
496,192,177531,1,8,0:0:0
376,120,177966,6,0,P|376:64|292:64|292:16,1,140,0|8,0:0|0:0,0:0:0
296,156,178835,2,0,P|228:168|212:232,1,140,0|8,0:0|0:0,0:0:0
220,368,179705,2,0,P|220:320|136:320|136:264,1,140,0|8,0:0|0:0,0:0:0
216,156,180574,2,0,P|284:168|300:232,1,140,0|8,0:0|0:0,0:0:0
256,364,181444,6,0,P|124:312,1,140,0|8,0:0|0:0,0:0:0
256,264,182314,2,0,P|388:212,1,140,0|8,0:0|0:0,0:0:0
320,88,183183,2,0,P|256:64|192:88,2,140,0|8|0,0:0|0:0|0:0,0:0:0
208,176,184488,1,8,0:0:0
308,272,184922,1,0,0:0:0
