osu file format v11

[General]
AudioFilename: 3OH!3 Ft. Kesha - My First Kiss.mp3
AudioLeadIn: 3000
PreviewTime: 41879
Countdown: 1
SampleSet: Soft
StackLeniency: 0.7
Mode: 0
LetterboxInBreaks: 1

[Editor]
DistanceSpacing: 0.8
BeatDivisor: 4
GridSize: 4

[Metadata]
Title:My First Kiss
TitleUnicode:
Artist:3OH!3 Ft. Ke$ha
ArtistUnicode:
Creator:MystykAMV
Version:Hard
Source:
Tags:Kiddo-kun ShadowSoul
BeatmapID:158135
BeatmapSetID:51616

[Difficulty]
HPDrainRate:7
CircleSize:4
OverallDifficulty:7
ApproachRate:7
SliderMultiplier:2.2
SliderTickRate:1

[Events]
//Background and Video events
0,0,"myfirstkiss1.jpg"
//Break Periods
2,69904,72718
//Storyboard Layer 0 (Background)
//Storyboard Layer 1 (Fail)
//Storyboard Layer 2 (Pass)
//Storyboard Layer 3 (Foreground)
//Storyboard Sound Samples
//Background Colour Transformations
3,100,163,162,255

[TimingPoints]
575,434.782608695652,4,2,1,100,1,0
42314,-100,4,1,0,60,0,1
70140,-100,4,2,0,100,0,0
101444,-100,4,1,0,60,0,1
129270,-100,4,2,0,100,0,0
157096,-100,4,1,0,60,0,1
184922,-100,4,2,0,100,0,0

[Colours]
Combo1 : 255,255,255
Combo2 : 228,200,1
Combo3 : 191,191,191
Combo4 : 248,105,223
SliderBorder : 255,255,255

[HitObjects]
200,136,575,1,0,0:0:0
312,136,1009,1,8,0:0:0
256,232,1444,1,0,0:0:0
344,296,1879,5,8,0:0:0
296,328,2096,1,0,0:0:0
256,352,2314,1,0,0:0:0
216,328,2531,1,0,0:0:0
168,296,2748,1,8,0:0:0
256,192,3183,1,0,0:0:0
48,48,4705,5,0,0:0:0
72,88,4922,2,0,B|72:136|256:136|256:192,1,220,0|8,0:0|0:0,0:0:0
464,336,6444,5,0,0:0:0
440,296,6661,2,0,B|440:248|256:248|256:192,1,220,0|8,0:0|0:0,0:0:0
256,152,7314,5,0,0:0:0
256,96,7531,1,4,3:3:0
144,128,7966,1,8,0:0:0
48,192,8401,1,0,0:0:0
144,256,8835,5,8,0:0:0
192,224,9053,1,0,0:0:0
224,192,9270,1,0,0:0:0
192,160,9488,1,0,0:0:0
144,128,9705,1,8,0:0:0
48,192,10140,1,0,0:0:0
464,48,11661,5,0,0:0:0
440,88,11878,2,0,B|440:136|256:136|256:192,1,220,0|8,0:0|0:0,0:0:0
48,336,13401,5,0,0:0:0
72,296,13618,2,0,B|72:248|256:248|256:192,1,220,0|8,0:0|0:0,0:0:0
160,120,14488,6,0,B|184:80|256:48|328:80|352:120,1,220,4|8,3:3|0:0,0:0:0
308,252,15357,2,0,B|284:276|228:276|208:252,1,110
256,376,16009,5,0,0:0:0
336,328,16227,2,0,B|448:328,1,110
256,192,16879,1,0,0:0:0
224,328,17314,5,0,0:0:0
152,328,17531,2,0,B|40:328,1,110,8|0,0:0|0:0,0:0:0
48,232,17966,6,0,B|24:208|48:176|72:144|56:128,1,110,4|0,3:3|0:0,0:0:0
57,129,18401,1,8,0:0:0
120,56,18618,1,8,0:0:0
200,32,18835,2,0,B|312:32,2,110,0|0|8,0:0|0:0|0:0,0:0:0
200,112,19488,1,0,0:0:0
256,168,19705,5,0,0:0:0
312,112,19922,1,0,0:0:0
360,48,20140,2,0,B|448:120,1,110,8|8,0:0|0:0,0:0:0
448,200,20574,1,0,0:0:0
280,344,20901,2,0,B|224:344,4,55
328,288,21444,6,0,B|320:216|256:200|192:216|184:288,1,220,4|8,3:3|0:0,0:0:0
192,64,22314,1,0,0:0:0
256,32,22531,1,0,0:0:0
320,64,22748,1,8,0:0:0
176,128,23183,2,0,B|176:192|344:192|344:256,1,220,0|8,0:0|0:0,0:0:0
176,256,24053,2,0,B|176:192|344:192|344:128,1,220,0|8,0:0|0:0,0:0:0
256,264,24922,5,4,3:3:0
256,264,25140,1,0,0:0:0
200,312,25357,1,8,0:0:0
256,360,25574,1,8,0:0:0
312,312,25792,1,0,0:0:0
256,264,26009,1,0,0:0:0
176,232,26227,6,0,B|168:168|216:136,1,110,8|0,0:0|0:0,0:0:0
296,136,26661,2,0,B|344:168|336:232,1,110
312,312,27096,2,0,B|256:344|208:312,1,110,8|8,0:0|0:0,0:0:0
160,240,27531,2,0,B|208:184|304:184|360:240,1,220,0|8,0:0|0:0,0:0:0
160,240,28401,1,4,3:3:0
208,32,28835,6,0,B|176:40|168:72|176:104|208:112,2,110,8|8|0,0:0|0:0|0:0,0:0:0
304,32,29488,2,0,B|336:40|344:72|336:104|304:112,1,110,0|8,0:0|0:0,0:0:0
256,192,29922,1,0,0:0:0
176,228,30140,2,0,B|180:276|256:328|332:276|336:228,1,220,4|8,3:3|0:0,0:0:0
336,227,30792,1,8,0:0:0
344,128,31009,6,0,B|409:137|425:193,1,110,0|0,0:0|0:0,0:0:0
424,280,31444,2,0,B|408:336|343:345,1,110,8|0,0:0|0:0,0:0:0
256,352,31879,6,0,B|184:312|328:192|256:152,1,220,4|8,3:3|0:0,0:0:0
258,153,32531,1,8,0:0:0
168,192,32748,1,0,0:0:0
258,153,32966,1,0,0:0:0
344,192,33183,1,8,0:0:0
310,80,33618,6,0,B|270:64|270:64|254:72|238:64|238:64|206:80,1,110,4|0,3:3|0:0,0:0:0
208,80,34053,1,8,0:0:0
208,80,34270,1,8,0:0:0
152,136,34488,2,0,B|152:200|216:216,1,110
256,152,34922,1,8,0:0:0
256,152,35140,1,0,0:0:0
360,136,35357,2,0,B|360:200|296:216,1,110,4|0,3:3|0:0,0:0:0
200,232,35792,5,8,0:0:0
148,316,36009,1,8,0:0:0
236,364,36227,1,0,0:0:0
332,348,36444,2,0,P|312:304|264:268,1,110,0|8,0:0|0:0,0:0:0
168,244,36879,1,0,0:0:0
160,144,37096,2,0,B|184:96|344:192|368:144,1,220,4|8,3:3|0:0,0:0:0
367,144,37748,1,8,0:0:0
376,64,37966,5,0,0:0:0
304,16,38183,1,0,0:0:0
208,16,38401,1,8,0:0:0
136,64,38618,1,0,0:0:0
256,80,38835,2,0,B|200:110|312:246|256:286,1,220,4|8,3:3|0:0,0:0:0
257,285,39488,1,8,0:0:0
256,192,39705,12,4,40574,3:3:0
480,104,42314,6,0,B|456:88|400:152|376:136,1,110,4|0,0:0|0:0,0:0:0
344,216,42748,2,0,B|328:272|264:280,1,110,8|0,0:0|0:0,0:0:0
256,192,43183,1,0,0:0:0
304,116,43401,2,0,B|288:88|224:88|208:116,1,110,0|8,0:0|0:0,0:0:0
32,104,44053,6,0,B|56:88|112:152|136:136,1,110,0|0,0:0|0:0,0:0:0
168,216,44488,2,0,B|184:272|248:280,1,110,8|0,0:0|0:0,0:0:0
256,192,44922,1,0,0:0:0
208,116,45140,2,0,B|224:88|288:88|304:116,1,110,0|8,0:0|0:0,0:0:0
48,336,45792,5,0,0:0:0
64,256,46009,2,0,B|112:256|136:288|136:328,2,110,0|8|0,0:0|0:0|0:0,0:0:0
96,176,46661,1,0,0:0:0
256,252,47096,1,8,0:0:0
464,336,47531,5,0,0:0:0
448,256,47748,2,0,B|400:256|376:288|376:328,2,110,0|8|0,0:0|0:0|0:0,0:0:0
416,176,48401,1,0,0:0:0
336,216,48618,1,0,0:0:0
304,296,48835,1,8,0:0:0
128,296,49270,6,0,B|64:288|40:240,1,110
39,144,49705,2,0,B|64:96|128:88,1,110,8|0,0:0|0:0,0:0:0
216,96,50140,5,0,0:0:0
288,152,50357,1,0,0:0:0
232,224,50574,1,8,0:0:0
296,288,50792,1,0,0:0:0
384,296,51009,6,0,B|448:288|472:239,1,110
472,144,51444,2,0,B|448:96|384:88,1,110,8|0,0:0|0:0,0:0:0
360,176,51879,2,0,B|288:232|224:232|160:176,1,220,0|8,0:0|0:0,0:0:0
464,320,52748,6,0,B|416:216,1,110
376,128,53183,1,8,0:0:0
280,160,53400,1,0,0:0:0
208,224,53618,5,0,0:0:0
144,296,53835,1,0,0:0:0
48,320,54053,2,0,B|96:216,1,110,8|0,0:0|0:0,0:0:0
120,128,54488,5,0,0:0:0
208,152,54705,1,0,0:0:0
304,152,54922,1,8,0:0:0
392,128,55139,1,0,0:0:0
368,48,55357,2,0,B|144:48,1,220,0|8,0:0|0:0,0:0:0
208,320,56227,6,0,B|208:280|136:280|136:240,1,110
208,192,56661,1,8,0:0:0
304,192,56879,1,0,0:0:0
376,248,57096,2,0,B|377:285|305:285|305:325,1,110
256,256,57531,1,8,0:0:0
216,56,57966,6,0,B|160:88|176:152,1,110
296,56,58401,2,0,B|352:88|336:152,1,110,8|0,0:0|0:0,0:0:0
336,232,58835,1,0,0:0:0
256,272,59053,1,0,0:0:0
176,232,59270,1,8,0:0:0
408,64,59705,6,0,B|376:40|336:40|304:64,1,110
208,64,60140,2,0,B|177:41|137:41|105:65,1,110,8|0,0:0|0:0,0:0:0
152,176,60574,1,0,0:0:0
360,176,61009,1,8,0:0:0
184,288,61444,5,0,0:0:0
256,344,61661,1,0,0:0:0
328,288,61879,1,8,0:0:0
328,200,62096,1,0,0:0:0
256,144,62314,1,0,0:0:0
184,200,62531,1,0,0:0:0
256,248,62748,1,8,0:0:0
56,216,63183,6,0,B|120:304,1,110
208,304,63618,1,8,0:0:0
256,232,63835,1,0,0:0:0
256,152,64053,5,0,0:0:0
304,80,64270,1,0,0:0:0
391,79,64488,2,0,B|456:168,1,110,8|0,0:0|0:0,0:0:0
400,320,64922,6,0,B|400:280|320:280|320:248,1,110
112,64,65357,2,0,B|112:104|192:104|191:132,1,110,8|0,0:0|0:0,0:0:0
192,280,65792,2,0,B|328:104,1,220,0|8,0:0|0:0,0:0:0
64,192,66661,6,0,B|176:192,1,110
448,192,67096,2,0,B|336:192,1,110,8|0,0:0|0:0,0:0:0
256,40,67531,6,0,B|256:152,1,110
256,344,67966,2,0,B|256:232,1,110,8|0,0:0|0:0,0:0:0
376,248,68401,5,0,0:0:0
312,312,68618,1,0,0:0:0
200,312,68835,1,8,0:0:0
136,248,69052,1,0,0:0:0
212,200,69270,2,0,P|256:120|296:200,1,220,0|8,0:0|0:0,0:0:0
40,192,73618,6,0,B|88:152|216:232|252:192,1,220,4|8,3:3|0:0,0:0:0
252,191,74270,1,8,0:0:0
204,116,74488,2,0,B|256:84|308:116,1,110
307,115,74922,1,8,0:0:0
307,115,75140,1,0,0:0:0
384,192,75357,2,0,B|496:192,1,110
494,192,75792,1,8,0:0:0
464,264,76009,2,0,B|444:344|380:384|300:384,1,220,8|0,0:0|0:0,0:0:0
300,296,76661,5,8,0:0:0
212,296,76879,1,0,0:0:0
212,384,77096,2,0,B|132:384|68:344|48:264,1,220,4|8,3:3|0:0,0:0:0
48,264,77748,1,8,0:0:0
48,192,77966,1,0,0:0:0
464,192,78401,1,8,0:0:0
256,48,78835,6,0,B|256:160,3,110,0|0|8|8,0:0|0:0|0:0|0:0,0:0:0
168,200,79705,2,0,B|192:256|256:280|320:256|344:200,1,220,0|8,0:0|0:0,0:0:0
192,320,80574,5,4,3:3:0
256,368,80792,1,0,0:0:0
320,320,81009,1,8,0:0:0
208,184,81444,2,0,B|232:152|280:152|304:184,1,110
303,182,81879,1,8,0:0:0
303,182,82096,5,0,0:0:0
368,136,82314,1,0,0:0:0
144,136,82748,1,8,0:0:0
144,136,82965,1,8,0:0:0
456,144,83618,6,0,B|488:168|488:216|456:240,1,110,8|0,0:0|0:0,0:0:0
392,192,84053,2,0,B|368:160|320:160|296:192,1,110,4|0,3:3|0:0,0:0:0
216,192,84488,2,0,B|192:224|144:224|120:192,1,110,8|8,0:0|0:0,0:0:0
56,144,84922,2,0,B|24:168|24:216|56:240,1,110
160,296,85357,5,8,0:0:0
160,296,85574,1,0,0:0:0
160,296,85792,1,0,0:0:0
352,296,86227,1,8,0:0:0
352,296,86444,1,8,0:0:0
352,296,86661,1,0,0:0:0
256,40,87531,6,0,B|224:104|288:192|256:256,1,220,4|8,3:3|0:0,0:0:0
256,255,88183,1,8,0:0:0
208,320,88401,2,0,B|232:344|280:344|312:320,2,110,0|0|8,0:0|0:0|0:0,0:0:0
208,320,89053,1,0,0:0:0
224,232,89270,6,0,B|216:168|152:144|80:168|72:232,1,220,4|8,3:3|0:0,0:0:0
71,232,89922,1,8,0:0:0
112,304,90140,2,0,B|216:336,1,110
294,336,90574,2,0,B|400:304,1,110,8|0,0:0|0:0,0:0:0
440,232,91009,6,0,B|432:168|360:144|296:168|288:232,1,220,4|8,3:3|0:0,0:0:0
287,232,91661,1,8,0:0:0
216,280,91879,2,0,B|193:250|193:202|217:178,1,110
216,178,92314,1,8,0:0:0
256,104,92531,1,0,0:0:0
88,236,92966,6,0,P|112:208|60:164|88:132,1,110,0|8,0:0|0:0,0:0:0
88,131,93401,1,8,0:0:0
168,120,93618,2,0,P|176:64|212:28,1,110
300,28,94053,2,0,P|336:64|344:120,1,110,8|0,0:0|0:0,0:0:0
343,120,94488,1,4,3:3:0
400,334,94922,6,0,B|400:280|400:280|344:280,1,110,8|8,0:0|0:0,0:0:0
272,278,95357,2,0,B|272:224|272:224|216:224,1,110,0|0,0:0|0:0,0:0:0
144,222,95792,2,0,B|144:168|144:168|88:168,1,110,8|0,0:0|0:0,0:0:0
88,168,96227,1,4,3:3:0
200,48,96661,6,0,B|312:48,1,110,8|8,0:0|0:0,0:0:0
312,120,97096,2,0,B|200:120,1,110
200,200,97531,1,8,0:0:0
256,256,97748,1,0,0:0:0
312,200,97966,1,4,3:3:0
256,344,98401,5,8,0:0:0
256,344,98618,1,8,0:0:0
256,344,98835,1,0,0:0:0
256,192,99270,1,8,0:0:0
256,192,99488,1,0,0:0:0
256,192,99705,12,0,101009,0:0:0
40,112,101444,6,0,B|48:48|112:40,1,110
192,40,101879,2,0,B|256:48|264:112,1,110,8|0,0:0|0:0,0:0:0
184,120,102314,1,0,0:0:0
140,192,102531,1,0,0:0:0
64,236,102748,1,8,0:0:0
480,272,103183,6,0,B|472:336|408:344,1,110
328,344,103618,2,0,B|264:336|256:272,1,110,8|0,0:0|0:0,0:0:0
336,264,104053,1,0,0:0:0
384,192,104270,1,0,0:0:0
460,148,104488,1,8,0:0:0
208,56,104922,6,0,B|232:24|280:24|304:56,3,110,0|0|8|0,0:0|0:0|0:0|0:0,0:0:0
256,128,105792,2,0,B|256:348,1,220,0|8,0:0|0:0,0:0:0
80,336,106661,6,0,P|132:324|172:284,1,110
172,196,107096,2,0,P|132:157|80:145,1,110,8|0,0:0|0:0,0:0:0
52,60,107531,1,0,0:0:0
140,60,107748,1,0,0:0:0
212,112,107966,1,8,0:0:0
464,56,108401,6,0,B|440:80|472:136|448:160,1,110
360,128,108835,2,0,B|336:152|368:208|344:232,1,110,8|0,0:0|0:0,0:0:0
256,192,109270,5,0,0:0:0
256,280,109488,1,0,0:0:0
168,232,109705,2,0,B|144:208|176:152|152:128,1,110,8|0,0:0|0:0,0:0:0
64,160,110140,6,0,B|40:136|72:80|48:56,1,110
144,40,110574,1,8,0:0:0
256,40,110792,1,0,0:0:0
336,112,111009,2,0,B|320:176|256:192|192:176|176:112,1,220,0|8,0:0|0:0,0:0:0
472,344,111879,5,0,0:0:0
416,264,112096,1,0,0:0:0
368,344,112314,1,8,0:0:0
320,264,112531,1,0,0:0:0
304,168,112748,6,0,P|256:144|208:168,1,110
192,264,113183,1,8,0:0:0
144,344,113400,1,0,0:0:0
40,344,113618,5,0,0:0:0
96,264,113835,1,0,0:0:0
44,180,114053,2,0,B|96:148|148:180,1,110,8|0,0:0|0:0,0:0:0
172,84,114488,2,0,P|256:24|340:84,1,220,0|8,0:0|0:0,0:0:0
340,260,115357,6,0,B|400:284|400:344,1,110
312,344,115792,2,0,B|200:344,1,110,8|0,0:0|0:0,0:0:0
112,344,116227,2,0,B|112:284|172:260,1,110
256,236,116661,1,8,0:0:0
128,56,117096,6,0,B|112:88|144:136|184:136,1,110
208,56,117531,2,0,B|232:24|280:24|304:56,1,110,8|0,0:0|0:0,0:0:0
384,56,117966,2,0,B|400:88|376:136|328:136,1,110
256,192,118401,1,8,0:0:0
64,192,118835,6,0,B|176:192,1,110
448,192,119270,2,0,B|336:192,1,110,8|0,0:0|0:0,0:0:0
256,104,119705,1,0,0:0:0
256,280,120140,1,8,0:0:0
40,344,120574,5,0,0:0:0
72,256,120792,1,0,0:0:0
168,232,121009,1,8,0:0:0
256,192,121227,1,0,0:0:0
344,152,121444,1,0,0:0:0
440,128,121662,1,0,0:0:0
472,40,121879,1,8,0:0:0
208,48,122314,6,0,B|232:24|288:72|312:48,1,110
312,136,122748,2,0,B|287:160|231:112|207:136,1,110,8|0,0:0|0:0,0:0:0
136,192,123183,6,0,B|136:304,1,110
200,368,123618,1,8,0:0:0
312,368,123835,1,0,0:0:0
376,302,124053,6,0,B|376:192,1,110
312,136,124488,2,0,B|287:160|231:112|207:136,1,110,8|0,0:0|0:0,0:0:0
160,60,124922,2,0,B|216:4|296:4|360:60,1,220,0|8,0:0|0:0,0:0:0
40,344,125792,6,0,B|24:320|64:256|40:232,1,110
48,144,126227,1,8,0:0:0
112,64,126444,1,0,0:0:0
208,56,126661,6,0,B|232:88|280:88|304:56,1,110
400,64,127096,1,8,0:0:0
464,144,127313,1,0,0:0:0
468,236,127531,6,0,B|448:256|488:320|472:344,1,110
368,336,127966,2,0,B|368:272|304:256,1,110,8|0,0:0|0:0,0:0:0
336,176,128401,2,0,B|276:144|222:181|191:239|228:294,1,220,0|8,0:0|0:0,0:0:0
176,96,129270,6,0,B|184:32|256:16|328:32|336:96,1,220,2|0,0:0|0:0,0:0:0
335,93,129922,1,0,0:0:0
256,120,130140,1,8,0:0:0
152,192,130574,2,0,B|184:192|176:280|208:280,1,110
304,280,131009,2,0,B|336:280|328:192|360:192,1,110
358,192,131444,1,0,0:0:0
256,48,131879,1,8,0:0:0
256,336,132531,2,0,B|256:224,1,110
48,192,133401,5,0,0:0:0
48,192,133618,1,8,0:0:0
392,260,134488,5,0,0:0:0
424,132,134814,1,0,0:0:0
304,192,135140,2,0,B|288:168|224:216|200:192,1,110,0|8,0:0|0:0,0:0:0
256,40,136009,5,0,0:0:0
176,72,136227,2,0,B|184:136|256:152|328:136|336:72,2,220,2|0|8,0:0|0:0|0:0,0:0:0
128,192,137531,1,0,0:0:0
192,256,137748,1,0,0:0:0
256,192,137966,1,0,0:0:0
320,256,138183,1,0,0:0:0
384,192,138400,1,0,0:0:0
256,352,138835,1,8,0:0:0
48,240,139488,2,0,B|24:224|72:160|48:136,1,110
464,136,140357,6,0,B|440:160|488:224|464:240,1,110,0|8,0:0|0:0,0:0:0
128,128,141444,1,0,0:0:0
256,168,141770,1,0,0:0:0
384,128,142096,1,0,0:0:0
384,128,142314,1,8,0:0:0
256,248,142748,1,0,0:0:0
136,48,143183,6,0,B|112:32|64:112|40:96,1,110,2|0,0:0|0:0,0:0:0
104,152,143618,1,0,0:0:0
104,232,143835,1,0,0:0:0
43,286,144053,2,0,B|64:272|112:352|136:336,1,110,8|0,0:0|0:0,0:0:0
134,336,144488,1,0,0:0:0
376,336,144922,6,0,B|400:352|448:272|468:286,1,110,0|0,0:0|0:0,0:0:0
408,232,145357,1,0,0:0:0
408,152,145574,1,0,0:0:0
468,97,145792,2,0,B|448:112|400:32|376:48,1,110,8|0,0:0|0:0,0:0:0
377,47,146227,1,0,0:0:0
216,112,146661,5,0,0:0:0
216,192,146879,1,0,0:0:0
296,192,147096,1,0,0:0:0
296,272,147314,1,0,0:0:0
140,352,147748,5,0,0:0:0
140,352,147966,1,0,0:0:0
64,192,148401,5,0,0:0:0
120,120,148618,1,0,0:0:0
200,80,148835,1,0,0:0:0
256,16,149053,1,0,0:0:0
312,80,149270,1,8,0:0:0
392,120,149487,1,0,0:0:0
448,192,149704,1,0,0:0:0
304,336,150140,6,0,B|280:320|224:352|192:336,1,110,2|0,0:0|0:0,0:0:0
208,256,150574,2,0,B|232:224|280:224|304:256,2,110,0|0|8,0:0|0:0|0:0,0:0:0
120,256,151227,1,0,0:0:0
392,256,151553,1,0,0:0:0
392,256,151661,1,0,0:0:0
336,176,151879,1,0,0:0:0
256,112,152096,1,0,0:0:0
176,176,152314,1,0,0:0:0
256,24,152748,1,8,0:0:0
256,192,153618,12,0,156227,0:0:0
120,192,157096,6,0,B|128:128|168:96,1,110
216,168,157531,1,8,0:0:0
304,168,157748,1,0,0:0:0
392,192,157966,2,0,B|384:128|344:96,1,110
256,96,158401,1,8,0:0:0
112,192,158835,6,0,B|136:208|136:272|160:288,1,110
208,360,159270,1,8,0:0:0
296,360,159488,1,0,0:0:0
351,288,159705,2,0,B|376:272|376:208|400:192,1,110
400,191,160140,1,8,0:0:0
212,224,160574,6,0,B|180:268|116:268,2,110,0|0|8,0:0|0:0|0:0,0:0:0
132,172,161227,1,0,0:0:0
132,172,161444,1,0,0:0:0
256,32,161879,1,8,0:0:0
300,224,162314,2,0,B|332:268|396:268,2,110,0|0|8,0:0|0:0|0:0,0:0:0
380,172,162966,1,0,0:0:0
308,120,163183,2,0,B|256:92|204:120,2,110,0|0|8,0:0|0:0|0:0,0:0:0
144,192,164053,6,0,B|120:216|168:272|144:296,1,110
232,296,164488,2,0,B|256:271|208:215|232:191,1,110,8|0,0:0|0:0,0:0:0
320,192,164922,6,0,B|296:216|344:272|320:296,1,110
408,296,165357,2,0,B|432:271|384:215|408:191,1,110,8|0,0:0|0:0,0:0:0
368,112,165792,5,0,0:0:0
304,56,166009,1,0,0:0:0
216,56,166227,1,8,0:0:0
152,112,166444,1,0,0:0:0
200,184,166661,2,0,B|200:264|264:280|328:264|328:184,1,220,0|8,0:0|0:0,0:0:0
256,352,167531,6,0,B|168:288,1,110
128,208,167966,1,8,0:0:0
212,188,168183,1,0,0:0:0
300,192,168401,5,0,0:0:0
384,172,168618,1,0,0:0:0
344,96,168835,2,0,B|256:32,1,110,8|0,0:0|0:0,0:0:0
168,28,169270,6,0,B|112:48|104:112,1,110
156,180,169705,2,0,B|105:212|50:179,1,110,8|0,0:0|0:0,0:0:0
4,256,170140,2,0,B|40:288|104:308|164:288|208:256,1,220,0|8,0:0|0:0,0:0:0
208,80,171009,6,0,B|224:56|256:48|288:56|304:80,1,110
336,160,171444,2,0,B|296:200|296:200|296:256,1,110,8|0,0:0|0:0,0:0:0
216,253,171879,2,0,B|216:200|216:200|176:160,1,110,0|0,0:0|0:0,0:0:0
256,120,172314,1,8,0:0:0
140,260,172748,6,0,B|148:320|212:332,1,110
300,332,173183,2,0,B|364:320|372:260,1,110,8|0,0:0|0:0,0:0:0
300,208,173618,1,0,0:0:0
256,132,173835,1,0,0:0:0
212,208,174053,1,8,0:0:0
112,64,174488,6,0,B|168:64|168:64|216:32,1,110
299,34,174922,2,0,B|344:64|344:64|400:64,1,110,8|0,0:0|0:0,0:0:0
360,144,175357,2,0,B|288:144|256:112|256:112|224:144|152:144,1,220,0|8,0:0|0:0,0:0:0
120,320,176227,6,0,B|184:320|200:384,1,110
256,312,176661,2,0,B|256:200,2,110,8|0|0,0:0|0:0|0:0,0:0:0
312,382,177314,2,0,B|328:320|392:320,1,110,0|8,0:0|0:0,0:0:0
448,152,177966,6,0,B|448:128|352:128|352:104,1,110
264,104,178401,1,8,0:0:0
296,184,178618,1,0,0:0:0
216,200,178835,5,0,0:0:0
248,280,179052,1,0,0:0:0
159,277,179270,2,0,B|160:256|64:256|64:232,1,110,8|0,0:0|0:0,0:0:0
60,144,179705,6,0,B|68:84|120:56,1,110
208,32,180140,2,0,B|260:60|256:124,1,110,8|0,0:0|0:0,0:0:0
171,159,180574,2,0,B|188:216|256:240|324:216|340:160,1,220,0|8,0:0|0:0,0:0:0
256,320,181444,6,0,B|320:328|356:288,1,110
424,240,181879,1,8,0:0:0
424,152,182096,1,0,0:0:0
356,96,182314,6,0,B|320:56|256:64,1,110
236,148,182748,1,8,0:0:0
236,236,182966,1,0,0:0:0
152,240,183183,6,0,B|120:216|120:168|152:144,1,110
80,96,183618,2,0,B|40:120|16:192|40:264|80:288,1,220,8|0,0:0|0:0,0:0:0
216,192,184488,1,8,0:0:0
