osu file format v14

[General]
AudioFilename: 3OH!3 - R.I.P. .mp3
AudioLeadIn: 0
PreviewTime: 44005
Countdown: 0
SampleSet: Normal
StackLeniency: 0.7
Mode: 1
LetterboxInBreaks: 0
WidescreenStoryboard: 0

[Editor]
Bookmarks: 24621,37775,38005,38236,46544,46775,61313,61544,70775,78390,96852,97082,105621,105852,129852,188929,203698
DistanceSpacing: 0.8
BeatDivisor: 4
GridSize: 4
TimelineZoom: 1.3

[Metadata]
Title:R.I.P.
TitleUnicode:R.I.P.
Artist:3OH!3
ArtistUnicode:3OH!3
Creator:mancuso_JM_
Version:Muzukashii
Source:
Tags:3oh3 Streets of Gold rip mancusojuanmattos ezek pop english
BeatmapID:1640315
BeatmapSetID:780943

[Difficulty]
HPDrainRate:6
CircleSize:5
OverallDifficulty:5
ApproachRate:5
SliderMultiplier:1.4
SliderTickRate:2

[Events]
//Background and Video events
0,0,"BG.jpg",0,70
//Break Periods
//Storyboard Layer 0 (Background)
//Storyboard Layer 1 (Fail)
//Storyboard Layer 2 (Pass)
//Storyboard Layer 3 (Foreground)
//Storyboard Sound Samples

[TimingPoints]
391,461.538461538462,4,1,0,30,1,0
391,-142.857142857143,4,1,0,30,0,0
14467,-117.647058823529,4,1,0,30,0,0
14929,461.538461538462,4,1,0,55,1,0
44467,-100,4,1,0,65,0,1
74005,-117.647058823529,4,1,0,40,0,0
74467,-142.857142857143,4,1,0,40,0,0
77005,-117.647058823529,4,1,0,65,0,0
87852,-100,4,1,0,65,0,0
103544,-100,4,1,0,65,0,1
133082,-100,4,1,0,30,0,0
133775,-142.857142857143,4,1,0,30,0,0
148313,-125,4,1,0,45,0,0
155929,-111.111111111111,4,1,0,45,0,0
162621,-100,4,1,0,65,0,0
177390,-90.9090909090909,4,1,0,65,0,1
192159,-83.3333333333333,4,1,0,65,0,1
206929,-83.3333333333333,4,1,0,45,0,0

[Colours]
Combo1 : 243,52,81
Combo2 : 222,224,143
Combo3 : 166,0,166
SliderBorder : 200,200,200

[HitObjects]
256,192,391,5,0,0:0:0:0:
256,192,852,1,8,0:0:0:0:
256,192,2237,1,0,0:0:0:0:
256,192,2698,1,8,0:0:0:0:
256,192,4083,1,0,0:0:0:0:
256,192,4544,1,8,0:0:0:0:
256,192,5929,1,8,0:0:0:0:
256,192,6391,1,0,0:0:0:0:
256,192,7775,1,8,0:0:0:0:
256,192,8237,1,8,0:0:0:0:
256,192,8698,1,0,0:0:0:0:
256,192,9621,1,8,0:0:0:0:
256,192,10083,1,8,0:0:0:0:
256,192,10544,1,0,0:0:0:0:
256,192,11467,1,8,0:0:0:0:
256,192,11929,1,8,0:0:0:0:
256,192,12391,1,0,0:0:0:0:
256,192,13314,1,0,0:0:0:0:
256,192,14467,1,8,0:0:0:0:
256,192,14929,1,0,0:0:0:0:
256,192,15159,1,0,0:0:0:0:
256,192,15390,1,8,0:0:0:0:
256,192,15621,1,0,0:0:0:0:
256,192,16082,1,0,0:0:0:0:
256,192,16313,1,8,0:0:0:0:
256,192,16544,1,8,0:0:0:0:
256,192,16775,1,0,0:0:0:0:
256,192,17236,1,8,0:0:0:0:
256,192,17467,1,8,0:0:0:0:
256,192,17698,1,0,0:0:0:0:
256,192,17929,1,0,0:0:0:0:
256,192,18044,1,0,0:0:0:0:
256,192,18159,1,0,0:0:0:0:
256,192,18390,1,8,0:0:0:0:
256,192,18621,1,0,0:0:0:0:
256,192,19082,1,8,0:0:0:0:
256,192,19313,1,0,0:0:0:0:
256,192,19775,1,0,0:0:0:0:
256,192,20005,1,8,0:0:0:0:
256,192,20236,1,8,0:0:0:0:
256,192,20467,1,0,0:0:0:0:
256,192,20813,1,8,0:0:0:0:
256,192,21159,1,8,0:0:0:0:
256,192,21390,1,0,0:0:0:0:
256,192,21621,1,8,0:0:0:0:
256,192,21736,1,8,0:0:0:0:
256,192,21852,1,8,0:0:0:0:
256,192,22082,1,8,0:0:0:0:
256,192,22313,1,0,0:0:0:0:
256,192,22775,1,8,0:0:0:0:
256,192,23005,1,0,0:0:0:0:
256,192,23467,1,0,0:0:0:0:
256,192,23698,1,8,0:0:0:0:
256,192,23929,1,8,0:0:0:0:
256,192,24159,1,0,0:0:0:0:
256,192,24852,1,0,0:0:0:0:
256,192,25313,1,0,0:0:0:0:
256,192,25544,1,8,0:0:0:0:
256,192,25775,1,0,0:0:0:0:
256,192,25890,1,0,0:0:0:0:
256,192,26005,1,0,0:0:0:0:
256,192,26467,1,8,0:0:0:0:
256,192,26698,1,8,0:0:0:0:
256,192,27159,1,0,0:0:0:0:
256,192,27390,1,8,0:0:0:0:
256,192,27621,1,8,0:0:0:0:
256,192,27852,1,0,0:0:0:0:
256,192,28313,1,8,0:0:0:0:
256,192,28544,1,0,0:0:0:0:
256,192,29005,1,8,0:0:0:0:
256,192,29121,1,8,0:0:0:0:
256,192,29236,1,8,0:0:0:0:
256,192,29467,1,8,0:0:0:0:
256,192,29698,1,0,0:0:0:0:
256,192,30159,1,8,0:0:0:0:
256,192,30390,1,0,0:0:0:0:
256,192,30621,1,8,0:0:0:0:
256,192,31313,1,0,0:0:0:0:
256,192,31544,1,8,0:0:0:0:
256,192,31890,1,8,0:0:0:0:
256,192,32236,1,0,0:0:0:0:
256,192,32467,1,8,0:0:0:0:
256,192,32698,1,0,0:0:0:0:
256,192,32813,1,0,0:0:0:0:
256,192,32929,1,0,0:0:0:0:
256,192,33159,1,8,0:0:0:0:
256,192,33390,1,0,0:0:0:0:
256,192,33852,1,8,0:0:0:0:
256,192,34313,1,0,0:0:0:0:
256,192,34544,1,0,0:0:0:0:
256,192,34775,1,8,0:0:0:0:
256,192,35236,1,0,0:0:0:0:
256,192,35467,1,0,0:0:0:0:
256,192,35698,1,8,0:0:0:0:
256,192,35929,1,0,0:0:0:0:
256,192,36390,1,8,0:0:0:0:
256,192,36505,1,8,0:0:0:0:
256,192,36621,1,8,0:0:0:0:
256,192,36852,1,8,0:0:0:0:
256,192,37082,1,0,0:0:0:0:
256,192,37313,1,0,0:0:0:0:
256,192,37544,1,8,0:0:0:0:
256,192,38236,1,0,0:0:0:0:
256,192,38467,1,8,0:0:0:0:
256,192,38698,1,0,0:0:0:0:
256,192,38813,1,0,0:0:0:0:
256,192,38929,1,0,0:0:0:0:
256,192,39159,1,0,0:0:0:0:
256,192,39390,1,8,0:0:0:0:
256,192,39621,1,0,0:0:0:0:
256,192,40082,1,0,0:0:0:0:
256,192,40313,1,8,0:0:0:0:
256,192,40544,1,8,0:0:0:0:
256,192,40775,1,0,0:0:0:0:
256,192,41236,1,8,0:0:0:0:
256,192,41698,1,8,0:0:0:0:
256,192,41929,1,0,0:0:0:0:
256,192,42159,1,8,0:0:0:0:
256,192,42621,1,4,0:0:0:0:
256,192,42852,12,0,44005,0:0:0:0:
256,192,44467,5,4,0:0:0:0:
256,192,44698,1,0,0:0:0:0:
256,192,44929,1,8,0:0:0:0:
256,192,45159,1,0,0:0:0:0:
256,192,45621,1,0,0:0:0:0:
256,192,45852,1,8,0:0:0:0:
256,192,46082,1,0,0:0:0:0:
256,192,46198,1,0,0:0:0:0:
256,192,46313,1,0,0:0:0:0:
256,192,47005,1,0,0:0:0:0:
256,192,47236,1,6,0:0:0:0:
256,192,47582,1,4,0:0:0:0:
256,192,47929,1,6,0:0:0:0:
256,192,48390,1,0,0:0:0:0:
256,192,48621,1,8,0:0:0:0:
256,192,48852,1,0,0:0:0:0:
256,192,48967,1,0,0:0:0:0:
256,192,49082,1,0,0:0:0:0:
256,192,49313,1,0,0:0:0:0:
256,192,49544,1,8,0:0:0:0:
256,192,50005,1,0,0:0:0:0:
256,192,50236,1,0,0:0:0:0:
256,192,50467,1,8,0:0:0:0:
256,192,50698,1,8,0:0:0:0:
256,192,50813,1,8,0:0:0:0:
256,192,50929,1,8,0:0:0:0:
256,192,51159,1,0,0:0:0:0:
256,192,51390,1,8,0:0:0:0:
256,192,51852,1,4,0:0:0:0:
256,192,52313,1,6,0:0:0:0:
256,192,52775,1,4,0:0:0:0:
256,192,53005,1,0,0:0:0:0:
256,192,53236,1,8,0:0:0:0:
256,192,53698,1,4,0:0:0:0:
256,192,54159,1,6,0:0:0:0:
256,192,54621,1,4,0:0:0:0:
256,192,54852,1,0,0:0:0:0:
256,192,55082,1,8,0:0:0:0:
256,192,55544,1,0,0:0:0:0:
256,192,55775,1,0,0:0:0:0:
256,192,56005,1,8,0:0:0:0:
256,192,56236,1,0,0:0:0:0:
256,192,56467,1,8,0:0:0:0:
256,192,57159,1,8,0:0:0:0:
256,192,57390,1,0,0:0:0:0:
256,192,57621,1,0,0:0:0:0:
256,192,57736,1,0,0:0:0:0:
256,192,57852,1,0,0:0:0:0:
256,192,58082,1,8,0:0:0:0:
256,192,58313,1,0,0:0:0:0:
256,192,58544,1,0,0:0:0:0:
256,192,58775,1,8,0:0:0:0:
256,192,59236,1,4,0:0:0:0:
256,192,59467,1,0,0:0:0:0:
256,192,59698,1,8,0:0:0:0:
256,192,59929,1,0,0:0:0:0:
256,192,60390,1,0,0:0:0:0:
256,192,60621,1,8,0:0:0:0:
256,192,60852,1,0,0:0:0:0:
256,192,60967,1,0,0:0:0:0:
256,192,61082,1,0,0:0:0:0:
256,192,61775,1,0,0:0:0:0:
256,192,62005,1,6,0:0:0:0:
256,192,62352,1,4,0:0:0:0:
256,192,62698,1,6,0:0:0:0:
256,192,63159,1,0,0:0:0:0:
256,192,63390,1,8,0:0:0:0:
256,192,63621,1,0,0:0:0:0:
256,192,63736,1,0,0:0:0:0:
256,192,63852,1,0,0:0:0:0:
256,192,64082,1,0,0:0:0:0:
256,192,64313,1,8,0:0:0:0:
256,192,64775,1,0,0:0:0:0:
256,192,65005,1,0,0:0:0:0:
256,192,65236,1,8,0:0:0:0:
256,192,65467,1,8,0:0:0:0:
256,192,65582,1,8,0:0:0:0:
256,192,65698,1,8,0:0:0:0:
256,192,65929,1,0,0:0:0:0:
256,192,66159,1,8,0:0:0:0:
256,192,66621,1,4,0:0:0:0:
256,192,67082,1,6,0:0:0:0:
256,192,67544,1,4,0:0:0:0:
256,192,67775,1,0,0:0:0:0:
256,192,67890,1,0,0:0:0:0:
256,192,68005,1,0,0:0:0:0:
256,192,68467,1,4,0:0:0:0:
256,192,68929,1,6,0:0:0:0:
256,192,69390,1,4,0:0:0:0:
256,192,69621,1,8,0:0:0:0:
256,192,69736,1,8,0:0:0:0:
256,192,69852,1,8,0:0:0:0:
256,192,70082,1,8,0:0:0:0:
256,192,70313,1,0,0:0:0:0:
256,192,71005,1,0,0:0:0:0:
256,192,71236,1,0,0:0:0:0:
256,192,71352,1,0,0:0:0:0:
256,192,71467,1,0,0:0:0:0:
256,192,71698,1,8,0:0:0:0:
256,192,72159,1,0,0:0:0:0:
256,192,72390,1,0,0:0:0:0:
256,192,72621,1,8,0:0:0:0:
256,192,72852,1,0,0:0:0:0:
256,192,73313,1,0,0:0:0:0:
256,192,73544,1,8,0:0:0:0:
256,192,74005,1,0,0:0:0:0:
256,192,74467,1,8,0:0:0:0:
256,192,74698,1,0,0:0:0:0:
256,192,75159,1,0,0:0:0:0:
256,192,75390,1,8,0:0:0:0:
256,192,75852,1,0,0:0:0:0:
256,192,76313,1,8,0:0:0:0:
256,192,76544,1,0,0:0:0:0:
256,192,77005,1,8,0:0:0:0:
256,192,77236,1,0,0:0:0:0:
256,192,77467,1,0,0:0:0:0:
256,192,77698,1,8,0:0:0:0:
256,192,78159,1,8,0:0:0:0:
256,192,78852,1,0,0:0:0:0:
256,192,79082,1,8,0:0:0:0:
256,192,79313,1,0,0:0:0:0:
256,192,79544,1,0,0:0:0:0:
256,192,80005,1,8,0:0:0:0:
256,192,80236,1,0,0:0:0:0:
256,192,80698,1,8,0:0:0:0:
256,192,80813,1,8,0:0:0:0:
256,192,80929,1,8,0:0:0:0:
256,192,81159,1,8,0:0:0:0:
256,192,81390,1,0,0:0:0:0:
256,192,81852,1,8,0:0:0:0:
256,192,82082,1,0,0:0:0:0:
256,192,82198,1,0,0:0:0:0:
256,192,82313,1,0,0:0:0:0:
256,192,82544,1,0,0:0:0:0:
256,192,82775,1,8,0:0:0:0:
256,192,83005,1,0,0:0:0:0:
256,192,83236,1,0,0:0:0:0:
256,192,83698,1,8,0:0:0:0:
256,192,83929,1,0,0:0:0:0:
256,192,84390,1,0,0:0:0:0:
256,192,84621,1,8,0:0:0:0:
256,192,84852,1,8,0:0:0:0:
256,192,85082,1,0,0:0:0:0:
256,192,85544,1,8,0:0:0:0:
256,192,85775,1,0,0:0:0:0:
256,192,86236,1,0,0:0:0:0:
256,192,86467,1,8,0:0:0:0:
256,192,86698,1,0,0:0:0:0:
256,192,86929,1,0,0:0:0:0:
256,192,87390,1,8,0:0:0:0:
256,192,87621,1,0,0:0:0:0:
256,192,88082,1,8,0:0:0:0:
256,192,88198,1,8,0:0:0:0:
256,192,88313,1,8,0:0:0:0:
256,192,88544,1,8,0:0:0:0:
256,192,88775,1,0,0:0:0:0:
256,192,89236,1,8,0:0:0:0:
256,192,89467,1,8,0:0:0:0:
256,192,89698,1,0,0:0:0:0:
256,192,90390,1,0,0:0:0:0:
256,192,90505,1,0,0:0:0:0:
256,192,90621,1,0,0:0:0:0:
256,192,90852,1,0,0:0:0:0:
256,192,91082,1,8,0:0:0:0:
256,192,91313,1,0,0:0:0:0:
256,192,91775,1,0,0:0:0:0:
256,192,92005,1,8,0:0:0:0:
256,192,92236,1,8,0:0:0:0:
256,192,92352,1,8,0:0:0:0:
256,192,92467,1,8,0:0:0:0:
256,192,92698,1,0,0:0:0:0:
256,192,92929,1,8,0:0:0:0:
256,192,93159,1,8,0:0:0:0:
256,192,93390,1,0,0:0:0:0:
256,192,94082,1,0,0:0:0:0:
256,192,94313,1,0,0:0:0:0:
256,192,94544,1,8,0:0:0:0:
256,192,94775,1,8,0:0:0:0:
256,192,95005,1,0,0:0:0:0:
256,192,95467,1,8,0:0:0:0:
256,192,95582,1,8,0:0:0:0:
256,192,95698,1,8,0:0:0:0:
256,192,95929,1,8,0:0:0:0:
256,192,96159,1,0,0:0:0:0:
256,192,96390,1,0,0:0:0:0:
256,192,96621,1,8,0:0:0:0:
256,192,97313,1,0,0:0:0:0:
256,192,97544,1,8,0:0:0:0:
256,192,97775,1,0,0:0:0:0:
256,192,97890,1,0,0:0:0:0:
256,192,98005,1,0,0:0:0:0:
256,192,98236,1,0,0:0:0:0:
256,192,98467,1,8,0:0:0:0:
256,192,98698,1,0,0:0:0:0:
256,192,99159,1,0,0:0:0:0:
256,192,99390,1,8,0:0:0:0:
256,192,99621,1,8,0:0:0:0:
256,192,99736,1,8,0:0:0:0:
256,192,99852,1,8,0:0:0:0:
256,192,100082,1,0,0:0:0:0:
256,192,100313,1,8,0:0:0:0:
256,192,100775,1,8,0:0:0:0:
256,192,101005,1,0,0:0:0:0:
256,192,101236,1,8,0:0:0:0:
256,192,101698,1,4,0:0:0:0:
256,192,101929,12,0,103082,0:0:0:0:
256,192,103544,5,4,0:0:0:0:
256,192,103775,1,8,0:0:0:0:
256,192,103890,1,8,0:0:0:0:
256,192,104005,1,8,0:0:0:0:
256,192,104236,1,0,0:0:0:0:
256,192,104698,1,0,0:0:0:0:
256,192,104929,1,8,0:0:0:0:
256,192,105159,1,0,0:0:0:0:
256,192,105275,1,0,0:0:0:0:
256,192,105390,1,0,0:0:0:0:
256,192,106082,1,0,0:0:0:0:
256,192,106313,1,6,0:0:0:0:
256,192,106659,1,4,0:0:0:0:
256,192,107005,1,6,0:0:0:0:
256,192,107467,1,0,0:0:0:0:
256,192,107698,1,8,0:0:0:0:
256,192,107929,1,0,0:0:0:0:
256,192,108044,1,0,0:0:0:0:
256,192,108159,1,0,0:0:0:0:
256,192,108390,1,0,0:0:0:0:
256,192,108621,1,8,0:0:0:0:
256,192,109082,1,0,0:0:0:0:
256,192,109313,1,0,0:0:0:0:
256,192,109544,1,8,0:0:0:0:
256,192,109775,1,0,0:0:0:0:
256,192,109890,1,0,0:0:0:0:
256,192,110005,1,0,0:0:0:0:
256,192,110236,1,0,0:0:0:0:
256,192,110467,1,8,0:0:0:0:
256,192,110929,1,4,0:0:0:0:
256,192,111390,1,6,0:0:0:0:
256,192,111852,1,4,0:0:0:0:
256,192,112082,1,0,0:0:0:0:
256,192,112313,1,8,0:0:0:0:
256,192,112775,1,4,0:0:0:0:
256,192,113236,1,6,0:0:0:0:
256,192,113698,1,4,0:0:0:0:
256,192,113929,1,0,0:0:0:0:
256,192,114159,1,8,0:0:0:0:
256,192,114621,1,0,0:0:0:0:
256,192,114852,1,8,0:0:0:0:
256,192,114967,1,8,0:0:0:0:
256,192,115082,1,8,0:0:0:0:
256,192,115313,1,0,0:0:0:0:
256,192,115544,1,8,0:0:0:0:
256,192,116236,1,8,0:0:0:0:
256,192,116467,1,0,0:0:0:0:
256,192,116698,1,0,0:0:0:0:
256,192,116813,1,0,0:0:0:0:
256,192,116929,1,0,0:0:0:0:
256,192,117159,1,8,0:0:0:0:
256,192,117390,1,0,0:0:0:0:
256,192,117621,1,0,0:0:0:0:
256,192,117852,1,8,0:0:0:0:
256,192,118313,1,4,0:0:0:0:
256,192,118544,1,8,0:0:0:0:
256,192,118659,1,8,0:0:0:0:
256,192,118775,1,8,0:0:0:0:
256,192,119005,1,0,0:0:0:0:
256,192,119236,1,0,0:0:0:0:
256,192,119352,1,0,0:0:0:0:
256,192,119467,1,0,0:0:0:0:
256,192,119698,1,8,0:0:0:0:
256,192,120159,1,0,0:0:0:0:
256,192,120390,1,0,0:0:0:0:
256,192,120621,1,8,0:0:0:0:
256,192,120852,1,0,0:0:0:0:
256,192,121082,1,6,0:0:0:0:
256,192,121429,1,4,0:0:0:0:
256,192,121775,1,6,0:0:0:0:
256,192,122236,1,0,0:0:0:0:
256,192,122467,1,8,0:0:0:0:
256,192,122698,1,0,0:0:0:0:
256,192,122813,1,0,0:0:0:0:
256,192,122929,1,0,0:0:0:0:
256,192,123159,1,0,0:0:0:0:
256,192,123390,1,8,0:0:0:0:
256,192,123852,1,0,0:0:0:0:
256,192,124082,1,0,0:0:0:0:
256,192,124313,1,8,0:0:0:0:
256,192,124544,1,8,0:0:0:0:
256,192,124659,1,8,0:0:0:0:
256,192,124775,1,8,0:0:0:0:
256,192,125005,1,0,0:0:0:0:
256,192,125236,1,8,0:0:0:0:
256,192,125467,1,0,0:0:0:0:
256,192,125698,1,4,0:0:0:0:
256,192,126159,1,6,0:0:0:0:
256,192,126621,1,4,0:0:0:0:
256,192,126852,1,0,0:0:0:0:
256,192,126967,1,0,0:0:0:0:
256,192,127082,1,0,0:0:0:0:
256,192,127544,1,4,0:0:0:0:
256,192,128005,1,6,0:0:0:0:
256,192,128467,1,4,0:0:0:0:
256,192,128698,1,8,0:0:0:0:
256,192,128813,1,8,0:0:0:0:
256,192,128929,1,8,0:0:0:0:
256,192,129159,1,8,0:0:0:0:
256,192,129390,1,0,0:0:0:0:
256,192,130082,1,0,0:0:0:0:
256,192,130313,1,0,0:0:0:0:
256,192,130429,1,0,0:0:0:0:
256,192,130544,1,0,0:0:0:0:
256,192,130775,1,8,0:0:0:0:
256,192,131236,1,0,0:0:0:0:
256,192,131467,1,8,0:0:0:0:
256,192,131582,1,8,0:0:0:0:
256,192,131698,1,8,0:0:0:0:
256,192,131929,1,0,0:0:0:0:
256,192,132390,1,8,0:0:0:0:
256,192,132621,1,8,0:0:0:0:
256,192,132852,1,0,0:0:0:0:
256,192,133082,1,8,0:0:0:0:
256,192,133775,1,0,0:0:0:0:
256,192,134236,1,0,0:0:0:0:
256,192,134467,1,8,0:0:0:0:
256,192,134929,1,0,0:0:0:0:
256,192,135621,1,0,0:0:0:0:
256,192,136313,1,8,0:0:0:0:
256,192,136544,1,0,0:0:0:0:
256,192,136775,1,0,0:0:0:0:
256,192,137467,1,0,0:0:0:0:
256,192,137698,1,8,0:0:0:0:
256,192,138159,1,8,0:0:0:0:
256,192,138390,1,8,0:0:0:0:
256,192,138621,1,0,0:0:0:0:
256,192,139313,1,0,0:0:0:0:
256,192,139544,1,8,0:0:0:0:
256,192,140005,1,8,0:0:0:0:
256,192,140121,1,8,0:0:0:0:
256,192,140236,1,8,0:0:0:0:
256,192,140467,1,0,0:0:0:0:
256,192,141159,1,0,0:0:0:0:
256,192,141390,1,8,0:0:0:0:
256,192,141852,1,8,0:0:0:0:
256,192,141967,1,8,0:0:0:0:
256,192,142082,1,8,0:0:0:0:
256,192,142313,1,0,0:0:0:0:
256,192,143005,1,0,0:0:0:0:
256,192,143236,1,8,0:0:0:0:
256,192,143698,1,8,0:0:0:0:
256,192,143813,1,8,0:0:0:0:
256,192,143929,1,8,0:0:0:0:
256,192,144159,1,0,0:0:0:0:
256,192,144852,1,0,0:0:0:0:
256,192,145082,1,8,0:0:0:0:
256,192,145544,1,8,0:0:0:0:
256,192,145775,1,8,0:0:0:0:
256,192,146005,1,0,0:0:0:0:
256,192,146698,1,0,0:0:0:0:
256,192,146929,1,8,0:0:0:0:
256,192,147159,1,0,0:0:0:0:
256,192,147390,1,8,0:0:0:0:
256,192,147505,1,8,0:0:0:0:
256,192,147621,1,8,0:0:0:0:
256,192,147852,1,0,0:0:0:0:
256,192,148544,1,0,0:0:0:0:
256,192,148775,1,8,0:0:0:0:
256,192,149005,1,8,0:0:0:0:
256,192,149121,1,8,0:0:0:0:
256,192,149236,1,8,0:0:0:0:
256,192,149467,1,8,0:0:0:0:
256,192,149698,1,0,0:0:0:0:
256,192,150390,1,0,0:0:0:0:
256,192,150621,1,8,0:0:0:0:
256,192,150967,1,8,0:0:0:0:
256,192,151313,1,8,0:0:0:0:
256,192,151544,1,0,0:0:0:0:
256,192,152236,1,0,0:0:0:0:
256,192,152467,1,8,0:0:0:0:
256,192,152813,1,8,0:0:0:0:
256,192,153159,1,8,0:0:0:0:
256,192,153390,1,0,0:0:0:0:
256,192,154082,1,0,0:0:0:0:
256,192,154313,1,8,0:0:0:0:
256,192,154544,1,8,0:0:0:0:
256,192,154659,1,8,0:0:0:0:
256,192,154775,1,8,0:0:0:0:
256,192,155005,1,8,0:0:0:0:
256,192,155236,1,0,0:0:0:0:
256,192,155929,1,0,0:0:0:0:
256,192,156159,1,8,0:0:0:0:
256,192,156505,1,8,0:0:0:0:
256,192,156852,1,8,0:0:0:0:
256,192,157082,1,0,0:0:0:0:
256,192,157775,1,0,0:0:0:0:
256,192,158005,1,8,0:0:0:0:
256,192,158236,1,0,0:0:0:0:
256,192,158352,1,0,0:0:0:0:
256,192,158467,1,0,0:0:0:0:
256,192,158698,1,8,0:0:0:0:
256,192,158929,1,0,0:0:0:0:
256,192,159621,1,0,0:0:0:0:
256,192,159852,1,8,0:0:0:0:
256,192,160082,1,8,0:0:0:0:
256,192,160313,1,0,0:0:0:0:
256,192,160775,1,8,0:0:0:0:
256,192,161698,1,8,0:0:0:0:
256,192,162044,1,8,0:0:0:0:
256,192,162390,1,8,0:0:0:0:
256,192,162621,1,4,0:0:0:0:
256,192,163082,1,8,0:0:0:0:
256,192,163313,1,0,0:0:0:0:
256,192,163544,1,8,0:0:0:0:
256,192,163775,1,8,0:0:0:0:
256,192,163890,1,8,0:0:0:0:
256,192,164005,1,8,0:0:0:0:
256,192,164236,1,0,0:0:0:0:
256,192,164467,1,0,0:0:0:0:
256,192,164929,1,8,0:0:0:0:
256,192,165159,1,0,0:0:0:0:
256,192,165390,1,8,0:0:0:0:
256,192,165736,1,8,0:0:0:0:
256,192,166082,1,8,0:0:0:0:
256,192,166313,1,0,0:0:0:0:
256,192,166775,1,8,0:0:0:0:
256,192,167005,1,0,0:0:0:0:
256,192,167236,1,8,0:0:0:0:
256,192,167582,1,8,0:0:0:0:
256,192,167698,1,8,0:0:0:0:
256,192,167929,1,0,0:0:0:0:
256,192,168159,1,0,0:0:0:0:
256,192,168621,1,8,0:0:0:0:
256,192,168852,1,0,0:0:0:0:
256,192,169082,1,8,0:0:0:0:
256,192,169429,1,8,0:0:0:0:
256,192,169544,1,8,0:0:0:0:
256,192,169775,1,8,0:0:0:0:
256,192,170005,1,0,0:0:0:0:
256,192,170467,1,8,0:0:0:0:
256,192,170698,1,0,0:0:0:0:
256,192,170929,1,8,0:0:0:0:
256,192,171159,1,8,0:0:0:0:
256,192,171275,1,8,0:0:0:0:
256,192,171390,1,8,0:0:0:0:
256,192,171621,1,0,0:0:0:0:
256,192,171852,1,0,0:0:0:0:
256,192,172313,1,8,0:0:0:0:
256,192,172544,1,0,0:0:0:0:
256,192,172775,1,8,0:0:0:0:
256,192,173005,1,8,0:0:0:0:
256,192,173121,1,8,0:0:0:0:
256,192,173236,1,8,0:0:0:0:
256,192,173467,1,8,0:0:0:0:
256,192,173698,1,0,0:0:0:0:
256,192,174390,1,0,0:0:0:0:
256,192,174621,1,8,0:0:0:0:
256,192,174852,1,8,0:0:0:0:
256,192,175082,1,0,0:0:0:0:
256,192,175544,1,4,0:0:0:0:
256,192,175775,12,0,176929,0:0:0:0:
256,192,177390,5,4,0:0:0:0:
256,192,177621,1,8,0:0:0:0:
256,192,177736,1,8,0:0:0:0:
256,192,177852,1,8,0:0:0:0:
256,192,178082,1,0,0:0:0:0:
256,192,178313,1,0,0:0:0:0:
256,192,178429,1,0,0:0:0:0:
256,192,178544,1,0,0:0:0:0:
256,192,178775,1,8,0:0:0:0:
256,192,179236,1,0,0:0:0:0:
256,192,179467,1,0,0:0:0:0:
256,192,179698,1,8,0:0:0:0:
256,192,179929,1,0,0:0:0:0:
256,192,180159,1,8,0:0:0:0:
256,192,180275,1,8,0:0:0:0:
256,192,180505,1,0,0:0:0:0:
256,192,180621,1,0,0:0:0:0:
256,192,180852,1,6,0:0:0:0:
256,192,181313,1,0,0:0:0:0:
256,192,181544,1,8,0:0:0:0:
256,192,181775,1,0,0:0:0:0:
256,192,181890,1,0,0:0:0:0:
256,192,182005,1,0,0:0:0:0:
256,192,182236,1,0,0:0:0:0:
256,192,182467,1,8,0:0:0:0:
256,192,182929,1,0,0:0:0:0:
256,192,183159,1,0,0:0:0:0:
256,192,183390,1,8,0:0:0:0:
256,192,183621,1,0,0:0:0:0:
256,192,183736,1,0,0:0:0:0:
256,192,183852,1,0,0:0:0:0:
256,192,184082,1,0,0:0:0:0:
256,192,184313,1,8,0:0:0:0:
256,192,184544,1,8,0:0:0:0:
256,192,184775,1,4,0:0:0:0:
256,192,185236,1,6,0:0:0:0:
256,192,185698,1,4,0:0:0:0:
256,192,185929,1,0,0:0:0:0:
256,192,186044,1,0,0:0:0:0:
256,192,186159,1,0,0:0:0:0:
256,192,186390,1,8,0:0:0:0:
256,192,186621,1,4,0:0:0:0:
256,192,187082,1,6,0:0:0:0:
256,192,187544,1,4,0:0:0:0:
256,192,187775,1,8,0:0:0:0:
256,192,187890,1,8,0:0:0:0:
256,192,188005,1,8,0:0:0:0:
256,192,188236,1,8,0:0:0:0:
256,192,188467,1,0,0:0:0:0:
256,192,189159,1,0,0:0:0:0:
256,192,189390,1,0,0:0:0:0:
256,192,189505,1,0,0:0:0:0:
256,192,189621,1,0,0:0:0:0:
256,192,189852,1,8,0:0:0:0:
256,192,190313,1,0,0:0:0:0:
256,192,190544,1,8,0:0:0:0:
256,192,190659,1,8,0:0:0:0:
256,192,190775,1,8,0:0:0:0:
256,192,191005,1,0,0:0:0:0:
256,192,191236,1,0,0:0:0:0:
256,192,191352,1,0,0:0:0:0:
256,192,191467,1,0,0:0:0:0:
256,192,191698,1,8,0:0:0:0:
256,192,192159,1,4,0:0:0:0:
256,192,192390,1,8,0:0:0:0:
256,192,192505,1,8,0:0:0:0:
256,192,192621,1,8,0:0:0:0:
256,192,192852,1,0,0:0:0:0:
256,192,193082,1,0,0:0:0:0:
256,192,193198,1,0,0:0:0:0:
256,192,193313,1,0,0:0:0:0:
256,192,193544,1,8,0:0:0:0:
256,192,194005,1,0,0:0:0:0:
256,192,194236,1,0,0:0:0:0:
256,192,194467,1,8,0:0:0:0:
256,192,194698,1,0,0:0:0:0:
256,192,194929,1,8,0:0:0:0:
256,192,195044,1,8,0:0:0:0:
256,192,195275,1,0,0:0:0:0:
256,192,195390,1,0,0:0:0:0:
256,192,195621,1,6,0:0:0:0:
256,192,196082,1,0,0:0:0:0:
256,192,196313,1,8,0:0:0:0:
256,192,196544,1,0,0:0:0:0:
256,192,196659,1,0,0:0:0:0:
256,192,196775,1,0,0:0:0:0:
256,192,197005,1,0,0:0:0:0:
256,192,197236,1,8,0:0:0:0:
256,192,197467,1,8,0:0:0:0:
256,192,197698,1,0,0:0:0:0:
256,192,198044,1,8,0:0:0:0:
256,192,198159,1,8,0:0:0:0:
256,192,198390,1,0,0:0:0:0:
256,192,198621,1,8,0:0:0:0:
256,192,198736,1,8,0:0:0:0:
256,192,198852,1,8,0:0:0:0:
256,192,199082,1,8,0:0:0:0:
256,192,199313,1,0,0:0:0:0:
256,192,199544,1,4,0:0:0:0:
256,192,200005,1,6,0:0:0:0:
256,192,200467,1,4,0:0:0:0:
256,192,200698,1,0,0:0:0:0:
256,192,200813,1,0,0:0:0:0:
256,192,200929,1,0,0:0:0:0:
256,192,201159,1,8,0:0:0:0:
256,192,201390,1,4,0:0:0:0:
256,192,201852,1,6,0:0:0:0:
256,192,202313,1,4,0:0:0:0:
256,192,202544,1,8,0:0:0:0:
256,192,202659,1,8,0:0:0:0:
256,192,202775,1,8,0:0:0:0:
256,192,203005,1,8,0:0:0:0:
256,192,203236,1,0,0:0:0:0:
256,192,203929,1,0,0:0:0:0:
256,192,204159,1,0,0:0:0:0:
256,192,204275,1,0,0:0:0:0:
256,192,204390,1,0,0:0:0:0:
256,192,204621,1,8,0:0:0:0:
256,192,205082,1,0,0:0:0:0:
256,192,205313,1,8,0:0:0:0:
256,192,205429,1,8,0:0:0:0:
256,192,205544,1,8,0:0:0:0:
256,192,205775,1,0,0:0:0:0:
256,192,206005,1,8,0:0:0:0:
256,192,206236,1,8,0:0:0:0:
256,192,206467,1,0,0:0:0:0:
256,192,206698,1,8,0:0:0:0:
256,192,206929,1,4,0:0:0:0:
