osu file format v14

[General]
AudioFilename: 3OH!3 - R.I.P. .mp3
AudioLeadIn: 0
PreviewTime: 44005
Countdown: 0
SampleSet: Normal
StackLeniency: 0.7
Mode: 1
LetterboxInBreaks: 0
WidescreenStoryboard: 0

[Editor]
DistanceSpacing: 0.8
BeatDivisor: 4
GridSize: 4
TimelineZoom: 1.3

[Metadata]
Title:R.I.P.
TitleUnicode:R.I.P.
Artist:3OH!3
ArtistUnicode:3OH!3
Creator:mancuso_JM_
Version:Kantan
Source:
Tags:3oh3 Streets of Gold rip mancusojuanmattos ezek pop english
BeatmapID:1640314
BeatmapSetID:780943

[Difficulty]
HPDrainRate:8
CircleSize:5
OverallDifficulty:3
ApproachRate:5
SliderMultiplier:1.4
SliderTickRate:2

[Events]
//Background and Video events
0,0,"BG.jpg",0,70
//Break Periods
//Storyboard Layer 0 (Background)
//Storyboard Layer 1 (Fail)
//Storyboard Layer 2 (Pass)
//Storyboard Layer 3 (Foreground)
//Storyboard Sound Samples

[TimingPoints]
391,461.538461538462,4,1,0,30,1,0
14929,461.538461538462,4,1,0,55,1,0
44467,-100,4,1,0,65,0,1
74005,-100,4,1,0,40,0,0
77005,-100,4,1,0,65,0,0
87852,-100,4,1,0,65,0,0
103544,-100,4,1,0,65,0,1
133082,-100,4,1,0,30,0,0
148313,-100,4,1,0,45,0,0
162621,-100,4,1,0,65,0,0
177390,-100,4,1,0,65,0,1
192159,-100,4,1,0,65,0,1
206929,-100,4,1,0,45,0,0

[Colours]
Combo1 : 243,52,81
Combo2 : 222,224,143
Combo3 : 166,0,166
SliderBorder : 200,200,200

[HitObjects]
256,192,391,5,0,0:0:0:0:
256,192,2237,1,0,0:0:0:0:
256,192,4083,1,0,0:0:0:0:
256,192,5929,1,8,0:0:0:0:
256,192,7775,1,8,0:0:0:0:
256,192,9621,1,8,0:0:0:0:
256,192,11467,1,8,0:0:0:0:
256,192,12391,1,0,0:0:0:0:
256,192,13314,1,0,0:0:0:0:
256,192,14929,1,4,0:0:0:0:
256,192,15390,1,8,0:0:0:0:
256,192,16313,1,8,0:0:0:0:
256,192,16775,1,0,0:0:0:0:
256,192,17698,1,0,0:0:0:0:
256,192,18159,1,8,0:0:0:0:
256,192,18621,1,0,0:0:0:0:
256,192,20005,1,8,0:0:0:0:
256,192,20467,1,0,0:0:0:0:
256,192,21390,1,0,0:0:0:0:
256,192,21852,1,8,0:0:0:0:
256,192,22313,1,0,0:0:0:0:
256,192,23467,1,0,0:0:0:0:
256,192,24159,1,0,0:0:0:0:
256,192,25313,1,0,0:0:0:0:
256,192,26005,1,0,0:0:0:0:
256,192,26467,1,8,0:0:0:0:
256,192,27390,1,8,0:0:0:0:
256,192,27852,1,0,0:0:0:0:
256,192,28313,1,8,0:0:0:0:
256,192,29236,1,8,0:0:0:0:
256,192,29698,1,0,0:0:0:0:
256,192,30159,1,8,0:0:0:0:
256,192,31082,1,8,0:0:0:0:
256,192,31544,1,0,0:0:0:0:
256,192,32236,1,8,0:0:0:0:
256,192,33390,1,0,0:0:0:0:
256,192,33852,1,8,0:0:0:0:
256,192,34313,1,0,0:0:0:0:
256,192,35236,1,0,0:0:0:0:
256,192,35929,1,8,0:0:0:0:
256,192,36621,1,8,0:0:0:0:
256,192,37082,1,0,0:0:0:0:
256,192,37544,1,8,0:0:0:0:
256,192,38467,1,8,0:0:0:0:
256,192,38929,1,0,0:0:0:0:
256,192,39621,1,8,0:0:0:0:
256,192,40313,1,8,0:0:0:0:
256,192,40775,1,0,0:0:0:0:
256,192,42159,1,8,0:0:0:0:
256,192,42621,1,4,0:0:0:0:
256,192,42852,12,0,44005,0:0:0:0:
256,192,44467,5,4,0:0:0:0:
256,192,44929,1,8,0:0:0:0:
256,192,45852,1,8,0:0:0:0:
256,192,46313,1,0,0:0:0:0:
256,192,46775,1,8,0:0:0:0:
256,192,47698,1,8,0:0:0:0:
256,192,48159,1,4,0:0:0:0:
256,192,49082,1,0,0:0:0:0:
256,192,49544,1,8,0:0:0:0:
256,192,50005,1,0,0:0:0:0:
256,192,50467,1,8,0:0:0:0:
256,192,51852,1,4,0:0:0:0:
256,192,52313,1,6,0:0:0:0:
256,192,52775,1,4,0:0:0:0:
256,192,53698,1,4,0:0:0:0:
256,192,54159,1,6,0:0:0:0:
256,192,54621,1,4,0:0:0:0:
256,192,55544,1,0,0:0:0:0:
256,192,57390,1,0,0:0:0:0:
256,192,57852,1,8,0:0:0:0:
256,192,58775,1,8,0:0:0:0:
256,192,59236,1,4,0:0:0:0:
256,192,60621,1,8,0:0:0:0:
256,192,61082,1,0,0:0:0:0:
256,192,61544,1,8,0:0:0:0:
256,192,62467,1,8,0:0:0:0:
256,192,62929,1,4,0:0:0:0:
256,192,63852,1,0,0:0:0:0:
256,192,64313,1,8,0:0:0:0:
256,192,64775,1,0,0:0:0:0:
256,192,65236,1,8,0:0:0:0:
256,192,66621,1,4,0:0:0:0:
256,192,67082,1,6,0:0:0:0:
256,192,67544,1,4,0:0:0:0:
256,192,68467,1,4,0:0:0:0:
256,192,68929,1,6,0:0:0:0:
256,192,69390,1,4,0:0:0:0:
256,192,70313,1,0,0:0:0:0:
256,192,71236,1,8,0:0:0:0:
256,192,72159,1,0,0:0:0:0:
256,192,72621,1,8,0:0:0:0:
256,192,73544,1,8,0:0:0:0:
256,192,74005,1,0,0:0:0:0:
256,192,75390,1,8,0:0:0:0:
256,192,75852,1,0,0:0:0:0:
256,192,77236,1,0,0:0:0:0:
256,192,77698,1,8,0:0:0:0:
256,192,79082,1,8,0:0:0:0:
256,192,79544,1,0,0:0:0:0:
256,192,80929,1,8,0:0:0:0:
256,192,81390,1,0,0:0:0:0:
256,192,81852,1,8,0:0:0:0:
256,192,82775,1,8,0:0:0:0:
256,192,83236,1,0,0:0:0:0:
256,192,84621,1,8,0:0:0:0:
256,192,85082,1,0,0:0:0:0:
256,192,86467,1,8,0:0:0:0:
256,192,86929,1,0,0:0:0:0:
256,192,88313,1,8,0:0:0:0:
256,192,88775,1,4,0:0:0:0:
256,192,89236,1,8,0:0:0:0:
256,192,90159,1,8,0:0:0:0:
256,192,90621,1,0,0:0:0:0:
256,192,91313,1,8,0:0:0:0:
256,192,92467,1,0,0:0:0:0:
256,192,92929,1,8,0:0:0:0:
256,192,93390,1,0,0:0:0:0:
256,192,94313,1,0,0:0:0:0:
256,192,95005,1,8,0:0:0:0:
256,192,95698,1,8,0:0:0:0:
256,192,96159,1,0,0:0:0:0:
256,192,96621,1,8,0:0:0:0:
256,192,97544,1,8,0:0:0:0:
256,192,98005,1,0,0:0:0:0:
256,192,98698,1,0,0:0:0:0:
256,192,99390,1,8,0:0:0:0:
256,192,99852,1,0,0:0:0:0:
256,192,101236,1,8,0:0:0:0:
256,192,101698,1,4,0:0:0:0:
256,192,101929,12,0,103082,0:0:0:0:
256,192,103544,5,4,0:0:0:0:
256,192,104005,1,8,0:0:0:0:
256,192,104929,1,8,0:0:0:0:
256,192,105390,1,0,0:0:0:0:
256,192,105852,1,8,0:0:0:0:
256,192,106775,1,8,0:0:0:0:
256,192,107236,1,4,0:0:0:0:
256,192,108159,1,0,0:0:0:0:
256,192,108621,1,8,0:0:0:0:
256,192,109082,1,0,0:0:0:0:
256,192,109544,1,8,0:0:0:0:
256,192,110929,1,4,0:0:0:0:
256,192,111390,1,6,0:0:0:0:
256,192,111852,1,4,0:0:0:0:
256,192,112775,1,4,0:0:0:0:
256,192,113236,1,6,0:0:0:0:
256,192,113698,1,4,0:0:0:0:
256,192,114621,1,0,0:0:0:0:
256,192,116467,1,0,0:0:0:0:
256,192,116929,1,8,0:0:0:0:
256,192,117852,1,8,0:0:0:0:
256,192,118313,1,4,0:0:0:0:
256,192,119698,1,8,0:0:0:0:
256,192,120159,1,0,0:0:0:0:
256,192,120621,1,8,0:0:0:0:
256,192,121544,1,8,0:0:0:0:
256,192,122005,1,4,0:0:0:0:
256,192,122929,1,0,0:0:0:0:
256,192,123390,1,8,0:0:0:0:
256,192,123852,1,0,0:0:0:0:
256,192,124313,1,8,0:0:0:0:
256,192,125698,1,4,0:0:0:0:
256,192,126159,1,6,0:0:0:0:
256,192,126621,1,4,0:0:0:0:
256,192,127544,1,4,0:0:0:0:
256,192,128005,1,6,0:0:0:0:
256,192,128467,1,4,0:0:0:0:
256,192,129390,1,0,0:0:0:0:
256,192,130313,1,8,0:0:0:0:
256,192,131236,1,0,0:0:0:0:
256,192,131698,1,8,0:0:0:0:
256,192,132621,1,8,0:0:0:0:
256,192,133082,1,0,0:0:0:0:
256,192,134467,1,8,0:0:0:0:
256,192,134929,1,0,0:0:0:0:
256,192,135852,1,0,0:0:0:0:
256,192,136313,1,8,0:0:0:0:
256,192,136775,1,0,0:0:0:0:
256,192,137698,1,8,0:0:0:0:
256,192,138621,1,0,0:0:0:0:
256,192,139544,1,8,0:0:0:0:
256,192,140005,1,8,0:0:0:0:
256,192,140467,1,0,0:0:0:0:
256,192,141390,1,8,0:0:0:0:
256,192,142313,1,0,0:0:0:0:
256,192,143236,1,8,0:0:0:0:
256,192,143698,1,8,0:0:0:0:
256,192,144159,1,0,0:0:0:0:
256,192,145082,1,8,0:0:0:0:
256,192,146005,1,0,0:0:0:0:
256,192,146929,1,8,0:0:0:0:
256,192,147390,1,8,0:0:0:0:
256,192,147852,1,0,0:0:0:0:
256,192,148775,1,8,0:0:0:0:
256,192,149467,1,0,0:0:0:0:
256,192,150621,1,8,0:0:0:0:
256,192,151313,1,0,0:0:0:0:
256,192,152467,1,8,0:0:0:0:
256,192,153159,1,0,0:0:0:0:
256,192,154313,1,8,0:0:0:0:
256,192,155236,1,0,0:0:0:0:
256,192,156159,1,8,0:0:0:0:
256,192,156852,1,8,0:0:0:0:
256,192,158005,1,8,0:0:0:0:
256,192,158698,1,8,0:0:0:0:
256,192,159852,1,8,0:0:0:0:
256,192,160313,1,0,0:0:0:0:
256,192,160775,1,8,0:0:0:0:
256,192,162621,1,4,0:0:0:0:
256,192,163544,1,8,0:0:0:0:
256,192,164236,1,0,0:0:0:0:
256,192,165390,1,8,0:0:0:0:
256,192,166082,1,0,0:0:0:0:
256,192,167236,1,8,0:0:0:0:
256,192,167929,1,0,0:0:0:0:
256,192,169082,1,8,0:0:0:0:
256,192,169775,1,0,0:0:0:0:
256,192,170929,1,8,0:0:0:0:
256,192,171621,1,0,0:0:0:0:
256,192,172313,1,8,0:0:0:0:
256,192,172775,1,8,0:0:0:0:
256,192,173467,1,8,0:0:0:0:
256,192,174621,1,8,0:0:0:0:
256,192,175082,1,8,0:0:0:0:
256,192,175544,1,4,0:0:0:0:
256,192,175775,12,0,176929,0:0:0:0:
256,192,177390,5,4,0:0:0:0:
256,192,178313,1,0,0:0:0:0:
256,192,178775,1,8,0:0:0:0:
256,192,179236,1,0,0:0:0:0:
256,192,180159,1,8,0:0:0:0:
256,192,180852,1,6,0:0:0:0:
256,192,181544,1,8,0:0:0:0:
256,192,182005,1,0,0:0:0:0:
256,192,182467,1,8,0:0:0:0:
256,192,182929,1,0,0:0:0:0:
256,192,183390,1,8,0:0:0:0:
256,192,184775,1,4,0:0:0:0:
256,192,185236,1,6,0:0:0:0:
256,192,185698,1,4,0:0:0:0:
256,192,186621,1,4,0:0:0:0:
256,192,187082,1,6,0:0:0:0:
256,192,187544,1,4,0:0:0:0:
256,192,188467,1,0,0:0:0:0:
256,192,190313,1,0,0:0:0:0:
256,192,190775,1,8,0:0:0:0:
256,192,191698,1,8,0:0:0:0:
256,192,192159,1,4,0:0:0:0:
256,192,193082,1,0,0:0:0:0:
256,192,193544,1,8,0:0:0:0:
256,192,194005,1,0,0:0:0:0:
256,192,194929,1,8,0:0:0:0:
256,192,195621,1,6,0:0:0:0:
256,192,196313,1,8,0:0:0:0:
256,192,196775,1,0,0:0:0:0:
256,192,197236,1,8,0:0:0:0:
256,192,197698,1,0,0:0:0:0:
256,192,198159,1,8,0:0:0:0:
256,192,199544,1,4,0:0:0:0:
256,192,200005,1,6,0:0:0:0:
256,192,200467,1,4,0:0:0:0:
256,192,201390,1,4,0:0:0:0:
256,192,201852,1,6,0:0:0:0:
256,192,202313,1,4,0:0:0:0:
256,192,203236,1,0,0:0:0:0:
256,192,204159,1,8,0:0:0:0:
256,192,205082,1,0,0:0:0:0:
256,192,205544,1,8,0:0:0:0:
256,192,206467,1,8,0:0:0:0:
256,192,206929,1,4,0:0:0:0:
