osu file format v14

[General]
AudioFilename: 3OH!3 - R.I.P. .mp3
AudioLeadIn: 0
PreviewTime: 44005
Countdown: 0
SampleSet: Normal
StackLeniency: 0.7
Mode: 0
LetterboxInBreaks: 0
WidescreenStoryboard: 0

[Editor]
DistanceSpacing: 0.9
BeatDivisor: 4
GridSize: 4
TimelineZoom: 0.9

[Metadata]
Title:R.I.P.
TitleUnicode:R.I.P.
Artist:3OH!3
ArtistUnicode:3OH!3
Creator:mancuso_JM_
Version:Insane
Source:
Tags:3oh3 Streets of Gold rip mancusojuanmattos ezek pop english
BeatmapID:1640313
BeatmapSetID:780943

[Difficulty]
HPDrainRate:6.5
CircleSize:5
OverallDifficulty:7.5
ApproachRate:8.5
SliderMultiplier:2.2
SliderTickRate:2

[Events]
//Background and Video events
0,0,"BG.jpg",0,0
//Break Periods
2,74205,76330
2,133282,147638
//Storyboard Layer 0 (Background)
//Storyboard Layer 1 (Fail)
//Storyboard Layer 2 (Pass)
//Storyboard Layer 3 (Foreground)
//Storyboard Sound Samples

[TimingPoints]
391,461.538461538462,4,1,0,55,1,0
14929,461.538461538462,4,1,0,55,1,0
44467,-100,4,1,0,65,0,1
58775,-100,4,1,0,65,0,0
59236,-100,4,1,0,65,0,1
74005,-100,4,1,0,40,0,0
77005,-100,4,1,0,55,0,0
103544,-100,4,1,0,65,0,1
117852,-100,4,1,0,65,0,0
118313,-100,4,1,0,65,0,1
133082,-100,4,1,0,65,0,0
148313,-117.647058823529,4,2,0,50,0,0
161698,-153.846153846154,4,2,0,50,0,0
162621,-117.647058823529,4,2,0,50,0,0
174967,-117.647058823529,4,2,0,35,0,0
175082,-117.647058823529,4,2,0,50,0,0
176929,-100,4,1,0,50,0,0
177390,-83.3333333333333,4,1,0,65,0,1
191698,-83.3333333333333,4,1,0,65,0,0
192159,-83.3333333333333,4,1,0,65,0,1
206929,-83.3333333333333,4,1,0,45,0,0

[Colours]
Combo1 : 243,52,81
Combo2 : 222,224,143
Combo3 : 166,0,166
SliderBorder : 200,200,200

[HitObjects]
448,328,14467,5,2,0:2:0:0:
448,328,14929,2,0,P|448:274|440:219,1,110,4|0,0:3|0:0,0:0:0:0:
380,140,15390,1,8,0:0:0:0:
328,56,15621,2,0,B|280:88|256:138|256:138|232:88|184:56,1,220,2|0,0:2|0:0,0:0:0:0:
88,28,16313,1,8,0:0:0:0:
28,108,16544,1,0,0:0:0:0:
80,288,16775,5,2,0:0:0:0:
140,208,17005,1,0,0:0:0:0:
220,268,17236,2,0,L|329:256,1,110,8|0,0:0|0:0,0:0:0:0:
424,292,17698,1,2,0:0:0:0:
476,208,17929,1,4,0:3:0:0:
468,188,18044,1,4,0:3:0:0:
460,168,18159,1,8,0:0:0:0:
392,84,18390,1,8,0:0:0:0:
200,44,18621,6,0,P|98:44|75:143,1,220,4|8,0:3|0:0,0:0:0:0:
75,240,19313,2,0,P|98:339|200:340,1,220,4|0,0:3|0:0,0:0:0:0:
220,332,19890,1,0,0:0:0:0:
240,320,20005,1,8,0:0:0:0:
332,224,20236,1,0,0:0:0:0:
484,291,20467,6,0,P|499:211|476:133,1,165,2|2,0:0|0:0,0:0:0:0:
428,80,20929,2,0,B|392:120|392:120|338:104,1,110,8|0,0:0|0:0,0:0:0:0:
256,48,21390,1,2,0:0:0:0:
156,48,21621,1,0,0:0:0:0:
146,69,21736,1,0,0:0:0:0:
136,88,21852,1,8,0:0:0:0:
48,228,22082,1,8,0:0:0:0:
196,352,22313,5,4,0:3:0:0:
280,296,22544,1,0,0:0:0:0:
340,376,22775,1,8,0:0:0:0:
475,304,23005,2,2,P|504:199|471:96,1,220,2|0,0:0|0:0,0:0:0:0:
388,40,23698,2,0,B|336:36|336:60|279:48,1,110,8|0,0:0|0:0,0:0:0:0:
132,76,24159,5,4,0:3:0:0:
48,28,24390,1,0,0:0:0:0:
8,120,24621,1,8,0:0:0:0:
68,287,24852,2,2,P|165:310|193:214,1,220,2|4,0:0|0:3,0:0:0:0:
283,171,25544,2,0,P|303:223|308:278,1,110,8|0,0:0|0:0,0:0:0:0:
436,372,26005,6,0,P|442:317|467:269,1,110,4|0,0:3|0:0,0:0:0:0:
500,112,26467,1,8,0:0:0:0:
500,112,26582,1,0,0:0:0:0:
500,112,26698,2,2,P|447:23|345:41,1,220,2|0,0:0|0:0,0:0:0:0:
257,148,27390,1,8,0:0:0:0:
13,112,27621,2,0,P|66:23|168:41,1,220,2|0,0:0|0:0,0:0:0:0:
256,216,28313,1,8,0:0:0:0:
152,328,28544,2,0,P|256:360|360:328,1,220,2|2,0:0|0:0,0:0:0:0:
376,316,29121,1,0,0:0:0:0:
392,300,29236,1,8,0:0:0:0:
408,284,29352,1,0,0:0:0:0:
424,268,29467,1,8,0:0:0:0:
440,252,29582,1,0,0:0:0:0:
456,236,29698,6,0,L|300:180,1,165,4|0,0:3|0:0,0:0:0:0:
260,240,30159,2,0,L|156:204,1,110,10|0,0:0|0:0,0:0:0:0:
12,288,30621,2,0,L|116:324,1,110,2|4,0:0|0:3,0:0:0:0:
260,240,31082,1,8,0:0:0:0:
372,116,31313,1,2,0:0:0:0:
372,116,31429,1,0,0:0:0:0:
372,116,31544,6,0,L|209:88,1,165,2|2,0:0|0:0,0:0:0:0:
196,104,32005,1,8,0:0:0:0:
156,196,32236,2,0,L|373:230,1,220,2|0,0:0|0:0,0:0:0:0:
468,256,32929,1,8,0:0:0:0:
412,340,33159,1,0,0:0:0:0:
396,356,33275,1,8,0:0:0:0:
380,372,33390,6,0,P|306:298|211:338,2,220,2|10|2,0:0|0:0|0:0,0:0:0:0:
452,308,34544,2,0,P|421:262|378:229,1,110,4|8,0:3|0:0,0:0:0:0:
295,171,35005,1,0,0:0:0:0:
275,155,35121,1,0,0:0:0:0:
256,140,35236,6,0,P|177:71|84:117,1,220,2|8,0:0|0:0,0:0:0:0:
84,266,35929,2,2,P|177:312|256:243,1,220,2|0,0:0|0:0,0:0:0:0:
264,224,36505,1,0,0:0:0:0:
284,232,36621,1,8,0:0:0:0:
304,240,36736,1,0,0:0:0:0:
324,248,36852,1,8,0:0:0:0:
344,256,36967,1,0,0:0:0:0:
364,264,37082,6,0,L|375:154,1,110,2|0,0:2|0:0,0:0:0:0:
508,120,37544,2,0,L|497:230,1,110,8|2,0:0|0:2,0:0:0:0:
468,360,38005,2,0,P|435:315|392:281,1,110,0|2,0:0|0:2,0:0:0:0:
284,216,38467,2,0,P|248:258|202:287,1,110,8|0,0:0|0:0,0:0:0:0:
64,228,38929,6,0,P|117:133|209:74,1,220,2|8,0:0|0:0,0:0:0:0:
372,208,39621,2,0,P|318:302|226:361,1,220,2|0,0:0|0:0,0:0:0:0:
80,328,40313,1,8,0:0:0:0:
32,136,40544,6,0,P|94:52|196:72,1,220,2|2,0:0|0:0,0:0:0:0:
256,252,41236,1,8,0:0:0:0:
301,80,41467,1,2,0:0:0:0:
164,191,41698,1,0,0:0:0:0:
339,183,41929,1,2,0:0:0:0:
196,72,42159,2,0,B|138:59|111:7|111:7|115:66|72:107,1,220,10|6,0:0|0:0,0:0:0:0:
256,192,42736,12,8,44005,0:0:0:0:
68,192,44467,5,4,0:0:0:0:
68,192,44698,1,2,0:2:0:0:
124,24,44929,1,8,0:0:0:0:
124,24,45159,1,2,0:2:0:0:
236,168,45390,1,0,0:0:0:0:
236,168,45621,1,2,0:2:0:0:
284,312,45852,2,0,L|392:296,1,110,8|2,0:0|0:2,0:0:0:0:
448,128,46313,6,0,L|340:144,1,110,2|2,0:2|0:2,0:0:0:0:
196,68,46775,2,0,L|304:52,1,110,8|2,0:0|0:0,0:0:0:0:
108,116,47236,2,0,P|120:197|108:278,1,165,2|2,0:0|0:0,0:0:0:0:
175,320,47698,2,0,P|208:275|252:243,1,110,8|2,0:0|0:0,0:0:0:0:
276,240,48044,1,0,0:0:0:0:
296,252,48159,5,0,0:0:0:0:
440,149,48390,1,2,0:2:0:0:
382,316,48621,1,8,0:0:0:0:
331,148,48852,1,2,0:2:0:0:
472,255,49082,1,0,0:0:0:0:
380,228,49313,1,2,0:2:0:0:
239,120,49544,5,8,0:0:0:0:
416,127,49775,1,2,0:2:0:0:
270,224,50005,1,2,0:2:0:0:
331,58,50236,1,2,0:2:0:0:
384,232,50467,1,8,0:0:0:0:
384,232,50698,1,2,0:2:0:0:
384,336,50929,5,2,0:2:0:0:
256,384,51159,1,2,0:2:0:0:
128,336,51390,1,8,0:0:0:0:
56,252,51621,1,0,0:0:0:0:
52,232,51736,1,0,0:0:0:0:
48,212,51852,5,4,0:0:0:0:
256,12,52313,1,8,0:0:0:0:
464,212,52775,1,2,0:2:0:0:
419,300,53005,2,0,P|371:324|317:316,1,110,2|8,0:0|0:0,0:0:0:0:
264,232,53467,1,0,0:0:0:0:
264,232,53582,1,0,0:0:0:0:
264,232,53698,6,0,B|216:259|187:308|187:308|154:244|124:217,2,220,4|8|2,0:0|0:0|0:2,0:0:0:0:
316,148,54852,1,2,0:0:0:0:
388,216,55082,1,8,0:0:0:0:
464,280,55313,1,0,0:0:0:0:
472,260,55429,1,0,0:0:0:0:
479,239,55544,6,0,P|491:159|465:81,1,165,2|0,0:0|0:0,0:0:0:0:
400,47,56005,2,0,P|346:60|292:51,1,110,8|0,0:0|0:0,0:0:0:0:
101,32,56467,2,2,P|154:19|208:32,1,110,2|0,0:0|0:0,0:0:0:0:
28,88,56929,1,8,0:0:0:0:
27,88,57159,6,0,P|11:196|35:303,1,220,2|0,0:0|0:0,0:0:0:0:
124,352,57852,1,8,0:0:0:0:
200,288,58082,1,0,0:0:0:0:
388,352,58544,1,0,0:0:0:0:
312,288,58775,1,8,0:0:0:0:
256,208,59005,1,0,0:0:0:0:
204,55,59236,6,0,P|256:40|308:55,1,110,4|2,0:0|0:2,0:0:0:0:
308,196,59698,2,0,P|256:211|204:197,1,110,8|2,0:0|0:2,0:0:0:0:
204,31,60159,2,0,P|256:16|308:31,1,110,0|2,0:0|0:2,0:0:0:0:
308,221,60621,2,0,P|256:236|204:222,1,110,8|2,0:0|0:2,0:0:0:0:
64,248,61082,6,0,L|70:357,1,110,2|2,0:2|0:2,0:0:0:0:
280,384,61544,2,0,L|273:274,1,110,8|2,0:0|0:0,0:0:0:0:
468,200,62005,2,0,L|456:35,1,165,2|2,0:0|0:0,0:0:0:0:
380,28,62467,2,0,P|377:82|363:135,1,110,8|2,0:0|0:0,0:0:0:0:
352,156,62813,1,0,0:0:0:0:
336,168,62929,5,0,0:0:0:0:
184,168,63159,1,2,0:2:0:0:
124,92,63390,2,0,L|14:99,1,110,8|2,0:0|0:2,0:0:0:0:
16,248,63852,2,0,L|125:240,1,110,0|2,0:0|0:2,0:0:0:0:
136,56,64313,6,0,L|26:63,1,110,8|2,0:0|0:2,0:0:0:0:
4,284,64775,2,0,L|113:276,1,110,2|2,0:2|0:2,0:0:0:0:
208,308,65236,1,8,0:0:0:0:
300,344,65467,1,2,0:2:0:0:
448,200,65698,5,2,0:2:0:0:
356,164,65929,1,2,0:2:0:0:
268,120,66159,1,8,0:0:0:0:
184,68,66390,1,0,0:0:0:0:
176,88,66505,1,0,0:0:0:0:
168,108,66621,6,0,B|112:136|68:80|68:80|24:104|31:172,2,220,4|8|2,0:0|0:0|0:2,0:0:0:0:
272,72,67775,1,2,0:0:0:0:
364,16,68005,1,8,0:0:0:0:
392,124,68236,1,0,0:0:0:0:
384,144,68352,1,0,0:0:0:0:
376,164,68467,5,4,0:0:0:0:
256,368,68929,1,8,0:0:0:0:
136,164,69390,1,2,0:2:0:0:
51,112,69621,2,0,P|91:74|144:64,1,110,2|8,0:0|0:0,0:0:0:0:
244,72,70082,1,0,0:0:0:0:
264,76,70198,1,0,0:0:0:0:
284,80,70313,6,0,L|233:236,1,165,2|0,0:0|0:0,0:0:0:0:
256,240,70775,1,8,0:0:0:0:
324,312,71005,1,0,0:0:0:0:
468,224,71236,2,2,L|452:115,1,110,2|0,0:0|0:0,0:0:0:0:
288,80,71698,1,8,0:0:0:0:
88,112,71929,6,0,B|77:171|31:203|31:203|96:202|126:246,1,220,2|0,0:0|0:0,0:0:0:0:
228,288,72621,1,8,0:0:0:0:
228,288,72852,1,0,0:0:0:0:
468,84,73313,1,0,0:0:0:0:
344,0,73544,1,8,0:0:0:0:
300,140,73775,1,0,0:0:0:0:
300,140,73890,1,0,0:0:0:0:
300,140,74005,1,4,2:1:0:0:
152,248,77005,5,4,0:3:0:0:
308,332,77236,1,8,0:0:0:0:
204,332,77467,1,8,0:0:0:0:
360,248,77698,6,0,P|372:141|305:57,1,220,4|8,0:3|0:0,0:0:0:0:
206,57,78390,2,0,P|139:141|152:248,1,220,0|4,0:0|0:3,0:0:0:0:
204,332,79082,1,8,0:0:0:0:
308,332,79313,1,0,0:0:0:0:
472,256,79544,5,2,0:2:0:0:
436,164,79775,1,2,0:2:0:0:
356,220,80005,1,8,0:0:0:0:
272,272,80236,2,0,P|228:238|175:225,1,110,2|0,0:2|0:0,0:0:0:0:
84,188,80698,1,4,0:3:0:0:
92,168,80813,1,4,0:3:0:0:
100,148,80929,1,8,0:0:0:0:
108,128,81044,1,0,0:0:0:0:
116,108,81159,1,8,0:0:0:0:
296,56,81390,6,0,L|269:162,1,110,4|0,0:3|0:0,0:0:0:0:
212,244,81852,1,8,0:0:0:0:
120,280,82082,1,0,0:0:0:0:
100,288,82198,1,0,0:0:0:0:
80,300,82313,2,0,P|71:245|79:191,1,110,0|4,0:0|0:3,0:0:0:0:
132,108,82775,1,8,0:0:0:0:
200,36,83005,1,2,0:2:0:0:
388,52,83236,6,0,P|375:105|383:159,1,110,4|0,0:3|0:0,0:0:0:0:
412,256,83698,1,8,0:0:0:0:
328,308,83929,2,2,B|280:276|256:226|256:226|232:276|184:308,1,220,2|4,0:0|0:3,0:0:0:0:
108,244,84621,2,0,P|139:199|182:164,1,110,8|0,0:0|0:0,0:0:0:0:
340,80,85082,5,0,0:0:0:0:
416,16,85313,1,0,0:0:0:0:
452,108,85544,1,8,0:0:0:0:
428,204,85775,2,2,B|368:238|349:279|349:279|354:235|319:175,1,220,2|4,0:0|0:3,0:0:0:0:
256,100,86467,1,8,0:0:0:0:
84,204,86698,6,0,B|143:238|162:279|162:279|157:235|192:175,1,220,2|2,0:0|0:0,0:0:0:0:
256,100,87390,1,8,0:0:0:0:
324,28,87621,1,2,0:0:0:0:
452,180,88082,1,2,0:0:0:0:
440,200,88198,1,0,0:0:0:0:
404,212,88313,1,8,0:0:0:0:
392,228,88429,1,0,0:0:0:0:
356,244,88544,1,8,0:0:0:0:
344,260,88659,1,0,0:0:0:0:
330,274,88775,6,0,P|265:225|224:154,1,165,6|0,0:0|0:0,0:0:0:0:
160,116,89236,2,0,P|147:169|123:219,1,110,8|0,0:0|0:0,0:0:0:0:
68,96,89698,2,0,P|138:20|234:58,1,220,2|8,0:0|0:0,0:0:0:0:
320,108,90390,1,2,0:0:0:0:
320,108,90505,1,0,0:0:0:0:
319,108,90621,6,0,P|291:185|283:267,1,165,2|2,0:0|0:0,0:0:0:0:
312,340,91082,2,0,P|274:301|226:275,1,110,8|2,0:0|0:0,0:0:0:0:
136,236,91544,1,4,0:3:0:0:
48,368,91775,1,4,0:3:0:0:
0,224,92005,1,8,0:0:0:0:
144,240,92236,1,0,0:0:0:0:
144,240,92352,1,0,0:0:0:0:
144,240,92467,6,0,L|308:228,1,165,2|0,0:0|0:0,0:0:0:0:
320,244,92929,1,10,0:0:0:0:
400,304,93159,1,0,0:0:0:0:
472,231,93390,2,0,P|480:177|468:124,1,110,2|0,0:0|0:0,0:0:0:0:
392,60,93852,1,8,0:0:0:0:
296,40,94082,1,2,0:0:0:0:
280,52,94198,1,0,0:0:0:0:
264,68,94313,6,0,P|169:24|94:95,1,220,2|8,0:0|0:0,0:0:0:0:
112,256,95005,2,0,P|206:299|281:228,1,220,2|0,0:0|0:0,0:0:0:0:
284,208,95582,1,0,0:0:0:0:
284,184,95698,1,8,0:0:0:0:
276,168,95813,1,0,0:0:0:0:
268,148,95929,1,8,0:0:0:0:
268,128,96044,1,0,0:0:0:0:
276,108,96159,6,0,L|385:118,1,110,2|2,0:2|0:2,0:0:0:0:
448,196,96621,2,0,P|432:248|427:303,1,110,8|2,0:0|0:2,0:0:0:0:
328,320,97082,2,0,P|302:271|266:229,1,110,0|2,0:0|0:2,0:0:0:0:
168,212,97544,1,8,0:0:0:0:
72,188,97775,1,2,0:2:0:0:
72,188,97890,1,0,0:0:0:0:
72,188,98005,6,0,P|54:88|148:49,1,220,2|8,0:0|0:0,0:0:0:0:
308,120,98698,2,0,P|326:220|232:259,1,220,2|0,0:0|0:0,0:0:0:0:
176,164,99390,1,8,0:0:0:0:
230,336,99621,6,0,P|336:317|401:232,1,220,2|2,0:0|0:0,0:0:0:0:
340,156,100313,1,8,0:0:0:0:
241,10,100544,1,2,0:0:0:0:
235,186,100775,1,0,0:0:0:0:
344,48,101005,1,2,0:0:0:0:
175,100,101236,2,0,P|73:112|26:20,1,220,10|6,0:0|0:0,0:0:0:0:
256,192,101813,12,8,103082,0:0:0:0:
92,203,103544,6,0,P|93:256|131:295,1,110,4|2,0:0|0:2,0:0:0:0:
112,120,104005,2,0,P|58:120|19:158,1,110,8|2,0:0|0:2,0:0:0:0:
196,140,104467,2,0,P|194:86|156:47,1,110,0|2,0:0|0:2,0:0:0:0:
176,224,104929,2,0,P|229:222|267:184,1,110,8|2,0:0|0:2,0:0:0:0:
444,120,105390,6,0,L|396:20,1,110,2|2,0:2|0:2,0:0:0:0:
224,132,105852,2,0,L|272:232,1,110,8|2,0:0|0:0,0:0:0:0:
387,351,106313,2,0,P|464:365|504:299,1,165,2|2,0:0|0:0,0:0:0:0:
472,236,106775,1,8,0:0:0:0:
412,88,107005,1,2,0:0:0:0:
412,88,107121,1,0,0:0:0:0:
412,88,107236,1,0,0:0:0:0:
236,104,107467,5,2,0:2:0:0:
180,20,107698,1,8,0:0:0:0:
4,28,107929,5,2,0:2:0:0:
56,112,108159,1,0,0:0:0:0:
116,192,108390,1,2,0:2:0:0:
148,364,108621,5,8,0:0:0:0:
80,292,108852,1,2,0:2:0:0:
264,340,109082,6,0,L|368:304,1,110,2|2,0:2|0:2,0:0:0:0:
368,116,109544,2,0,L|264:152,1,110,8|2,0:0|0:2,0:0:0:0:
116,92,110005,1,2,0:2:0:0:
8,12,110236,1,2,0:2:0:0:
12,148,110467,1,8,0:0:0:0:
120,232,110698,1,0,0:0:0:0:
128,252,110813,1,0,0:0:0:0:
135,272,110929,6,0,P|227:224|299:297,2,220,4|8|2,0:0|0:0|0:2,0:0:0:0:
68,200,112082,2,0,P|108:163|157:139,1,110,2|8,0:0|0:0,0:0:0:0:
248,100,112544,1,0,0:0:0:0:
248,100,112659,1,0,0:0:0:0:
248,100,112775,6,0,P|325:170|425:138,2,220,4|8|2,0:0|0:0|0:2,0:0:0:0:
176,32,113929,1,2,0:0:0:0:
96,88,114159,1,8,0:0:0:0:
12,140,114390,1,0,0:0:0:0:
16,160,114505,1,0,0:0:0:0:
20,180,114621,6,0,L|184:160,1,165,2|0,0:0|0:0,0:0:0:0:
236,215,115082,2,0,P|270:173|319:149,1,110,8|0,0:0|0:0,0:0:0:0:
400,92,115544,1,2,0:0:0:0:
480,36,115775,1,0,0:0:0:0:
504,132,116005,1,8,0:0:0:0:
448,292,116236,6,0,P|365:336|352:243,1,220,2|0,0:0|0:0,0:0:0:0:
280,172,116929,2,0,P|245:214|226:266,1,110,8|4,0:0|0:3,0:0:0:0:
52,356,117621,1,0,0:0:0:0:
16,264,117852,1,8,0:0:0:0:
52,172,118082,1,0,0:0:0:0:
256,120,118313,6,0,P|308:103|362:110,1,110,4|2,0:0|0:2,0:0:0:0:
256,264,118775,2,0,P|203:280|149:273,1,110,8|2,0:0|0:2,0:0:0:0:
227,49,119236,2,0,P|279:29|333:27,1,110,0|2,0:0|0:2,0:0:0:0:
284,334,119698,2,0,P|232:354|178:356,1,110,8|2,0:0|0:2,0:0:0:0:
52,112,120159,6,0,P|106:107|157:126,1,110,2|2,0:2|0:2,0:0:0:0:
284,334,120621,2,0,P|335:352|389:348,1,110,8|2,0:0|0:0,0:0:0:0:
424,168,121082,2,0,P|366:115|294:145,1,165,2|2,0:0|0:0,0:0:0:0:
227,191,121544,2,0,P|272:222|326:217,1,110,8|2,0:0|0:0,0:0:0:0:
326,217,121890,1,0,0:0:0:0:
326,217,122005,1,0,0:0:0:0:
424,368,122236,5,2,0:2:0:0:
336,348,122467,1,8,0:0:0:0:
112,356,122698,5,2,0:2:0:0:
148,264,122929,1,0,0:0:0:0:
224,200,123159,1,2,0:2:0:0:
440,176,123390,5,8,0:0:0:0:
403,83,123621,1,2,0:2:0:0:
232,60,123852,6,0,L|122:70,1,110,2|2,0:2|0:2,0:0:0:0:
148,264,124313,2,0,L|257:253,1,110,8|2,0:0|0:2,0:0:0:0:
412,292,124775,1,2,0:2:0:0:
484,356,125005,1,2,0:2:0:0:
512,256,125236,1,8,0:0:0:0:
484,160,125467,1,0,0:0:0:0:
484,160,125582,1,0,0:0:0:0:
484,160,125698,6,0,P|394:121|363:214,2,220,4|8|2,0:0|0:0|0:2,0:0:0:0:
512,255,126852,2,0,P|469:289|414:292,1,110,2|8,0:0|0:0,0:0:0:0:
316,280,127313,1,0,0:0:0:0:
312,300,127429,1,0,0:0:0:0:
306,319,127544,6,0,B|200:272|200:368|96:324,2,220,4|8|2,0:0|0:0|0:2,0:0:0:0:
392,368,128698,1,2,0:0:0:0:
456,292,128929,1,8,0:0:0:0:
488,200,129159,1,0,0:0:0:0:
488,200,129275,1,0,0:0:0:0:
488,199,129390,6,0,P|452:131|375:140,1,165,2|0,0:0|0:0,0:0:0:0:
308,180,129852,2,0,B|268:140|268:140|214:140,1,110,8|0,0:0|0:0,0:0:0:0:
116,188,130313,1,2,0:0:0:0:
24,55,130544,1,0,0:0:0:0:
4,174,130775,1,8,0:0:0:0:
134,73,131005,1,2,0:0:0:0:
316,44,131236,5,4,0:3:0:0:
412,68,131467,1,0,0:0:0:0:
412,68,131582,1,0,0:0:0:0:
412,68,131698,1,8,0:0:0:0:
444,160,131929,2,0,P|419:251|340:200,1,220,4|4,0:3|0:3,0:0:0:0:
256,144,132621,1,8,0:0:0:0:
112,12,132852,1,0,0:0:0:0:
96,200,133082,5,4,2:1:0:0:
28,144,148313,6,0,P|45:186|33:231,1,93.500001783371,2|0,0:0|0:0,0:0:0:0:
3,319,148775,2,0,P|58:357|122:335,1,140.250002675057,8|8,0:0|0:0,0:0:0:0:
148,332,149236,2,0,B|184:300|184:300|229:300,1,93.500001783371,2|0,0:0|0:0,0:0:0:0:
284,223,149698,6,0,P|335:149|425:143,1,187.000003566742,4|0,0:3|0:0,0:0:0:0:
444,236,150390,1,0,0:0:0:0:
501,309,150621,1,8,0:0:0:0:
427,367,150852,1,2,0:0:0:0:
369,293,151082,1,0,0:0:0:0:
236,336,151313,6,0,B|193:304|205:252|205:252|181:300|130:295,1,187.000003566742,2|0,0:0|0:0,0:0:0:0:
60,236,152005,1,2,0:0:0:0:
32,148,152236,1,0,0:0:0:0:
104,84,152467,2,0,L|244:76,1,140.250002675057,8|8,0:0|0:0,0:0:0:0:
252,96,152929,1,2,0:0:0:0:
324,156,153159,1,0,0:0:0:0:
428,248,153390,6,0,P|388:322|313:282,1,187.000003566742,4|0,0:3|0:0,0:0:0:0:
244,220,154082,1,0,0:0:0:0:
192,144,154313,2,0,L|52:155,1,140.250002675057,8|8,0:0|0:0,0:0:0:0:
8,88,154775,2,0,L|101:80,1,93.500001783371,2|0,0:0|0:0,0:0:0:0:
228,28,155236,6,0,B|262:67|239:115|239:115|273:74|321:90,1,187.000003566742,4|2,0:3|0:0,0:0:0:0:
416,96,155929,1,0,0:0:0:0:
484,160,156159,2,0,L|476:253,1,93.500001783371,8|0,0:0|0:0,0:0:0:0:
408,320,156621,1,0,0:0:0:0:
320,224,156852,6,0,P|256:167|192:224,1,187.000003566742,2|0,0:0|0:0,0:0:0:0:
129,158,157544,2,0,P|157:121|196:95,1,93.500001783371,2|0,0:0|0:0,0:0:0:0:
256,24,158005,1,8,0:0:0:0:
383,158,158236,2,0,P|354:121|315:95,1,93.500001783371,2|0,0:0|0:0,0:0:0:0:
192,223,158698,6,0,P|256:166|319:223,1,187.000003566742,2|2,0:0|0:0,0:0:0:0:
392,284,159390,1,0,0:0:0:0:
336,360,159621,1,2,0:0:0:0:
256,316,159852,1,8,0:0:0:0:
200,236,160082,1,2,0:0:0:0:
120,284,160313,1,0,0:0:0:0:
120,284,160775,6,0,P|88:199|118:112,1,187.000003566742,4|0,0:3|0:0,0:0:0:0:
344,88,161698,2,2,P|426:192|344:296,1,285.99998690796,8|4,0:0|0:3,0:0:0:0:
160,316,163082,5,2,0:0:0:0:
84,372,163313,1,0,0:0:0:0:
96,232,163544,1,8,0:0:0:0:
164,168,163775,1,2,0:0:0:0:
228,236,164005,1,0,0:0:0:0:
360,348,164236,5,4,0:3:0:0:
360,348,164467,2,0,P|375:257|352:167,1,187.000003566742,4|0,0:3|0:0,0:0:0:0:
292,96,165159,1,2,0:0:0:0:
240,16,165390,1,8,0:0:0:0:
172,80,165621,1,0,0:0:0:0:
128,164,165852,2,0,L|34:171,1,93.500001783371,2|0,0:0|0:0,0:0:0:0:
40,336,166313,6,0,L|226:320,1,187.000003566742,4|2,0:3|0:0,0:0:0:0:
308,368,167005,1,0,0:0:0:0:
256,240,167236,2,0,L|104:252,1,140.250002675057,8|8,0:0|0:0,0:0:0:0:
100,232,167698,1,0,0:0:0:0:
88,76,167929,5,4,0:3:0:0:
88,76,168159,2,0,P|152:16|229:57,1,187.000003566742,4|4,0:3|0:3,0:0:0:0:
292,128,168852,1,0,0:0:0:0:
364,188,169082,2,0,L|348:327,1,140.250002675057,8|8,0:0|0:0,0:0:0:0:
312,379,169544,2,0,P|306:333|290:289,1,93.500001783371,2|0,0:0|0:0,0:0:0:0:
144,216,170005,6,0,B|121:255|133:306|133:306|106:261|62:248,1,187.000003566742,4|2,0:3|0:0,0:0:0:0:
20,164,170698,1,0,0:0:0:0:
48,76,170929,1,8,0:0:0:0:
124,128,171159,2,0,B|164:104|164:104|210:104,1,93.500001783371,0|2,0:0|0:0,0:0:0:0:
396,52,171621,5,4,0:3:0:0:
396,52,171852,2,0,P|425:115|404:180,1,140.250002675057,4|0,0:3|0:0,0:0:0:0:
336,223,172313,2,0,P|349:267|370:309,1,93.500001783371,2|0,0:0|0:0,0:0:0:0:
483,196,172775,2,0,P|495:150|499:104,1,93.500001783371,8|0,0:0|0:0,0:0:0:0:
396,52,173236,1,2,0:0:0:0:
292,144,173467,1,0,0:0:0:0:
180,260,173698,5,4,0:3:0:0:
180,260,173929,1,0,0:0:0:0:
52,356,174159,1,2,0:0:0:0:
52,356,174390,1,0,0:0:0:0:
8,204,174621,1,8,0:0:0:0:
192,148,174852,1,0,0:0:0:0:
192,148,174967,1,8,0:0:0:0:
192,148,175082,2,2,P|256:91|320:148,1,187.000003566742,2|4,0:0|0:3,0:0:0:0:
256,192,175659,12,8,176929,0:0:0:0:
208,352,177390,6,0,P|145:372|80:364,1,131.99999597168,4|2,0:0|0:2,0:0:0:0:
256,244,177852,2,0,P|318:264|383:256,1,131.99999597168,8|2,0:0|0:2,0:0:0:0:
204,136,178313,2,0,P|141:156|76:148,1,131.99999597168,0|2,0:0|0:2,0:0:0:0:
256,36,178775,2,0,P|318:56|383:48,1,131.99999597168,8|2,0:0|0:2,0:0:0:0:
488,192,179236,5,2,0:2:0:0:
444,288,179467,1,2,0:2:0:0:
272,344,179698,1,8,0:0:0:0:
256,239,179929,1,2,0:0:0:0:
331,166,180159,2,0,P|240:135|163:192,1,197.99999395752,2|2,0:0|0:0,0:0:0:0:
152,268,180621,1,8,0:0:0:0:
22,213,180852,1,2,0:0:0:0:
22,213,180967,1,0,0:0:0:0:
22,213,181082,5,0,0:0:0:0:
168,148,181313,1,2,0:2:0:0:
168,148,181544,2,0,L|152:16,1,131.99999597168,8|2,0:0|0:2,0:0:0:0:
296,168,182005,2,0,L|312:300,1,131.99999597168,0|2,0:0|0:2,0:0:0:0:
140,172,182467,6,0,L|124:40,1,131.99999597168,8|2,0:0|0:2,0:0:0:0:
324,144,182929,2,0,L|340:276,1,131.99999597168,2|2,0:2|0:2,0:0:0:0:
112,196,183390,2,0,L|96:64,1,131.99999597168,8|2,0:0|0:2,0:0:0:0:
64,296,183852,5,2,0:2:0:0:
148,360,184082,1,2,0:2:0:0:
200,268,184313,1,8,0:0:0:0:
304,244,184544,1,0,0:0:0:0:
324,260,184659,1,0,0:0:0:0:
348,276,184775,5,4,0:0:0:0:
256,12,185236,1,8,0:0:0:0:
164,276,185698,1,2,0:2:0:0:
44,364,185929,1,2,0:0:0:0:
44,364,186044,1,0,0:0:0:0:
44,364,186159,1,8,0:0:0:0:
24,232,186390,1,0,0:0:0:0:
24,232,186505,1,0,0:0:0:0:
24,232,186621,5,4,0:0:0:0:
256,4,187082,1,8,0:0:0:0:
488,232,187544,1,2,0:2:0:0:
420,356,187775,1,2,0:0:0:0:
420,356,187890,1,0,0:0:0:0:
420,356,188005,1,8,0:0:0:0:
312,268,188236,1,0,0:0:0:0:
312,268,188352,1,0,0:0:0:0:
312,268,188467,6,0,L|114:283,1,197.99999395752,6|0,0:0|0:0,0:0:0:0:
92,352,188929,1,8,0:0:0:0:
76,192,189159,1,0,0:0:0:0:
76,192,189390,2,2,L|208:184,1,131.99999597168,2|0,0:0|0:0,0:0:0:0:
284,112,189852,1,8,0:0:0:0:
420,16,190082,1,2,0:0:0:0:
440,188,190313,5,0,0:0:0:0:
288,280,190544,1,0,0:0:0:0:
258,275,190659,1,0,0:0:0:0:
232,272,190775,2,0,P|178:236|116:252,1,131.99999597168,8|0,0:0|0:0,0:0:0:0:
319,351,191236,2,0,P|359:304|353:238,1,131.99999597168
223,384,191698,1,8,0:0:0:0:
176,184,191929,1,0,0:0:0:0:
359,144,192159,6,0,L|343:276,1,131.99999597168,4|2,0:0|0:2,0:0:0:0:
215,344,192621,2,0,L|231:212,1,131.99999597168,8|2,0:0|0:2,0:0:0:0:
431,144,193082,2,0,L|415:276,1,131.99999597168,0|2,0:2|0:2,0:0:0:0:
143,344,193544,2,0,L|159:212,1,131.99999597168,8|2,0:0|0:2,0:0:0:0:
511,148,194005,6,0,L|495:280,1,131.99999597168,2|2,0:2|0:2,0:0:0:0:
59,344,194467,2,0,L|75:212,1,131.99999597168,8|2,0:0|0:0,0:0:0:0:
256,60,194929,2,0,P|340:19|416:76,1,197.99999395752,2|2,0:0|0:0,0:0:0:0:
400,156,195390,1,8,0:0:0:0:
436,256,195621,1,2,0:0:0:0:
436,256,195736,1,0,0:0:0:0:
436,256,195852,5,0,0:0:0:0:
237,219,196082,1,2,0:2:0:0:
390,372,196313,1,8,0:0:0:0:
342,161,196544,1,2,0:2:0:0:
268,349,196775,1,0,0:0:0:0:
336,268,197005,1,2,0:2:0:0:
144,136,197236,5,8,0:0:0:0:
188,348,197467,1,2,0:2:0:0:
280,120,197698,1,2,0:2:0:0:
100,264,197929,1,2,0:2:0:0:
300,104,198159,1,8,0:0:0:0:
72,12,198390,5,2,0:2:0:0:
100,264,198621,1,0,0:0:0:0:
212,44,198852,1,2,0:2:0:0:
4,152,199082,1,8,0:0:0:0:
208,232,199313,1,0,0:0:0:0:
208,232,199429,1,0,0:0:0:0:
208,232,199544,6,0,P|281:134|393:183,2,263.99999194336,4|8|2,0:0|0:0|0:2,0:0:0:0:
136,308,200698,1,2,0:0:0:0:
116,288,200813,1,0,0:0:0:0:
96,268,200929,1,8,0:0:0:0:
12,204,201159,1,0,0:0:0:0:
28,184,201275,1,0,0:0:0:0:
44,163,201390,6,0,P|122:68|237:112,2,263.99999194336,4|8|2,0:0|0:0|0:2,0:0:0:0:
96,268,202544,1,2,0:0:0:0:
116,288,202659,1,0,0:0:0:0:
136,308,202775,1,8,0:0:0:0:
212,380,203005,1,0,0:0:0:0:
232,360,203121,1,0,0:0:0:0:
252,340,203236,6,0,P|324:273|356:180,1,197.99999395752,2|0,0:0|0:0,0:0:0:0:
356,104,203698,2,0,P|372:167|407:223,1,131.99999597168,8|0,0:0|0:0,0:0:0:0:
392,384,204159,2,2,P|364:324|320:275,1,131.99999597168,2|0,0:0|0:0,0:0:0:0:
228,220,204621,1,8,0:0:0:0:
112,288,204852,1,2,0:0:0:0:
56,152,205082,5,4,0:0:0:0:
172,52,205313,1,0,0:0:0:0:
172,52,205429,1,0,0:0:0:0:
172,52,205544,2,0,L|303:44,1,131.99999597168,8|0,0:0|0:0,0:0:0:0:
359,212,206005,6,0,L|227:219,1,131.99999597168,2|2,0:2|0:2,0:0:0:0:
16,160,206467,1,8,0:0:0:0:
88,4,206698,1,0,0:0:0:0:
224,112,206929,1,4,0:0:0:0:
