osu file format v14

[General]
AudioFilename: 3OH!3 - R.I.P. .mp3
AudioLeadIn: 0
PreviewTime: 44005
Countdown: 0
SampleSet: Soft
StackLeniency: 0.7
Mode: 0
LetterboxInBreaks: 0
WidescreenStoryboard: 0

[Editor]
DistanceSpacing: 1
BeatDivisor: 4
GridSize: 4
TimelineZoom: 0.9

[Metadata]
Title:R.I.P.
TitleUnicode:R.I.P.
Artist:3OH!3
ArtistUnicode:3OH!3
Creator:mancuso_JM_
Version:Hard
Source:
Tags:3oh3 Streets of Gold rip mancusojuanmattos ezek pop english
BeatmapID:1640312
BeatmapSetID:780943

[Difficulty]
HPDrainRate:5.5
CircleSize:4
OverallDifficulty:6
ApproachRate:7.5
SliderMultiplier:1.8
SliderTickRate:2

[Events]
//Background and Video events
0,0,"BG.jpg",0,0
//Break Periods
2,74005,76180
2,133082,147488
//Storyboard Layer 0 (Background)
//Storyboard Layer 1 (Fail)
//Storyboard Layer 2 (Pass)
//Storyboard Layer 3 (Foreground)
//Storyboard Sound Samples

[TimingPoints]
391,461.538461538462,4,1,0,55,1,0
14929,461.538461538462,4,1,0,55,1,0
44467,-100,4,1,0,65,0,1
58775,-100,4,1,0,65,0,0
59236,-100,4,1,0,65,0,1
74005,-100,4,1,0,65,0,0
77005,-100,4,1,0,55,0,0
103544,-100,4,1,0,65,0,1
117852,-100,4,1,0,65,0,0
118313,-100,4,1,0,65,0,1
133082,-100,4,1,0,65,0,0
148313,-100,4,2,0,50,0,0
176929,-100,4,1,0,50,0,0
177390,-100,4,1,0,65,0,1
191698,-100,4,1,0,65,0,0
192159,-100,4,1,0,65,0,1
206929,-100,4,1,0,45,0,0

[Colours]
Combo1 : 243,52,81
Combo2 : 222,224,143
Combo3 : 166,0,166
SliderBorder : 200,200,200

[HitObjects]
52,84,14467,5,2,0:2:0:0:
220,24,14929,2,0,L|216:113,1,90,4|0,0:3|0:0,0:0:0:0:
272,184,15390,1,8,0:0:0:0:
272,184,15621,2,0,P|351:147|436:173,1,180,2|4,0:2|0:3,0:0:0:0:
496,240,16313,2,0,P|504:284|497:328,1,90,8|0,0:0|0:0,0:0:0:0:
412,356,16775,6,0,L|322:345,1,90,2|0,0:0|0:0,0:0:0:0:
236,368,17236,1,8,0:0:0:0:
152,332,17467,1,0,0:0:0:0:
63,347,17698,2,0,P|43:260|59:172,1,180,2|8,0:0|0:0,0:0:0:0:
124,112,18390,1,0,0:0:0:0:
196,56,18621,5,4,0:3:0:0:
372,28,19082,1,8,0:0:0:0:
372,28,19313,1,0,0:0:0:0:
464,184,19775,1,0,0:0:0:0:
488,272,20005,1,10,0:0:0:0:
428,340,20236,1,0,0:0:0:0:
336,348,20467,6,0,P|276:317|211:329,2,135,2|2|0,0:0|0:0|0:0,0:0:0:0:
416,308,21390,2,0,L|400:220,1,90,2|0,0:0|0:0,0:0:0:0:
408,200,21736,1,0,0:0:0:0:
420,180,21852,1,8,0:0:0:0:
436,92,22082,1,8,0:0:0:0:
364,36,22313,5,0,0:0:0:0:
172,24,22775,1,8,0:0:0:0:
172,24,23005,2,2,P|192:112|175:199,1,180,2|4,0:0|0:3,0:0:0:0:
100,247,23698,2,0,P|95:292|107:335,1,90,8|0,0:0|0:0,0:0:0:0:
196,360,24159,5,4,0:3:0:0:
376,372,24621,1,8,0:0:0:0:
376,372,24852,2,2,P|356:284|373:197,1,180,2|4,0:0|0:3,0:0:0:0:
356,108,25544,2,0,L|266:104,1,90,8|0,0:0|0:0,0:0:0:0:
196,48,26005,5,4,0:3:0:0:
32,120,26467,1,8,0:0:0:0:
31,120,26698,2,2,P|15:207|38:294,1,180,2|4,0:0|0:3,0:0:0:0:
108,352,27390,1,8,0:0:0:0:
108,351,27621,6,0,P|164:286|250:295,1,180,2|0,0:0|0:0,0:0:0:0:
336,328,28313,1,8,0:0:0:0:
416,368,28544,1,2,0:0:0:0:
492,203,29005,2,0,P|488:159|473:116,1,90,2|8,0:0|0:0,0:0:0:0:
392,76,29467,1,0,0:0:0:0:
304,52,29698,5,4,0:3:0:0:
123,72,30159,2,0,P|115:115|125:159,1,90,8|0,0:0|0:0,0:0:0:0:
148,248,30621,2,0,B|200:228|211:185|211:185|236:216|289:212,1,180,2|8,0:0|0:0,0:0:0:0:
372,248,31313,1,2,0:0:0:0:
310,311,31544,6,0,P|255:347|189:342,2,135,2|2|2,0:0|0:0|0:0,0:0:0:0:
352,136,32698,1,4,0:3:0:0:
300,64,32929,1,8,0:0:0:0:
212,64,33159,1,0,0:0:0:0:
160,136,33390,5,2,0:0:0:0:
344,272,33852,1,10,0:0:0:0:
344,272,34313,2,0,B|286:261|256:284|256:284|222:309|171:291,1,180,2|8,0:0|0:0,0:0:0:0:
116,220,35005,1,0,0:0:0:0:
92,132,35236,6,0,P|173:98|209:18,1,180,2|8,0:0|0:0,0:0:0:0:
302,18,35929,2,2,P|338:98|420:132,1,180,2|4,0:0|0:3,0:0:0:0:
492,188,36621,2,0,L|480:277,1,90,8|8,0:0|0:0,0:0:0:0:
396,304,37082,5,4,0:3:0:0:
324,360,37313,1,2,0:2:0:0:
256,300,37544,2,0,L|156:308,1,90,8|2,0:0|0:2,0:0:0:0:
92,256,38005,2,0,P|85:211|93:167,1,90,0|2,0:0|0:2,0:0:0:0:
132,84,38467,1,8,0:0:0:0:
220,60,38698,1,0,0:0:0:0:
236,148,38929,6,0,L|416:148,1,180,2|8,0:0|0:0,0:0:0:0:
412,236,39621,2,0,L|232:236,1,180,2|0,0:0|0:0,0:0:0:0:
164,296,40313,1,8,0:0:0:0:
80,268,40544,6,0,P|56:182|72:94,1,180,2|2,0:0|0:0,0:0:0:0:
244,44,41467,1,2,0:0:0:0:
320,88,41698,1,0,0:0:0:0:
384,24,41929,1,2,0:0:0:0:
439,94,42159,2,0,P|455:182|431:268,1,180,10|6,0:0|0:0,0:0:0:0:
256,192,42736,12,8,44005,0:0:0:0:
63,180,44467,6,0,P|71:223|62:267,1,90,4|2,0:0|0:2,0:0:0:0:
124,332,44929,2,0,P|167:324|211:333,1,90,8|2,0:0|0:2,0:0:0:0:
300,333,45390,2,0,P|344:324|388:332,1,90,0|2,0:0|0:2,0:0:0:0:
449,267,45852,2,0,P|440:223|448:180,1,90,8|2,0:0|0:2,0:0:0:0:
464,92,46313,5,2,0:2:0:0:
408,20,46544,1,2,0:2:0:0:
335,72,46775,2,0,P|296:91|251:88,1,90,8|2,0:0|0:0,0:0:0:0:
163,103,47236,2,0,P|175:170|165:236,2,135,2|2|2,0:0|0:0|0:0,0:0:0:0:
148,88,48044,1,0,0:0:0:0:
128,76,48159,5,0,0:0:0:0:
56,132,48390,2,0,P|48:176|56:224,2,90,2|8|2,0:2|0:0|0:2,0:0:0:0:
127,75,49082,2,0,P|170:88|212:73,1,90,0|2,0:0|0:2,0:0:0:0:
288,28,49544,2,0,P|329:43|372:32,1,90,8|2,0:0|0:2,0:0:0:0:
464,32,50005,6,0,L|460:121,1,90,4|2,0:3|0:2,0:0:0:0:
408,196,50467,2,0,P|366:180|321:185,1,90,8|2,0:0|0:2,0:0:0:0:
248,240,50929,1,0,0:0:0:0:
183,298,51159,2,0,P|170:280|163:258,2,45,2|0|8,0:2|0:0|0:0,0:0:0:0:
256,348,51621,1,0,0:0:0:0:
276,340,51736,1,0,0:0:0:0:
296,332,51852,5,4,0:0:0:0:
336,100,52313,2,0,P|256:64|176:100,1,180,8|2,0:0|0:2,0:0:0:0:
212,184,53005,2,0,P|256:196|300:184,1,90,2|8,0:0|0:0,0:0:0:0:
456,276,53698,5,4,0:0:0:0:
256,344,54159,1,8,0:0:0:0:
56,276,54621,1,0,0:0:0:0:
48,188,54852,2,0,P|64:146|94:113,1,90,2|8,0:0|0:0,0:0:0:0:
172,64,55313,1,0,0:0:0:0:
256,92,55544,6,0,B|304:116|344:96|344:96|376:80|430:98,1,180,2|8,0:0|0:0,0:0:0:0:
472,272,56467,2,2,B|424:256|388:280|388:280|352:300|299:278,1,180,2|8,0:0|0:0,0:0:0:0:
212,278,57159,2,0,B|160:300|124:280|124:280|88:256|40:272,1,180,2|0,0:0|0:0,0:0:0:0:
8,188,57852,2,0,L|15:98,1,90,8|0,0:0|0:0,0:0:0:0:
180,24,58544,1,0,0:0:0:0:
228,100,58775,2,0,L|314:76,1,90,8|0,0:0|0:0,0:0:0:0:
396,116,59236,6,0,P|387:160|396:203,1,90,4|2,0:0|0:2,0:0:0:0:
460,268,59698,2,0,P|468:311|460:355,2,90,8|2|0,0:0|0:2|0:0,0:0:0:0:
396,204,60390,2,0,L|306:207,1,90,2|8,0:2|0:0,0:0:0:0:
252,280,60852,1,2,0:2:0:0:
204,356,61082,6,0,L|114:359,1,90,4|2,0:3|0:2,0:0:0:0:
44,300,61544,2,0,P|52:255|45:211,1,90,8|2,0:0|0:0,0:0:0:0:
8,132,62005,2,0,P|-9:67|6:2,2,135,2|2|2,0:0|0:0|0:0,0:0:0:0:
24,148,62813,1,0,0:0:0:0:
44,160,62929,5,0,0:0:0:0:
128,196,63159,2,0,P|167:176|211:179,1,90,2|8,0:2|0:0,0:0:0:0:
300,204,63621,2,0,P|344:207|384:188,1,90,2|0,0:2|0:0,0:0:0:0:
368,100,64082,2,0,P|323:96|284:116,2,90,2|8|2,0:2|0:0|0:2,0:0:0:0:
448,144,64775,5,4,0:3:0:0:
492,224,65005,1,2,0:2:0:0:
444,300,65236,2,0,P|401:312|358:299,1,90,8|2,0:0|0:2,0:0:0:0:
268,284,65698,2,0,P|225:271|182:283,1,90
168,300,66044,1,0,0:0:0:0:
156,320,66159,1,8,0:0:0:0:
68,344,66390,1,0,0:0:0:0:
68,344,66505,1,0,0:0:0:0:
68,344,66621,6,0,P|48:256|65:169,2,180,4|8|2,0:0|0:0|0:2,0:0:0:0:
152,376,67775,2,0,L|241:364,1,90,2|8,0:0|0:0,0:0:0:0:
446,214,68467,6,0,P|463:127|443:39,2,180,4|8|2,0:0|0:0|0:2,0:0:0:0:
359,239,69621,2,0,P|318:224|273:227,1,90,2|8,0:0|0:0,0:0:0:0:
196,272,70082,1,0,0:0:0:0:
184,288,70198,1,0,0:0:0:0:
169,304,70313,6,0,L|97:138,1,180,2|8,0:0|0:0,0:0:0:0:
256,56,71236,2,2,L|327:221,1,180,2|8,0:0|0:0,0:0:0:0:
416,204,71929,2,0,L|344:38,1,180,2|0,0:0|0:0,0:0:0:0:
255,56,72621,2,0,P|215:74|170:76,1,90,8|0,0:0|0:0,0:0:0:0:
88,236,73313,1,0,0:0:0:0:
132,312,73544,1,8,0:0:0:0:
180,84,77005,5,4,0:3:0:0:
256,32,77236,1,8,0:0:0:0:
332,84,77467,1,8,0:0:0:0:
324,172,77698,2,0,B|280:156|256:116|256:116|232:156|188:172,1,180,4|8,0:3|0:0,0:0:0:0:
181,252,78390,2,0,P|255:295|329:252,1,180
360,172,79082,2,0,P|400:144|444:140,1,90,8|0,0:0|0:0,0:0:0:0:
428,224,79544,5,2,0:2:0:0:
496,280,79775,2,0,P|456:308|412:312,1,90,2|8,0:2|0:0,0:0:0:0:
325,292,80236,2,0,B|272:274|241:305|241:305|209:337|157:312,1,180,2|0,0:2|0:0,0:0:0:0:
140,300,80813,1,0,0:0:0:0:
124,284,80929,1,8,0:0:0:0:
52,228,81159,1,8,0:0:0:0:
84,144,81390,6,0,B|132:120|170:132|170:132|171:91|208:53,1,180,4|8,0:3|0:0,0:0:0:0:
303,53,82082,2,0,B|340:91|341:132|341:132|379:120|428:144,1,180,2|4,0:0|0:3,0:0:0:0:
496,200,82775,2,0,P|503:244|495:287,1,90,8|0,0:0|0:0,0:0:0:0:
432,356,83236,1,0,0:0:0:0:
256,344,83698,1,8,0:0:0:0:
179,292,83929,2,2,P|255:251|332:292,1,180,2|0,0:0|0:0,0:0:0:0:
416,260,84621,2,0,P|408:215|413:171,1,90,8|0,0:0|0:0,0:0:0:0:
448,88,85082,5,0,0:0:0:0:
256,40,85544,1,8,0:0:0:0:
332,91,85775,2,2,P|255:132|179:91,1,180,2|0,0:0|0:0,0:0:0:0:
96,124,86467,2,0,B|108:168|108:168|100:212,1,90,8|0,0:0|0:0,0:0:0:0:
36,276,86929,5,0,0:0:0:0:
124,300,87159,2,0,L|213:288,1,90,0|8,0:0|0:0,0:0:0:0:
296,324,87621,1,2,0:0:0:0:
468,268,88082,1,2,0:0:0:0:
468,268,88313,2,0,L|456:176,1,90,8|0,0:0|0:0,0:0:0:0:
416,96,88775,5,4,0:0:0:0:
256,12,89236,1,8,0:0:0:0:
96,96,89698,1,2,0:0:0:0:
55,178,89929,2,0,L|44:268,1,90,0|8,0:0|0:0,0:0:0:0:
32,351,90390,1,2,0:0:0:0:
124,348,90621,6,0,P|183:319|248:333,2,135,2|2|2,0:0|0:0|0:0,0:0:0:0:
32,351,91544,2,0,P|35:307|28:263,1,90,0|4,0:0|0:3,0:0:0:0:
16,172,92005,2,0,P|8:127|12:83,1,90,8|0,0:0|0:0,0:0:0:0:
88,36,92467,5,2,0:0:0:0:
256,104,92929,1,8,0:0:0:0:
424,36,93390,1,2,0:0:0:0:
499,83,93621,2,0,P|503:127|496:172,1,90,0|8,0:0|0:0,0:0:0:0:
444,244,94082,1,0,0:0:0:0:
376,300,94313,6,0,P|303:347|221:318,1,180,2|8,0:0|0:0,0:0:0:0:
215,230,95005,2,0,P|286:180|368:210,1,180,2|0,0:0|0:0,0:0:0:0:
388,220,95582,1,0,0:0:0:0:
404,236,95698,1,8,0:0:0:0:
464,304,95929,1,8,0:0:0:0:
388,352,96159,6,0,P|344:360|301:347,1,90,2|0,0:2|0:0,0:0:0:0:
210,347,96621,2,0,P|167:360|124:352,1,90,8|2,0:0|0:2,0:0:0:0:
52,300,97082,2,0,P|22:266|9:223,1,90,2|0,0:2|0:0,0:0:0:0:
88,176,97544,2,0,P|117:209|130:252,1,90,8|0,0:0|0:0,0:0:0:0:
216,276,98005,6,0,B|248:236|304:236|304:236|383:236,1,180,2|8,0:0|0:0,0:0:0:0:
383,148,98698,2,0,B|304:148|304:148|248:148|216:108,1,180,2|0,0:0|0:0,0:0:0:0:
124,104,99390,1,8,0:0:0:0:
124,104,99621,6,0,P|108:191|131:277,1,180,2|2,0:0|0:0,0:0:0:0:
308,312,100544,1,2,0:0:0:0:
388,356,100775,1,0,0:0:0:0:
448,288,101005,1,2,0:0:0:0:
368,247,101236,2,0,P|352:160|373:73,1,180,10|6,0:0|0:0,0:0:0:0:
256,192,101813,12,8,103082,0:0:0:0:
468,176,103544,6,0,P|476:216|468:264,2,90,4|2|8,0:0|0:2|0:0,0:0:0:0:
392,124,104236,2,0,L|308:89,1,90,2|0,0:2|0:0,0:0:0:0:
256,16,104698,1,2,0:2:0:0:
203,89,104929,2,0,L|120:124,1,90,8|2,0:0|0:2,0:0:0:0:
44,176,105390,6,0,P|36:216|44:264,1,90,2|2,0:2|0:2,0:0:0:0:
119,312,105852,2,0,P|156:287|200:279,1,90,8|2,0:0|0:0,0:0:0:0:
288,296,106313,2,0,B|336:264|336:264|413:268,2,135,2|2|2,0:0|0:0|0:0,0:0:0:0:
272,312,107121,1,0,0:0:0:0:
256,328,107236,5,0,0:0:0:0:
180,376,107467,1,2,0:2:0:0:
104,328,107698,2,0,P|81:289|47:260,1,90,8|2,0:0|0:2,0:0:0:0:
4,180,108159,2,0,P|19:137|43:100,1,90,0|2,0:0|0:2,0:0:0:0:
108,40,108621,1,8,0:0:0:0:
196,16,108852,1,2,0:2:0:0:
228,100,109082,6,0,L|317:92,1,90,2|2,0:2|0:2,0:0:0:0:
384,156,109544,2,0,P|374:200|373:244,1,90,8|2,0:0|0:2,0:0:0:0:
396,332,110005,1,2,0:2:0:0:
312,304,110236,1,2,0:2:0:0:
244,364,110467,1,8,0:0:0:0:
112,192,110929,5,4,0:0:0:0:
256,44,111390,1,8,0:0:0:0:
400,192,111852,1,2,0:2:0:0:
472,247,112082,2,0,P|438:275|395:286,1,90,2|8,0:0|0:0,0:0:0:0:
308,304,112544,1,0,0:0:0:0:
220,288,112775,6,0,P|152:234|69:260,2,180,4|8|2,0:0|0:0|0:2,0:0:0:0:
256,368,113929,2,0,B|292:344|292:344|338:344,1,90,2|8,0:0|0:0,0:0:0:0:
428,352,114390,1,0,0:0:0:0:
484,283,114621,6,0,P|499:195|481:108,1,180,2|8,0:0|0:0,0:0:0:0:
412,52,115313,1,0,0:0:0:0:
328,31,115544,2,2,B|276:40|256:79|256:79|236:40|184:31,1,180,2|8,0:0|0:0,0:0:0:0:
180,124,116236,2,0,P|256:165|332:124,1,180,2|0,0:0|0:0,0:0:0:0:
412,164,116929,2,0,P|397:206|391:251,1,90,8|0,0:0|0:0,0:0:0:0:
256,368,117621,2,0,P|244:324|219:287,1,90,0|8,0:0|0:0,0:0:0:0:
140,240,118082,1,0,0:0:0:0:
50,230,118313,6,0,P|65:189|98:159,1,90,4|2,0:0|0:2,0:0:0:0:
180,116,118775,2,0,P|219:94|252:64,1,90,8|2,0:0|0:2,0:0:0:0:
328,16,119236,2,0,P|343:57|370:94,1,90,0|2,0:2|0:2,0:0:0:0:
424,168,119698,1,8,0:0:0:0:
492,216,119929,1,2,0:2:0:0:
448,296,120159,6,0,L|358:289,1,90,2|2,0:2|0:2,0:0:0:0:
276,328,120621,1,8,0:0:0:0:
192,360,120852,1,2,0:0:0:0:
132,292,121082,2,0,P|123:225|131:158,2,135,2|2|2,0:0|0:0|0:0,0:0:0:0:
144,312,121890,1,0,0:0:0:0:
164,324,122005,5,0,0:0:0:0:
248,352,122236,1,2,0:2:0:0:
336,364,122467,2,0,B|368:340|368:340|418:340,1,90,8|2,0:0|0:2,0:0:0:0:
496,295,122929,2,0,P|501:251|494:207,1,90,0|2,0:0|0:2,0:0:0:0:
432,144,123390,1,8,0:0:0:0:
356,96,123621,1,2,0:2:0:0:
284,148,123852,6,0,L|194:137,1,90,4|2,0:3|0:2,0:0:0:0:
116,216,124313,2,0,L|205:226,1,90,8|2,0:0|0:2,0:0:0:0:
256,300,124775,1,2,0:2:0:0:
332,348,125005,1,2,0:2:0:0:
380,272,125236,1,8,0:0:0:0:
396,92,125698,5,4,0:0:0:0:
256,228,126159,1,8,0:0:0:0:
116,92,126621,1,2,0:2:0:0:
39,140,126852,2,0,P|32:184|39:228,1,90,2|8,0:0|0:0,0:0:0:0:
104,292,127313,1,0,0:0:0:0:
152,372,127544,6,0,B|196:344|196:292|196:292|280:304,2,180,4|8|2,0:0|0:0|0:2,0:0:0:0:
76,324,128698,2,0,P|91:282|123:250,1,90,2|8,0:0|0:0,0:0:0:0:
164,172,129159,1,0,0:0:0:0:
164,172,129275,1,0,0:0:0:0:
164,171,129390,6,0,P|237:122|278:42,1,180,2|8,0:0|0:0,0:0:0:0:
368,24,130082,1,0,0:0:0:0:
344,112,130313,2,2,P|325:152|297:188,1,90,2|0,0:0|0:0,0:0:0:0:
256,268,130775,1,8,0:0:0:0:
168,287,131005,2,0,P|226:352|311:336,1,180,2|0,0:0|0:0,0:0:0:0:
392,296,131698,5,8,0:0:0:0:
456,232,131929,1,0,0:0:0:0:
408,60,132390,1,0,0:0:0:0:
344,124,132621,1,8,0:0:0:0:
256,100,132852,1,4,2:1:0:0:
48,56,148313,6,0,P|89:40|133:47,1,90,2|0,0:0|0:0,0:0:0:0:
196,112,148775,2,0,P|205:178|195:245,1,135,8|8,0:0|0:0,0:0:0:0:
188,264,149236,2,0,L|276:248,1,90,2|0,0:0|0:0,0:0:0:0:
336,320,149698,6,0,P|405:370|481:330,1,180,4|0,0:3|0:0,0:0:0:0:
508,244,150390,1,0,0:0:0:0:
468,160,150621,2,0,P|407:134|346:160,1,135,8|8,0:0|0:0,0:0:0:0:
332,176,151082,2,0,L|339:265,1,90,2|0,0:0|0:0,0:0:0:0:
284,336,151544,6,0,B|228:320|200:348|200:348|164:380|114:358,1,180,4|2,0:3|0:0,0:0:0:0:
48,300,152236,1,0,0:0:0:0:
55,212,152467,2,0,P|83:151|87:84,2,135,8|8|0,0:0|0:0|0:0,0:0:0:0:
124,268,153390,6,0,P|201:227|287:248,1,180,4|0,0:3|0:0,0:0:0:0:
375,248,154082,1,0,0:0:0:0:
374,247,154313,2,0,P|393:182|386:115,1,135,8|8,0:0|0:0,0:0:0:0:
386,115,154775,2,0,B|342:123|342:123|298:110,1,90,2|0,0:0|0:0,0:0:0:0:
276,24,155236,6,0,B|216:32|192:80|192:80|118:66,1,180,4|2,0:3|0:0,0:0:0:0:
36,104,155929,1,0,0:0:0:0:
36,104,156159,2,0,B|24:176|64:168|51:235,1,135,8|8,0:0|0:0,0:0:0:0:
44,256,156621,1,0,0:0:0:0:
124,299,156852,2,0,P|201:259|285:284,1,180,2|0,0:0|0:0,0:0:0:0:
376,287,157544,2,0,P|395:247|400:202,1,90,2|0,0:0|0:0,0:0:0:0:
368,120,158005,2,0,P|312:155|248:142,2,135,8|8|0,0:0|0:0|0:0,0:0:0:0:
296,64,158929,5,4,0:3:0:0:
212,28,159159,1,2,0:0:0:0:
128,64,159390,2,0,L|120:153,1,90,0|2,0:0|0:0,0:0:0:0:
120,244,159852,1,8,0:0:0:0:
184,308,160082,1,2,0:0:0:0:
268,276,160313,1,0,0:0:0:0:
268,276,160775,6,0,P|348:312|431:284,1,180,4|0,0:3|0:0,0:0:0:0:
388,112,161698,2,2,P|256:9|124:112,1,360,8|4,0:0|0:3,0:0:0:0:
12,252,163082,6,0,P|45:281|70:319,1,90,2|0,0:0|0:0,0:0:0:0:
144,372,163544,2,0,P|167:333|199:302,1,90,8|0,0:0|0:0,0:0:0:0:
280,264,164005,1,0,0:0:0:0:
368,235,164236,2,2,P|359:122|259:176,1,270,4|0,0:3|0:0,0:0:0:0:
280,264,165159,1,0,0:0:0:0:
324,339,165390,2,0,P|363:319|408:311,1,90,8|0,0:0|0:0,0:0:0:0:
488,268,165852,1,0,0:0:0:0:
488,267,166082,6,2,P|503:180|477:95,1,180,2|0,0:0|0:0,0:0:0:0:
404,40,166775,2,0,P|378:77|342:102,1,90,2|0,0:0|0:0,0:0:0:0:
272,160,167236,2,0,B|240:120|240:120|156:120,2,135,8|8|4,0:0|0:0|0:3,0:0:0:0:
300,244,168159,6,0,B|350:228|358:172|358:172|438:186,1,180,4|4,0:3|0:3,0:0:0:0:
496,256,168852,1,0,0:0:0:0:
452,335,169082,2,0,P|390:361|324:350,1,135,8|8,0:0|0:0,0:0:0:0:
320,328,169544,2,0,P|285:355|241:363,1,90
168,323,170005,6,0,P|83:340|21:280,1,180,4|2,0:3|0:0,0:0:0:0:
108,252,170698,1,0,0:0:0:0:
167,180,170929,2,0,P|126:160|82:162,2,90,8|0|0,0:0|0:0|0:0,0:0:0:0:
236,236,171621,1,4,0:3:0:0:
288,312,171852,5,4,0:3:0:0:
376,291,172082,2,0,P|385:248|407:208,1,90,2|0,0:0|0:0,0:0:0:0:
480,152,172544,1,2,0:0:0:0:
480,152,172775,2,0,P|465:110|439:73,1,90,8|0,0:0|0:0,0:0:0:0:
356,39,173236,1,0,0:0:0:0:
303,115,173467,6,2,B|264:87|264:40|264:40|227:63|175:53,1,180,2|0,0:0|0:0,0:0:0:0:
104,107,174159,2,0,P|100:152|108:196,1,90,2|0,0:0|0:0,0:0:0:0:
148,276,174621,2,0,P|177:242|214:216,1,90,8|0,0:0|0:0,0:0:0:0:
304,216,175082,2,0,P|385:241|446:180,1,180,2|4,0:0|0:3,0:0:0:0:
256,192,175659,12,8,176929,0:0:0:0:
256,168,177390,6,0,P|287:136|313:99,1,90,4|2,0:0|0:2,0:0:0:0:
380,36,177852,1,8,0:0:0:0:
380,36,178082,2,0,P|406:72|437:104,1,90,2|0,0:2|0:0,0:0:0:0:
496,172,178544,1,2,0:2:0:0:
496,172,178775,2,0,P|504:216|499:260,1,90,8|2,0:0|0:2,0:0:0:0:
444,332,179236,6,0,L|354:321,1,90,2|2,0:2|0:2,0:0:0:0:
316,240,179698,2,0,L|230:267,1,90,8|2,0:0|0:0,0:0:0:0:
181,191,180159,2,0,L|309:149,2,135,2|2|2,0:0|0:0|0:0,0:0:0:0:
168,172,180967,1,0,0:0:0:0:
156,156,181082,5,0,0:0:0:0:
68,132,181313,1,2,0:2:0:0:
20,207,181544,2,0,P|16:252|24:296,1,90,8|2,0:0|0:2,0:0:0:0:
76,372,182005,2,0,P|105:338|145:317,1,90,0|2,0:0|0:2,0:0:0:0:
219,268,182467,2,0,P|255:295|297:311,1,90,8|2,0:0|0:2,0:0:0:0:
384,340,182929,6,0,P|411:304|450:282,1,90,2|2,0:2|0:2,0:0:0:0:
500,207,183390,2,0,P|505:163|495:119,1,90,8|2,0:0|0:2,0:0:0:0:
416,72,183852,1,2,0:2:0:0:
328,96,184082,1,2,0:2:0:0:
244,120,184313,1,8,0:0:0:0:
108,240,184775,5,4,0:0:0:0:
256,360,185236,1,8,0:0:0:0:
404,240,185698,1,2,0:2:0:0:
344,176,185929,2,0,P|385:156|429:158,2,90,2|8|0,0:0|0:0|0:0,0:0:0:0:
272,228,186621,6,0,B|227:246|185:220|185:220|141:191|100:216,2,180,4|8|2,0:0|0:0|0:2,0:0:0:0:
316,308,187775,2,0,P|282:337|259:376,2,90,2|8|0,0:0|0:0|0:0,0:0:0:0:
359,228,188467,6,0,P|376:140|339:60,1,180,2|8,0:0|0:0,0:0:0:0:
256,24,189159,1,0,0:0:0:0:
172,60,189390,2,2,P|135:140|152:228,1,180,2|8,0:0|0:0,0:0:0:0:
208,296,190082,2,0,B|248:280|256:224|256:224|264:280|304:296,1,180,2|0,0:0|0:0,0:0:0:0:
392,304,190775,1,8,0:0:0:0:
472,260,191005,1,0,0:0:0:0:
472,79,191467,5,0,0:0:0:0:
392,35,191698,1,8,0:0:0:0:
352,116,191929,1,0,0:0:0:0:
316,200,192159,6,0,L|308:289,1,90,4|2,0:0|0:2,0:0:0:0:
256,364,192621,1,8,0:0:0:0:
203,289,192852,2,0,L|196:200,1,90,2|0,0:2|0:0,0:0:0:0:
112,168,193313,1,2,0:2:0:0:
28,136,193544,2,0,L|21:47,1,90,8|2,0:0|0:2,0:0:0:0:
108,24,194005,6,0,P|125:65|156:97,1,90,2|2,0:2|0:2,0:0:0:0:
240,132,194467,2,0,P|265:94|299:66,1,90,8|2,0:0|0:0,0:0:0:0:
384,96,194929,2,0,L|372:230,2,135,2|2|2,0:0|0:0|0:0,0:0:0:0:
404,88,195736,1,0,0:0:0:0:
424,80,195852,5,0,0:0:0:0:
480,148,196082,1,2,0:2:0:0:
480,148,196313,2,0,L|471:237,1,90,8|2,0:0|0:2,0:0:0:0:
392,284,196775,2,0,P|364:248|328:222,1,90,0|2,0:0|0:2,0:0:0:0:
256,172,197236,1,8,0:0:0:0:
180,124,197467,1,2,0:2:0:0:
132,200,197698,6,0,L|146:288,1,90,2|2,0:2|0:2,0:0:0:0:
52,328,198159,2,0,L|37:239,1,90,8|2,0:0|0:2,0:0:0:0:
48,148,198621,1,2,0:2:0:0:
84,64,198852,1,2,0:2:0:0:
164,104,199082,1,8,0:0:0:0:
228,168,199313,1,0,0:0:0:0:
228,168,199429,1,0,0:0:0:0:
228,167,199544,6,0,P|289:107|372:129,2,180,4|8|2,0:0|0:0|0:2,0:0:0:0:
313,199,200698,2,0,P|304:243|306:288,1,90,2|8,0:0|0:0,0:0:0:0:
256,364,201159,1,0,0:0:0:0:
256,364,201275,1,0,0:0:0:0:
256,364,201390,6,0,L|77:338,2,180,4|8|2,0:0|0:0|0:2,0:0:0:0:
344,356,202544,1,2,0:0:0:0:
428,320,202775,1,8,0:0:0:0:
484,248,203005,1,0,0:0:0:0:
484,248,203121,1,0,0:0:0:0:
484,248,203236,6,0,P|491:159|469:73,1,180,2|8,0:0|0:0,0:0:0:0:
384,40,203929,1,0,0:0:0:0:
312,92,204159,2,2,B|268:128|256:161|256:161|244:128|200:92,1,180,2|8,0:0|0:0,0:0:0:0:
108,96,204852,2,0,B|84:196|148:172|126:269,1,180,2|0,0:0|0:0,0:0:0:0:
203,315,205544,2,0,P|233:282|271:258,1,90,8|0,0:0|0:0,0:0:0:0:
448,296,206236,5,0,0:0:0:0:
452,208,206467,1,8,0:0:0:0:
437,119,206698,1,0,0:0:0:0:
448,32,206929,1,4,0:0:0:0:
