osu file format v14

[General]
AudioFilename: 3OH!3 - R.I.P. .mp3
AudioLeadIn: 0
PreviewTime: 44005
Countdown: 0
SampleSet: Normal
StackLeniency: 0.7
Mode: 0
LetterboxInBreaks: 0
WidescreenStoryboard: 0

[Editor]
Bookmarks: 14929,74005,77698,133082,147852,206929
DistanceSpacing: 1
BeatDivisor: 4
GridSize: 4
TimelineZoom: 1

[Metadata]
Title:R.I.P.
TitleUnicode:R.I.P.
Artist:3OH!3
ArtistUnicode:3OH!3
Creator:mancuso_JM_
Version:Easy
Source:
Tags:3oh3 Streets of Gold rip mancusojuanmattos ezek pop english
BeatmapID:1640309
BeatmapSetID:780943

[Difficulty]
HPDrainRate:2
CircleSize:3
OverallDifficulty:2
ApproachRate:3
SliderMultiplier:0.999999999999999
SliderTickRate:2

[Events]
//Background and Video events
0,0,"BG.jpg",0,0
//Break Periods
2,74005,76258
2,133082,146873
//Storyboard Layer 0 (Background)
//Storyboard Layer 1 (Fail)
//Storyboard Layer 2 (Pass)
//Storyboard Layer 3 (Foreground)
//Storyboard Sound Samples

[TimingPoints]
391,461.538461538462,4,1,0,65,1,0
14929,461.538461538462,4,1,0,55,1,0
44467,-100,4,1,0,65,0,1
58775,-100,4,1,0,65,0,0
59236,-100,4,1,0,65,0,1
74005,-100,4,1,0,65,0,0
77698,-100,4,1,0,55,0,0
103544,-100,4,1,0,65,0,1
117852,-100,4,1,0,65,0,0
118313,-100,4,1,0,65,0,1
133082,-100,4,1,0,65,0,0
148313,-100,4,2,0,50,0,0
177390,-100,4,1,0,65,0,1
191698,-100,4,1,0,65,0,0
192159,-100,4,1,0,65,0,1
206929,-100,4,1,0,45,0,0

[Colours]
Combo1 : 243,52,81
Combo2 : 222,224,143
Combo3 : 166,0,166
SliderBorder : 200,200,200

[HitObjects]
169,108,14929,6,0,P|256:66|343:108,1,200,4|0,0:3|0:0,0:0:0:0:
396,192,16313,1,8,0:0:0:0:
343,275,16775,2,0,P|256:317|169:276,2,200,2|2|4,0:0|0:0|0:3,0:0:0:0:
396,192,19082,1,8,0:0:0:0:
256,48,20005,1,8,0:0:0:0:
184,115,20467,6,0,P|117:148|46:130,2,150,2|2|8,0:0|0:0|0:0,0:0:0:0:
255,48,22313,2,0,P|327:31|389:70,2,150,4|2|8,0:3|0:0|0:0,0:0:0:0:
264,148,24159,2,0,B|284:200|284:200|284:236|284:236|306:289,2,150,4|2|8,0:3|0:0|0:0,0:0:0:0:
364,132,26005,2,0,B|384:184|384:184|384:220|384:220|406:273,2,150,4|2|8,0:3|0:0|0:0,0:0:0:0:
276,80,27852,1,4,0:3:0:0:
183,39,28313,2,0,P|93:10|23:76,1,200,8|8,0:0|0:0,0:0:0:0:
12,176,29698,6,0,L|25:275,2,99.9999999999999,4|8|2,0:3|0:0|0:0,0:0:0:0:
192,68,31544,2,0,P|256:35|320:68,2,150,2|2|8,0:0|0:0|0:0,0:0:0:0:
208,168,33390,2,0,P|158:162|117:134,2,99.9999999999999,2|8|2,0:0|0:0|0:0,0:0:0:0:
316,328,35236,2,0,B|276:344|256:372|256:372|236:344|196:328,2,150,2|2|8,0:0|0:0|0:0,0:0:0:0:
356,236,37082,6,0,P|360:187|352:138,1,99.9999999999999,2|8,0:2|0:0,0:0:0:0:
284,64,38005,2,0,L|184:74,1,99.9999999999999,2|8,0:2|0:0,0:0:0:0:
100,124,38929,2,0,L|140:272,2,150,2|2|8,0:0|0:0|0:0,0:0:0:0:
184,68,40775,6,0,L|284:58,1,99.9999999999999,2|8,0:0|0:0,0:0:0:0:
368,116,41698,2,0,P|389:161|401:210,1,99.9999999999999,2|8,0:0|0:0,0:0:0:0:
396,312,42621,2,0,B|356:348|300:336|300:288|256:275|212:288|212:336|156:348|116:312,1,300,4|8,0:3|0:0,0:0:0:0:
48,240,44467,6,0,P|20:145|46:50,1,200,4|2,0:0|0:2,0:0:0:0:
144,24,45852,1,8,0:0:0:0:
223,83,46313,2,0,P|296:95|354:52,2,150,2|2|8,0:2|0:0|0:0,0:0:0:0:
148,148,48159,6,0,L|163:246,1,99.9999999999999,2|8,0:0|0:0,0:0:0:0:
212,332,49082,2,0,B|256:355|256:355|300:332,1,99.9999999999999,2|8,0:2|0:0,0:0:0:0:
348,246,50005,2,0,L|364:148,1,99.9999999999999,2|8,0:0|0:0,0:0:0:0:
460,123,50929,2,0,P|466:99|470:75,2,50,2|2|8,0:2|0:2|0:0,0:0:0:0:
484,220,51852,6,0,L|468:318,2,99.9999999999999,4|8|2,0:0|0:0|0:2,0:0:0:0:
292,164,53698,2,0,B|300:128|300:128|295:105|295:105|305:66,2,99.9999999999999,4|8|2,0:0|0:0|0:2,0:0:0:0:
172,324,55544,6,0,P|256:370|340:324,2,200,2|2|2,0:0|0:0|0:0,0:0:0:0:
92,264,57852,2,0,P|53:233|28:189,1,99.9999999999999,8|2,0:0|0:0,0:0:0:0:
172,59,59236,6,0,P|256:14|340:60,1,200,4|2,0:0|0:2,0:0:0:0:
412,128,60621,1,8,0:0:0:0:
397,226,61082,2,0,P|468:209|508:148,2,150,2|2|8,0:2|0:0|0:0,0:0:0:0:
300,196,62929,6,0,P|251:189|208:212,1,99.9999999999999,2|8,0:0|0:0,0:0:0:0:
192,312,63852,2,0,P|148:335|100:328,1,99.9999999999999,2|8,0:2|0:0,0:0:0:0:
15,275,64775,2,0,P|6:227|15:178,1,99.9999999999999,2|8,0:0|0:0,0:0:0:0:
84,108,65698,2,0,L|69:60,2,50,2|2|8,0:2|0:2|0:0,0:0:0:0:
168,164,66621,6,0,P|177:212|168:261,2,99.9999999999999,4|8|2,0:0|0:0|0:2,0:0:0:0:
364,132,68467,2,0,P|354:83|363:34,2,99.9999999999999,4|8|2,0:0|0:0|0:2,0:0:0:0:
411,324,70313,6,0,P|321:352|255:284,2,200,2|2|2,0:0|0:0|0:0,0:0:0:0:
480,252,72621,2,0,L|464:153,1,99.9999999999999,8|2,0:0|0:0,0:0:0:0:
256,108,77698,6,0,B|328:88|328:144|400:108,2,150,4|4|8,0:3|0:3|0:0,0:0:0:0:
184,180,79544,2,0,L|206:328,2,150,4|2|8,0:3|0:2|0:0,0:0:0:0:
84,176,81390,6,0,L|61:27,2,150,4|2|8,0:3|0:0|0:0,0:0:0:0:
170,223,83236,2,0,P|113:269|39:263,2,150,4|2|8,0:3|0:0|0:0,0:0:0:0:
232,148,85082,2,0,P|289:102|362:107,2,150,4|2|8,0:3|0:0|0:0,0:0:0:0:
320,196,86929,1,4,0:3:0:0:
416,212,87390,2,0,P|357:287|262:273,1,200,8|8,0:0|0:0,0:0:0:0:
164,276,88775,6,0,P|155:324|169:372,2,99.9999999999999,4|8|2,0:0|0:0|0:0,0:0:0:0:
339,180,90621,2,0,P|355:107|327:39,2,150,2|2|8,0:0|0:0|0:0,0:0:0:0:
251,231,92467,2,0,P|210:205|161:192,2,99.9999999999999,4|8|2,0:3|0:0|0:0,0:0:0:0:
440,299,94313,6,0,P|475:234|487:160,2,150,2|2|8,0:0|0:0|0:0,0:0:0:0:
352,344,96159,2,0,P|318:306|275:282,1,99.9999999999999,2|8,0:2|0:0,0:0:0:0:
176,280,97082,1,2,0:2:0:0:
84,316,97544,1,8,0:0:0:0:
20,240,98005,2,0,B|36:196|20:172|4:148|17:92,2,150,2|2|8,0:0|0:0|0:0,0:0:0:0:
116,272,99852,6,0,P|142:229|177:193,1,99.9999999999999,2|8,0:0|0:0,0:0:0:0:
256,132,100775,2,0,P|292:165|340:179,1,99.9999999999999,2|8,0:0|0:0,0:0:0:0:
420,116,101698,2,0,P|524:192|420:268,1,300,4|8,0:3|0:0,0:0:0:0:
320,268,103544,6,0,P|253:199|159:217,1,200,4|2,0:0|0:2,0:0:0:0:
84,284,104929,1,8,0:0:0:0:
36,196,105390,2,0,P|16:124|33:52,2,150,2|2|8,0:2|0:0|0:0,0:0:0:0:
84,283,107236,6,0,P|123:254|172:243,1,99.9999999999999,2|8,0:0|0:0,0:0:0:0:
272,256,108159,2,0,B|299:225|299:225|322:219|322:219|345:193,1,99.9999999999999,2|8,0:2|0:0,0:0:0:0:
352,92,109082,2,0,P|312:62|263:51,1,99.9999999999999,2|8,0:0|0:0,0:0:0:0:
184,112,110005,2,0,L|189:161,2,50,2|2|8,0:2|0:2|0:0,0:0:0:0:
84,108,110929,6,0,L|96:208,1,99.9999999999999,4|8,0:0|0:0,0:0:0:0:
48,296,111852,1,2,0:2:0:0:
244,344,112775,2,0,B|252:304|252:304|244:280|244:280|246:246,1,99.9999999999999,4|8,0:0|0:0,0:0:0:0:
256,144,113698,1,2,0:2:0:0:
448,76,114621,6,0,P|483:167|461:263,2,200,2|2|2,0:0|0:0|0:0,0:0:0:0:
356,36,116929,2,0,L|256:48,1,99.9999999999999,8|2,0:0|0:0,0:0:0:0:
63,76,118313,6,0,P|28:167|50:263,1,200,4|2,0:0|0:2,0:0:0:0:
124,332,119698,1,8,0:0:0:0:
200,272,120159,2,0,B|240:248|256:223|256:223|272:248|312:272,2,150,2|2|8,0:2|0:0|0:0,0:0:0:0:
132,200,122005,6,0,P|121:151|129:102,1,99.9999999999999,2|8,0:0|0:0,0:0:0:0:
212,44,122929,2,0,B|256:67|256:67|300:44,1,99.9999999999999,2|8,0:2|0:0,0:0:0:0:
382,102,123852,2,0,P|390:151|379:200,1,99.9999999999999,2|8,0:0|0:0,0:0:0:0:
299,259,124775,2,0,P|281:243|260:230,2,50,2|2|8,0:2|0:2|0:0,0:0:0:0:
384,312,125698,6,0,P|426:336|476:334,1,99.9999999999999,4|8,0:0|0:0,0:0:0:0:
508,240,126621,1,2,0:2:0:0:
384,71,127544,2,0,P|426:47|476:49,1,99.9999999999999,4|8,0:0|0:0,0:0:0:0:
508,144,128467,1,2,0:2:0:0:
349,264,129390,6,0,P|256:296|163:264,2,200,2|2|2,0:0|0:0|0:0,0:0:0:0:
302,175,131698,2,0,P|256:192|210:175,1,99.9999999999999,8|2,0:0|0:0,0:0:0:0:
116,152,148313,5,2,0:0:0:0:
192,88,148775,2,0,P|256:55|320:88,2,150,8|2|0,0:0|0:0|0:0,0:0:0:0:
112,148,150621,1,8,0:0:0:0:
88,248,151082,5,2,0:0:0:0:
164,312,151544,2,0,P|256:346|348:312,2,200,4|8|4,0:3|0:0|0:3,0:0:0:0:
149,212,153852,1,0,0:0:0:0:
164,112,154313,2,0,P|256:78|348:112,1,200,8|4,0:0|0:3,0:0:0:0:
424,176,155698,5,2,0:0:0:0:
432,276,156159,2,0,L|283:257,2,150,8|2|0,0:0|0:0|0:0,0:0:0:0:
468,184,158005,2,0,L|319:165,2,150,8|2|0,0:0|0:0|0:0,0:0:0:0:
468,84,159852,2,0,L|370:69,1,99.9999999999999,8|2,0:0|0:0,0:0:0:0:
272,52,160775,5,4,0:3:0:0:
83,100,161698,2,2,P|51:193|84:284,1,200,8|4,0:0|0:3,0:0:0:0:
180,316,163082,5,2,0:0:0:0:
256,252,163544,2,0,B|324:221|324:221|392:252,2,150,8|4|2,0:0|0:3|0:0,0:0:0:0:
220,344,165390,1,8,0:0:0:0:
124,364,165852,1,0,0:0:0:0:
95,268,166313,6,0,P|147:185|231:132,2,200,4|8|4,0:3|0:0|0:3,0:0:0:0:
36,348,168621,1,4,0:3:0:0:
8,251,169082,2,0,P|8:202|1:152,1,99.9999999999999,8|0,0:0|0:0,0:0:0:0:
36,60,170005,5,4,0:3:0:0:
124,8,170467,1,2,0:0:0:0:
207,63,170929,2,0,P|273:96|341:70,2,150,8|4|0,0:0|0:3|0:0,0:0:0:0:
124,8,172775,1,8,0:0:0:0:
40,60,173236,1,0,0:0:0:0:
3,155,173698,6,0,P|12:205|8:255,1,99.9999999999999,4|0,0:3|0:0,0:0:0:0:
76,332,174621,2,0,P|119:308|155:273,1,99.9999999999999,8|2,0:0|0:0,0:0:0:0:
160,172,175544,6,0,B|216:164|236:132|236:132|256:74|256:74|276:132|276:132|296:164|352:172,1,300,4|8,0:3|1:1,0:0:0:0:
320,267,177390,6,0,B|272:302|256:342|256:342|240:302|192:267,1,200,4|2,0:0|0:2,0:0:0:0:
104,220,178775,1,8,0:0:0:0:
4,197,179236,2,0,P|44:136|115:117,2,150,2|2|8,0:2|0:0|0:0,0:0:0:0:
60,280,181082,6,0,L|164:276,1,99.9999999999999,2|8,0:0|0:0,0:0:0:0:
216,192,182005,1,2,0:2:0:0:
276,104,182467,1,8,0:0:0:0:
352,40,182929,2,0,L|451:36,1,99.9999999999999,2|8,0:0|0:0,0:0:0:0:
491,128,183852,2,0,P|484:151|480:176,2,50,2|2|8,0:2|0:2|0:0,0:0:0:0:
451,35,184775,5,4,0:0:0:0:
368,88,185236,1,8,0:0:0:0:
292,20,185698,1,2,0:2:0:0:
112,108,186621,5,4,0:0:0:0:
60,192,187082,1,8,0:0:0:0:
112,276,187544,1,2,0:2:0:0:
296,347,188467,6,0,P|367:284|459:311,2,200,2|2|2,0:0|0:0|0:0,0:0:0:0:
196,352,190775,2,0,P|163:314|145:267,1,99.9999999999999,8|2,0:0|0:0,0:0:0:0:
164,67,192159,6,0,P|256:34|348:68,1,200,4|2,0:0|0:2,0:0:0:0:
420,136,193544,1,8,0:0:0:0:
372,228,194005,2,0,P|444:236|505:195,2,150,2|2|8,0:2|0:0|0:0,0:0:0:0:
304,156,195852,6,0,P|258:135|210:143,1,99.9999999999999,2|8,0:0|0:0,0:0:0:0:
112,168,196775,1,2,0:2:0:0:
48,244,197236,1,8,0:0:0:0:
100,328,197698,2,0,P|144:348|196:340,1,99.9999999999999,2|8,0:0|0:0,0:0:0:0:
256,264,198621,2,0,L|244:208,2,50,2|2|8,0:2|0:2|0:0,0:0:0:0:
344,312,199544,5,4,0:0:0:0:
432,360,200005,1,8,0:0:0:0:
472,268,200467,1,2,0:2:0:0:
332,124,201390,5,4,0:0:0:0:
256,60,201852,1,8,0:0:0:0:
180,124,202313,1,2,0:2:0:0:
256,192,203236,12,4,206929,0:0:0:0:
