osu file format v9

[General]
AudioFilename: 3OH!3 - I Can Do Anything (Gens) [Music].mp3
AudioLeadIn: 0
PreviewTime: 45153
Countdown: 0
SampleSet: Normal
StackLeniency: 0.7
Mode: 0
LetterboxInBreaks: 0

[Editor]
Bookmarks: 22562,45150,67739,90327,112915,138327
DistanceSpacing: 0
BeatDivisor: 4
GridSize: 4

[Metadata]
Title:I Can Do Anything
Artist:3OH!3
Creator:Gens
Version:Normal
Source:
Tags:Streets of Gold

[Difficulty]
HPDrainRate:4
CircleSize:4
OverallDifficulty:5
ApproachRate:5
SliderMultiplier:2.3
SliderTickRate:4

[Events]
//Background and Video events
0,0,"bg.png"
//Break Periods
2,68114,72362
2,113292,123186
//Storyboard Layer 0 (Background)
//Storyboard Layer 1 (Fail)
//Storyboard Layer 2 (Pass)
//Storyboard Layer 3 (Foreground)
//Storyboard Sound Samples
//Background Colour Transformations
3,100,255,255,255

[TimingPoints]
150,705.882352941176,4,1,0,50,1,0
32621,-100,4,1,0,30,0,0
33944,-100,4,1,0,50,0,0
45327,-100,4,1,0,70,0,1
45328,-100,4,1,0,70,0,0
67915,-100,4,1,0,50,0,0
73386,-100,4,1,0,50,0,0
90503,-100,4,1,0,70,0,1
90504,-100,4,1,0,70,0,0
113092,-100,4,1,0,50,0,0
135680,-100,4,1,0,0,0,0
138503,-100,4,1,0,70,0,1
138504,-100,4,1,0,70,0,0
161092,-100,4,1,0,70,0,1
183680,-100,4,1,0,40,0,0

[HitObjects]
312,28,22739,6,0,B|256:8|200:28,1,115,2|0
200,144,23444,2,0,B|256:164|312:144,1,115,8|0
411,319,24150,6,0,B|383:259|333:237,1,115,2|0
256,236,24680,1,0
177,238,24856,2,0,B|127:259|99:319,1,115,12|0
296,336,25562,6,0,B|344:296|332:224,1,115,2|0
216,336,26268,2,0,B|168:296|180:224,1,115,8|0
198,112,26974,2,0,B|318:112,3,115,2|0|12|0
392,232,28386,5,2
316,320,28739,1,0
196,320,29092,1,8
120,232,29445,1,0
152,132,29797,2,0,B|212:76|300:76|360:132,1,230,2|12
152,252,31209,6,0,B|212:308|300:308|360:252,1,230,2|12
256,192,32268,1,8
256,44,33062,5,0
256,44,33415,1,4
364,120,34033,6,0,B|364:192|288:192,1,115,2|0
148,120,34739,2,0,B|148:192|224:192,1,115,8|0
312,264,35444,6,0,B|256:284|200:264,1,115,2|0
172,360,36150,2,0,B|256:392|340:360,1,172.5,8|4
200,264,37209,6,0,B|256:284|312:264,1,115,0|8
312,120,37915,2,0,B|256:100|200:120,1,115,0|2
312,192,38621,2,0,B|256:176|256:208|200:192,2,115,0|12|0
412,136,39680,6,0,B|436:192|412:248,1,115,2|0
412,248,40386,1,4
100,136,41092,2,0,B|76:192|100:248,1,115,8|0
100,248,41621,1,4
256,192,42503,5,2
256,192,42856,12,0,44621
256,84,45327,5,4
192,172,45680,2,0,B|148:216,2,57.5,0|0|8
320,172,46386,1,0
340,292,46739,2,0,B|256:325|172:292,1,172.5,2|4
256,236,47621,1,0
256,84,48150,5,4
320,172,48503,2,0,B|364:216,2,57.5,0|0|8
192,172,49209,1,0
172,292,49562,2,0,B|256:325|340:292,1,172.5,2|4
256,236,50444,1,0
328,100,50974,6,0,B|328:156,1,57.5,4|0
256,100,51327,2,0,B|256:156,1,57.5
184,100,51680,2,0,B|184:156,1,57.5,8|0
256,236,52033,1,2
80,240,52386,6,0,B|116:344|220:372,1,172.5,4|0
400,292,53268,2,2,B|384:360|304:364,1,115,2|6
296,140,54503,6,0,B|348:204|396:76|448:140,2,172.5,0|4|8
376,244,55915,2,0,B|376:360,2,115,2|0|4
352,64,57327,5,6
160,64,58033,2,0,B|92:193|258:135|190:264,1,230,6|12
128,220,59092,5,0
128,220,59444,1,6
160,64,60150,1,6
352,64,60856,2,0,B|420:193|254:135|322:264,1,230,6|12
384,220,61915,5,0
384,220,62267,1,6
128,220,62974,1,6
344,28,63680,2,0,B|344:92|168:92|168:156,1,230,6|12
208,228,64739,1,0
304,228,65092,1,4
216,140,65797,6,0,B|164:204|116:76|64:140,2,172.5,0|4|8
136,244,67209,2,0,B|136:360,2,115,2|0|4
336,52,73562,6,0,B|380:104|336:156,1,115,4|8
336,156,74268,1,2
176,52,74974,6,0,B|132:104|176:156,1,115,4|8
176,156,75680,1,2
340,340,76386,6,0,B|328:284,1,57.5,4|0
256,284,76739,2,0,B|244:340,1,57.5
172,340,77092,2,0,B|160:284,2,57.5,8|0|0
227,192,77797,6,0,B|283:192,2,57.5,2|0|0
256,96,78503,1,4
384,268,79209,5,4
308,360,79562,2,0,B|256:404|204:360,1,115,8|0
128,268,80268,1,2
196,184,80621,5,4
316,184,80974,1,0
256,88,81327,2,0,B|256:212,1,115,8|0
160,320,82033,6,0,B|96:320,2,57.5,2|0|0
352,320,82739,2,0,B|416:320,2,57.5,8|0|0
320,148,83444,2,0,B|256:206|256:206|192:148,2,172.5,2|4|0
256,64,84856,6,0,B|192:6|192:6|128:64,2,172.5,2|4|8
256,64,86268,2,0,B|320:6|320:6|384:64,2,172.5,2|4|8
192,172,87680,6,0,B|120:328,2,172.5,2|4|8
320,172,89092,2,0,B|392:328,1,172.5,2|4
256,116,90503,5,4
256,268,90856,2,0,B|256:324,2,57.5,0|0|8
192,192,91562,2,0,B|132:192|88:240,1,115,0|2
320,192,92444,2,0,B|380:192|424:240,1,115,4|0
256,268,93327,5,4
256,116,93680,2,0,B|256:60,2,57.5,0|0|8
192,192,94386,2,0,B|132:192|88:144,1,115,0|2
320,192,95268,2,0,B|380:192|424:144,1,115,4|0
296,320,96150,6,0,B|296:260,1,57.5,4|0
220,320,96503,2,0,B|220:264,1,57.5
256,200,96856,2,0,B|256:144,1,57.5,8|0
256,68,97209,1,2
128,92,97562,6,0,B|140:180|192:256,1,172.5,4|0
322,251,98444,2,2,B|368:208|384:140,1,115,2|6
328,56,99680,6,0,B|292:228,2,172.5,0|4|8
184,56,101092,2,0,B|208:168,1,115,2|0
256,288,101797,6,0,B|256:344,2,57.5,4|0|0
312,192,102503,2,0,B|368:192,2,57.5,6|0|0
300,80,103209,2,0,B|328:32,1,57.5,6|0
212,80,103562,2,0,B|184:32,1,57.5
256,12,103915,1,12
256,288,104621,6,0,B|256:344,2,57.5,6|0|0
200,192,105327,2,0,B|144:192,2,57.5,6|0|0
212,80,106033,2,0,B|184:32,1,57.5,6|0
300,80,106386,2,0,B|328:32,1,57.5
256,12,106739,1,12
200,192,107444,6,0,B|144:192,2,57.5,6|0|0
312,192,108150,2,0,B|368:192,2,57.5,6|0|0
348,72,108856,2,0,B|292:72,1,57.5,6|0
220,72,109209,2,0,B|160:72,1,57.5
92,72,109562,1,12
420,72,110268,1,4
184,56,110974,6,0,B|220:228,2,172.5,0|4|8
328,56,112386,2,0,B|304:168,1,115,2|0
256,288,113092,1,4
120,264,124386,6,0,B|120:324,2,57.5,6|0|0
256,264,125092,2,0,B|256:324,2,57.5,6|0|0
392,264,125797,2,0,B|392:324,2,57.5,6|0|0
313,192,126503,2,0,B|197:192,1,115,12|0
120,120,127209,6,0,B|120:60,2,57.5,6|0|0
256,120,127915,2,0,B|256:60,2,57.5,6|0|0
392,120,128620,2,0,B|392:60,2,57.5,6|0|0
313,192,129327,2,0,B|197:192,1,115,12|0
36,120,130033,5,2
120,36,130386,1,0
204,120,130739,1,12
476,120,131444,5,2
392,36,131797,1,0
308,120,132150,1,12
256,334,132856,5,6
256,334,133209,1,0
340,216,133562,2,0,B|396:216,2,57.5,6|0|0
172,216,134268,2,0,B|116:216,2,57.5,6|0|0
256,104,134974,2,0,B|256:276,1,172.5,12|0
256,192,135680,12,4,138503
192,212,138856,2,0,B|148:168,2,57.5,0|0|8
320,212,139562,1,0
340,92,139915,2,0,B|256:59|172:92,1,172.5,2|4
256,148,140797,1,0
256,300,141327,5,4
320,212,141680,2,0,B|364:168,2,57.5,0|0|8
192,212,142386,1,0
172,92,142739,2,0,B|256:59|340:92,1,172.5,2|4
256,148,143621,1,0
296,64,144150,6,0,B|296:124,1,57.5,4|0
220,64,144503,2,0,B|220:120,1,57.5
256,184,144856,2,0,B|256:240,1,57.5,8|0
256,316,145209,1,2
128,292,145562,6,0,B|140:204|192:128,1,172.5,4|0
322,133,146444,2,2,B|368:176|384:244,1,115,2|6
328,56,147680,6,0,B|376:224,2,172.5,0|4|8
184,56,149092,2,0,B|160:168,1,115,2|0
140,288,149797,6,0,B|88:340,2,57.5,4|0|0
256,308,150503,2,0,B|256:364,2,57.5,6|0|0
372,288,151209,2,0,B|424:340,2,57.5,6|0|0
314,192,151915,2,0,B|198:192,1,115,12|0
140,96,152621,6,0,B|88:44,2,57.5,6|0|0
256,76,153327,2,0,B|256:20,2,57.5,6|0|0
372,96,154033,2,0,B|424:44,2,57.5,6|0|0
314,192,154739,2,0,B|198:192,1,115,12|0
192,292,155444,6,0,B|188:328|160:344,2,57.5,6|0|0
320,292,156150,2,0,B|324:328|352:344,2,57.5,6|0|0
352,108,156856,2,0,B|296:108,1,57.5,6|0
160,108,157209,2,0,B|216:108,1,57.5
256,172,157562,2,0,B|131:256|381:256|256:340,1,230,12|4
184,56,158974,6,0,B|136:224,2,172.5,0|4|8
328,56,160386,2,0,B|360:168,1,115,2|0
256,192,161092,5,6
256,192,161444,1,0
312,112,161797,2,0,B|256:88|200:112,1,115,8|0
172,32,162503,2,0,B|256:-2|340:32,2,172.5,2|4|0
256,192,163915,5,6
256,192,164267,1,0
200,272,164620,2,0,B|256:296|312:272,1,115,8|0
340,352,165326,2,0,B|256:386|172:352,2,172.5,2|4|0
184,227,166739,6,0,B|184:284,1,57.5,4|0
256,284,167092,2,0,B|256:224,1,57.5
328,227,167444,2,0,B|328:284,2,57.5,8|0|2
352,56,168150,2,0,B|296:156,1,115,4|8
216,156,168680,2,0,B|160:56,1,115,0|2
256,0,169386,1,6
480,300,170268,6,0,B|392:272|348:192,1,172.5,0|4
216,104,171327,1,8
162,194,171680,2,0,B|152:256|80:284,1,115,2|0
56,136,172386,6,0,B|36:80,2,57.5,4|0|0
192,136,173092,2,0,B|172:80,2,57.5,6|0|0
324,136,173797,2,0,B|304:80,2,57.5,6|0|0
456,136,174503,1,12
456,136,174856,1,0
456,248,175209,6,0,B|476:304,2,57.5,6|0|0
320,248,175915,2,0,B|340:304,2,57.5,6|0|0
188,248,176620,2,0,B|208:304,2,57.5,6|0|0
56,248,177327,1,12
56,248,177680,1,0
120,96,178033,6,0,B|92:152,2,57.5,6|0|0
256,96,178739,2,0,B|228:40,2,57.5,6|0|0
392,96,179444,2,0,B|364:152,2,57.5,6|0|0
352,224,180150,2,4,B|304:296|208:296|160:224,1,230,12|4
256,192,181562,12,12,183680
