osu file format v9

[General]
AudioFilename: 3OH!3 - I Can Do Anything (Gens) [Music].mp3
AudioLeadIn: 0
PreviewTime: 45153
Countdown: 0
SampleSet: Normal
StackLeniency: 0.7
Mode: 0
LetterboxInBreaks: 0

[Editor]
Bookmarks: 22562,45150,67739,90327,112915,138327
DistanceSpacing: 0
BeatDivisor: 6
GridSize: 4

[Metadata]
Title:I Can Do Anything
Artist:3OH!3
Creator:Gens
Version:Hard
Source:
Tags:Streets of Gold

[Difficulty]
HPDrainRate:7
CircleSize:4
OverallDifficulty:8
ApproachRate:8
SliderMultiplier:2.88
SliderTickRate:4

[Events]
//Background and Video events
0,0,"bg.png"
//Break Periods
2,68115,72812
2,113292,122930
//Storyboard Layer 0 (Background)
//Storyboard Layer 1 (Fail)
//Storyboard Layer 2 (Pass)
//Storyboard Layer 3 (Foreground)
//Storyboard Sound Samples
//Background Colour Transformations
3,100,255,255,255

[TimingPoints]
150,705.882352941176,4,1,0,50,1,0
32620,-100,4,1,0,30,0,0
33943,-100,4,1,0,50,0,0
45326,-100,4,1,0,70,0,1
45327,-100,4,1,0,70,0,0
64385,-78.125,4,1,0,70,0,0
65091,-100,4,1,0,70,0,0
67914,-100,4,1,0,50,0,0
90502,-100,4,1,0,70,0,1
90503,-100,4,1,0,70,0,0
113091,-100,4,1,0,50,0,0
135679,-100,4,1,0,0,0,0
138502,-100,4,1,0,70,0,1
138503,-100,4,1,0,70,0,0
161091,-100,4,1,0,70,0,1
183679,-100,4,1,0,40,0,0

[HitObjects]
152,80,22739,6,0,B|216:32,1,72,2|0
302,36,23092,2,0,B|360:80,1,72
320,144,23444,2,0,B|256:202|192:144,1,144,8|0
191,143,23974,1,0
152,280,24150,6,0,B|216:232,1,72,2|0
302,236,24503,2,0,B|360:280,1,72
320,344,24856,2,0,B|256:402|192:344,1,144,12|0
304,40,25562,6,0,B|304:120,1,72,2|0
208,40,25915,2,0,B|208:120,1,72
256,168,26268,2,0,B|256:280,1,108,8|0
256,276,26621,1,2
256,360,26797,1,0
360,351,26974,2,0,B|360:264|297:229,1,144,8|2
256,168,27503,1,0
214,229,27680,2,0,B|152:264|151:351,1,144,12|0
336,248,28386,6,0,B|392:192,2,72,2|0|0
256,208,28915,1,0
176,248,29092,2,0,B|120:192,2,72,8|0|0
256,208,29621,1,0
327,144,29797,2,0,B|256:125|185:144,1,144,2|8
112,128,30327,1,0
185,72,30503,2,0,B|256:53|327:72,1,144,4|0
336,288,31209,6,0,B|296:352,1,72,2|0
214,349,31562,2,0,B|176:288,1,72
224,224,31915,2,0,B|256:196|288:224,2,72,12|0|8
256,52,32886,5,0
256,52,33061,1,8
256,52,33238,1,0
256,52,33414,1,4
80,192,34033,6,0,B|0:192,1,72,2|0
136,144,34386,2,0,B|56:96,1,72
192,96,34739,2,0,B|248:40|328:64,1,144,8|0
432,192,35444,6,0,B|512:192,1,72,2|0
376,144,35797,2,0,B|456:96,1,72
320,96,36150,2,0,B|272:56|216:64,1,108,8|0
256,152,36680,6,0,B|201:214|311:214|255:279,1,144,4|0
255,278,37209,1,0
288,344,37386,2,0,B|256:374|224:344,2,72,0|8|0
332,280,37915,2,0,B|396:240|388:152,2,144,2|4|2
256,280,38797,1,0
180,280,38974,2,0,B|116:240|124:152,1,144,12|0
185,56,39680,6,0,B|256:33|327:56,1,144,2|0
326,55,40386,1,4
80,208,40739,1,2
144,160,40915,1,0
216,128,41092,1,8
296,128,41268,1,0
368,160,41444,1,0
432,208,41621,1,4
256,304,42503,5,2
256,192,42856,12,0,44621
256,192,44974,5,0
256,192,45327,1,4
328,336,45680,1,0
256,368,45856,1,0
184,336,46033,1,8
256,192,46386,2,0,B|327:210|398:192,2,144,0|2|0
256,192,47268,2,0,B|185:174|114:192,1,144,12|0
112,192,47797,1,0
256,192,48150,5,4
328,48,48503,1,0
256,16,48680,1,0
184,48,48856,1,8
256,192,49209,2,0,B|327:174|398:192,2,144,0|2|0
256,192,50092,2,0,B|185:210|114:192,1,144,12|0
113,191,50621,1,0
290,344,50974,6,0,B|222:320,1,72,4|0
222,248,51327,2,0,B|290:224,1,72
290,152,51680,2,0,B|222:128,1,72,8|0
185,63,52033,2,0,B|256:41|326:63,2,144,2|4|8
185,63,52915,1,0
327,63,53268,2,2,B|398:41|468:63,1,144,2|6
256,384,54327,5,0
256,304,54503,2,0,B|256:152,1,144,4|0
324,104,55033,2,0,B|256:64|188:104,2,144,8|0|0
292,176,55915,1,2
220,176,56092,1,0
256,240,56268,1,0
256,240,56621,5,4
324,212,56797,1,0
396,188,56974,1,0
240,200,57327,5,6
308,172,57503,1,0
380,148,57680,1,0
224,160,58032,5,6
292,132,58208,1,0
364,108,58385,1,0
364,108,58562,1,0
364,108,58739,2,0,B|496:60,1,144,12|0
256,240,59444,5,6
188,212,59620,1,0
116,188,59797,1,0
272,200,60150,5,6
204,172,60326,1,0
132,148,60503,1,0
288,160,60855,5,6
220,132,61031,1,0
148,108,61208,1,0
148,108,61385,1,0
148,108,61562,2,0,B|16:60,1,144,12|0
256,8,62268,5,6
256,100,62444,1,0
256,192,62621,1,0
256,8,62974,5,6
256,100,63150,1,0
256,192,63327,1,0
256,8,63680,5,6
256,100,63856,1,0
256,192,64033,1,0
256,284,64209,1,0
256,376,64386,2,0,B|256:0,1,368.64,8|4
256,336,65621,5,0
256,256,65797,2,0,B|256:104,1,144,4|0
324,56,66327,2,0,B|256:16|188:56,2,144,8|0|0
292,128,67209,1,2
220,128,67386,1,0
256,192,67562,1,0
256,192,67915,1,4
208,96,73562,6,0,B|184:16|104:8,1,144,4|0
105,8,74268,1,8
96,160,74621,1,2
304,96,74974,6,0,B|328:16|408:8,1,144,4|0
406,8,75680,1,8
416,160,76033,1,2
376,352,76386,6,0,B|296:352,1,72,4|0
304,280,76739,2,0,B|384:280,1,72
376,208,77092,2,0,B|296:208,2,72,8|0|0
136,208,77797,2,0,B|216:208,1,72,2|0
184,280,78150,2,0,B|336:280,1,144,0|4
256,152,78856,5,2
256,152,79033,1,0
256,80,79209,2,0,B|256:0,1,72,4|0
336,106,79562,2,0,B|368:192|300:231,1,144,8|0
256,296,80092,1,0
211,231,80268,2,0,B|144:192|175:106,1,144,2|0
221,40,80797,2,0,B|256:24|291:40,2,72
221,112,81327,2,0,B|256:128|290:112,1,72,4|0
292,184,81680,2,0,B|256:191|220:184,1,72,8|0
152,232,82033,6,0,B|80:264,1,72,2|0
216,280,82386,2,0,B|176:344,1,72
296,280,82739,2,0,B|334:341,1,72,8|0
360,232,83092,2,0,B|425:261,1,72,2|0
291,208,83445,2,0,B|256:196|221:208,2,72,8|0|0
326,144,83974,2,0,B|256:114|186:144,1,144,4|0
112,192,84503,6,0,B|24:192,1,72,2|0
40,112,84856,2,0,B|40:24,2,72,8|0|0
120,112,85386,2,0,B|120:32|208:0,1,144,4|0
216,80,85915,2,0,B|216:160,1,72,8|0
296,120,86268,6,0,B|296:32,2,72,2|0|0
376,120,86797,2,0,B|376:40|464:8,1,144,4|0
472,88,87327,2,0,B|472:168,1,72,8|0
436,232,87680,6,0,B|516:232,2,72,2|0|0
436,232,88209,2,0,B|276:232,1,144,4|0
292,160,88739,2,0,B|212:160,1,72,8|0
148,232,89092,6,0,B|228:232,2,72,2|0|0
148,232,89621,2,0,B|-12:232,1,144,4|0
160,96,90503,5,4
352,96,90856,1,0
352,96,91033,1,0
352,96,91209,1,8
216,184,91562,2,0,B|216:264|256:320,2,144,0|2|0
296,200,92444,2,0,B|296:120|256:64,1,144,12|0
256,64,92974,1,0
352,288,93327,5,4
160,288,93680,1,0
160,288,93855,1,0
160,288,94033,1,8
296,200,94386,2,0,B|296:120|256:64,2,144,0|2|0
216,184,95268,2,0,B|216:264|256:320,1,144,12|0
255,319,95798,1,0
408,140,96150,6,0,B|352:84,1,72,4|0
292,40,96503,2,0,B|212:40,1,72
154,89,96856,2,0,B|104:140,1,72,8|0
184,192,97209,2,0,B|336:192,2,144,2|4|8
184,192,98092,1,0
256,376,98445,2,2,B|327:320|185:320|256:264,1,144,2|6
48,64,99503,5,0
112,104,99680,2,0,B|264:104,1,144,4|0
320,148,100209,2,0,B|472:148,2,144,8|0|0
256,192,101092,1,2
184,192,101268,1,0
112,192,101445,1,0
112,192,101797,5,4
140,204,101974,1,0
172,220,102150,1,0
56,240,102503,5,6
104,272,102680,1,0
152,304,102856,1,0
0,288,103209,5,6
64,336,103386,1,0
128,384,103562,1,0
192,336,103739,1,0
256,288,103915,1,12
256,288,104268,1,0
400,192,104620,5,6
372,204,104797,1,0
340,220,104973,1,0
456,240,105326,5,6
408,272,105503,1,0
360,304,105679,1,0
512,288,106032,5,6
448,336,106209,1,0
384,384,106385,1,0
320,336,106562,1,0
256,288,106738,1,12
256,288,107091,1,0
280,40,107445,5,6
256,24,107621,1,0
232,40,107797,1,0
296,144,108150,5,6
256,112,108327,1,0
216,144,108503,1,0
312,256,108856,5,6
256,208,109033,1,0
200,256,109209,1,0
256,304,109386,1,0
312,352,109562,1,12
200,32,110268,1,4
464,64,110797,5,0
400,104,110974,2,0,B|248:104,1,144,4|0
192,148,111503,2,0,B|40:148,2,144,8|0|0
256,192,112386,1,2
328,192,112562,1,0
400,192,112739,1,0
112,192,113092,1,4
64,336,123680,5,2
64,336,124033,1,0
64,336,124386,1,6
128,288,124562,1,0
192,240,124739,1,0
192,240,125092,1,6
256,192,125268,1,0
320,144,125445,1,0
320,144,125797,1,6
384,96,125974,1,0
448,48,126150,1,0
512,192,126503,1,12
448,336,126856,1,0
448,336,127209,5,6
384,288,127386,1,0
320,240,127562,1,0
320,240,127915,1,6
256,192,128092,1,0
192,144,128268,1,0
192,144,128621,1,6
128,96,128797,1,0
64,48,128974,1,0
0,192,129327,1,12
64,336,129680,1,0
148,156,130033,5,2
64,156,130209,1,0
37,75,130386,1,0
106,25,130562,1,0
175,75,130739,1,12
364,156,131445,5,2
448,156,131621,1,0
475,75,131797,1,0
406,25,131974,1,0
337,75,132150,1,12
256,344,132856,5,6
256,200,133209,1,0
256,344,133562,1,6
256,272,133739,1,0
256,200,133915,1,0
256,344,134268,1,6
256,272,134445,1,0
256,200,134621,1,0
256,40,134974,1,12
256,192,135680,12,4,138503
328,48,138856,5,0
256,16,139032,1,0
184,48,139209,1,8
256,192,139562,2,0,B|185:174|114:192,2,144,0|2|0
256,192,140444,2,0,B|327:210|398:192,1,144,12|0
398,191,140973,1,0
352,96,141327,5,4
160,96,141680,1,0
160,96,141855,1,0
160,96,142033,1,8
216,200,142386,2,0,B|216:120|256:64,2,144,0|2|0
296,184,143268,2,0,B|296:264|256:320,1,144,12|0
256,319,143798,1,0
222,40,144150,6,0,B|290:64,1,72,4|0
290,136,144503,2,0,B|222:160,1,72
222,232,144856,2,0,B|290:256,1,72,8|0
327,321,145209,2,0,B|256:343|186:321,2,144,2|4|8
327,321,146091,1,0
185,321,146444,2,2,B|114:343|44:321,1,144,2|6
464,320,147503,5,0
400,280,147680,2,0,B|248:280,1,144,4|0
192,236,148209,2,0,B|40:236,2,144,8|0|0
256,192,149092,1,2
328,192,149268,1,0
400,192,149445,1,0
432,88,149797,5,4
432,88,149974,1,0
432,88,150150,1,0
256,48,150503,5,6
256,48,150680,1,0
256,48,150856,1,0
80,88,151209,5,6
80,88,151386,1,0
80,88,151562,1,0
104,168,151739,1,0
184,168,151915,2,0,B|336:168,1,144,12|0
432,120,152621,5,6
432,120,152797,1,0
432,120,152974,1,0
256,80,153327,5,6
256,80,153503,1,0
256,80,153680,1,0
80,120,154033,5,6
80,120,154209,1,0
80,120,154386,1,0
104,200,154562,1,0
184,200,154739,2,0,B|336:200,1,144,12|0
432,152,155445,5,6
432,152,155621,1,0
432,152,155797,1,0
256,112,156150,5,6
256,112,156327,1,0
256,112,156503,1,0
80,152,156856,5,6
80,152,157033,1,0
80,152,157209,1,0
88,232,157386,1,0
128,304,157562,2,0,B|192:378|320:378|384:304,1,288,8|4
48,64,158797,5,0
112,104,158974,2,0,B|264:104,1,144,4|0
320,148,159503,2,0,B|472:148,2,144,8|0|0
256,192,160386,1,2
184,192,160562,1,0
112,192,160739,1,0
400,192,161092,5,6
328,48,161445,1,0
256,48,161621,1,0
184,48,161797,1,8
112,192,162150,1,0
256,320,162503,2,0,B|307:256|205:256|256:192,1,144,2|0
179,181,163033,2,0,B|200:96|312:96|333:181,1,216,12|0
112,192,163915,5,6
184,336,164268,1,0
256,336,164444,1,0
328,336,164620,1,8
400,192,164973,1,0
256,64,165326,2,0,B|205:128|307:128|256:192,1,144,2|0
333,203,165856,2,0,B|312:288|200:288|179:203,1,216,12|0
408,140,166739,6,0,B|352:84,1,72,4|0
292,40,167092,2,0,B|212:40,1,72
154,89,167445,2,0,B|104:140,1,72,8|0
184,192,167798,2,0,B|336:192,2,144,2|4|8
184,192,168679,1,0
256,376,169032,2,2,B|185:320|327:320|256:264,1,144,2|6
256,376,170092,5,0
256,296,170268,2,0,B|256:144,1,144,4|0
324,96,170798,2,0,B|256:56|188:96,2,144,8|0|0
292,168,171680,1,2
220,168,171855,1,0
256,232,172033,1,0
400,232,172386,5,4
464,192,172562,1,0
400,152,172739,1,0
112,152,173092,5,6
48,192,173268,1,0
112,232,173445,1,0
298,163,173797,5,6
214,163,173974,1,0
187,82,174150,1,0
256,32,174327,1,0
325,82,174503,1,12
325,82,174856,1,0
440,240,175209,5,6
384,296,175386,1,0
328,352,175562,1,0
72,240,175915,5,6
128,296,176092,1,0
184,352,176268,1,0
298,163,176621,5,6
214,163,176797,1,0
187,82,176974,1,0
256,32,177150,1,0
325,82,177327,1,12
325,82,177680,1,0
312,244,178033,5,6
388,244,178209,1,0
444,192,178386,1,0
200,140,178739,5,6
124,140,178915,1,0
68,192,179092,1,0
298,163,179445,5,6
214,163,179621,1,0
187,82,179797,1,0
256,32,179974,1,0
325,82,180150,1,12
325,82,180503,1,0
187,82,180855,1,4
256,192,181562,12,12,183680
