osu file format v10

[General]
AudioFilename: 3OH!3 - Double Vision.mp3
AudioLeadIn: 0
PreviewTime: 35496
Countdown: 0
SampleSet: Normal
StackLeniency: 0.7
Mode: 0
LetterboxInBreaks: 0

[Editor]
DistanceSpacing: 1
BeatDivisor: 4
GridSize: 4

[Metadata]
Title:Double Vision
TitleUnicode:Double Vision
Artist:3OH!3
ArtistUnicode:3OH!3
Creator:mancusojuanmattos
Version:Hard
Source:
Tags:Streets of Gold XinCrin [Te][Amo]
BeatmapID:173795
BeatmapSetID:57689

[Difficulty]
HPDrainRate:6
CircleSize:4
OverallDifficulty:6
ApproachRate:7
SliderMultiplier:1.8
SliderTickRate:2

[Events]
//Background and Video events
Video,0,"Double_Vision.avi"
0,0,"3oh3.jpg"
//Break Periods
2,134424,139575
//Storyboard Layer 0 (Background)
//Storyboard Layer 1 (Fail)
//Storyboard Layer 2 (Pass)
//Storyboard Layer 3 (Foreground)
//Storyboard Sound Samples
//Background Colour Transformations
3,100,163,162,255

[TimingPoints]
225,500,4,2,0,70,1,0
20225,-100,4,1,0,50,0,0
36225,-100,4,1,0,75,0,1
52100,-100,4,1,0,75,0,0
52225,-100,4,1,0,75,0,1
68225,-100,4,1,0,75,0,0
69475,-100,4,2,0,90,0,0
86225,-100,4,1,0,60,0,0
102225,-100,4,1,0,75,0,1
118100,-100,4,1,0,75,0,0
118225,-100,4,1,0,75,0,1
134225,-100,4,1,0,75,0,0
143100,-100,4,2,0,90,0,0
143350,-100,4,1,0,75,0,0
147100,-100,4,2,0,90,0,0
147350,-100,4,1,0,75,0,0
151100,-100,4,2,0,90,0,0
151350,-100,4,1,0,75,0,0
153100,-100,4,2,0,90,0,0
153350,-100,4,1,0,75,0,0
158225,-100,4,1,0,75,0,1
174100,-100,4,1,0,75,0,0
174225,-100,4,1,0,75,0,1
190225,-100,4,2,0,50,0,0

[Colours]
Combo1 : 15,255,135
Combo2 : 136,255,255
Combo3 : 252,116,116
SliderBorder : 180,180,180

[HitObjects]
176,88,3475,1,2,0:0:0
256,132,3725,1,8,0:0:0
336,88,3975,1,2,0:0:0
328,176,4225,2,0,B|308:224|256:232|204:224|184:176,2,180,0|8|0,0:0|0:0|0:0,0:0:0
404,224,5475,6,0,B|392:268|344:288,1,90,2|8,0:0|0:0,0:0:0
256,304,5975,1,2,0:0:0
168,288,6225,2,0,B|120:268|108:224,1,90,0|2,0:0|0:0,0:0:0
184,176,6725,2,0,B|204:128|256:120|308:128|328:176,1,180,8|0,0:0|0:0,0:0:0
416,152,7475,6,0,B|488:96,2,90,2|8|2,0:0|0:0|0:0,0:0:0
468,224,8225,2,0,B|396:276,1,90,0|2,0:0|0:0,0:0:0
344,352,8725,2,0,B|292:336|256:356|256:356|220:336|168:352,1,180,8|0,0:0|0:0,0:0:0
116,276,9475,6,0,B|44:224,1,90,2|8,0:0|0:0,0:0:0
24,96,9975,2,0,B|96:152,2,90,2|0|2,0:0|0:0|0:0,0:0:0
100,48,10725,2,0,B|153:58|175:92|175:92|216:92|255:130,1,180,8|0,0:0|0:0,0:0:0
200,200,11475,5,2,0:0:0
256,268,11725,1,8,0:0:0
316,200,11975,1,2,0:0:0
255,131,12225,2,0,B|293:92|334:93|334:93|356:58|410:48,2,180,0|8|0,0:0|0:0|0:0,0:0:0
316,200,13475,2,0,B|364:196|394:161,1,90,2|8,0:0|0:0,0:0:0
472,204,13975,1,2,0:0:0
440,288,14225,2,0,B|392:292|361:326,2,90,0|2|8,0:0|0:0|0:0,0:0:0
256,292,15225,5,0,0:0:0
184,348,15475,1,2,0:0:0
116,292,15725,1,8,0:0:0
184,232,15975,1,2,0:0:0
256,176,16225,2,0,B|256:132|212:100,1,90,0|2,0:0|0:0,0:0:0
256,176,16725,2,0,B|256:132|300:100,1,90,8|2,0:0|0:0,0:0:0
348,176,17225,2,0,B|392:192|424:224,1,90,0|2,0:0|0:0,0:0:0
412,312,17725,2,0,B|368:296|336:264,1,90,8|2,0:0|0:0,0:0:0
256,228,18225,2,0,B|156:228,2,90,0|2|8,0:0|0:0|0:0,0:0:0
40,120,19225,5,2,0:0:0
256,68,19725,1,2,0:0:0
472,120,20225,1,4,0:0:0
368,84,20475,5,0,0:0:0
368,84,20600,1,0,0:0:0
368,84,20725,2,0,B|332:172,1,90,8|0,0:0|0:0,0:0:0
432,240,21225,2,0,B|380:224|344:244|344:244|308:224|256:240,1,180,2|8,0:0|0:0,0:0:0
81,240,21975,2,0,B|133:224|169:244|169:244|205:224|257:240,1,180,2|0,0:0|0:0,0:0:0
212,320,22725,6,0,B|256:332|301:320,1,90,8|2,0:0|0:0,0:0:0
356,248,23225,2,0,B|367:202|355:158,1,90,2|2,0:0|0:0,0:0:0
301,87,23725,2,0,B|256:76|212:88,1,90,8|0,0:0|0:0,0:0:0
156,158,24225,2,0,B|144:202|156:248,1,90,2|0,0:0|0:0,0:0:0
155,247,24725,1,8,0:0:0
236,208,24975,1,0,0:0:0
288,280,25225,6,0,B|336:260|344:208|336:156|288:136,1,180,2|8,0:0|0:0,0:0:0
236,64,25975,2,0,B|188:84|180:136|188:188|236:208,1,180,2|0,0:0|0:0,0:0:0
156,248,26725,2,0,B|116:216|109:169,1,90,8|0,0:0|0:0,0:0:0
108,84,27225,2,0,B|113:40|153:8,2,90,2|2|8,0:0|0:0|0:0,0:0:0
32,136,27975,1,0,0:0:0
32,136,28225,2,0,B|32:224,1,90,4|0,0:0|0:0,0:0:0
32,316,28725,1,8,0:0:0
112,272,28975,5,0,0:0:0
112,272,29225,2,0,B|132:320|184:328|236:320|256:272,1,180,2|8,0:0|0:0,0:0:0
268,184,29975,2,0,B|288:136|340:128|392:136|412:184,1,180,2|0,0:0|0:0,0:0:0
340,236,30725,2,0,B|340:56,1,180,8|0,0:0|0:0,0:0:0
256,24,31475,1,0,0:0:0
172,56,31725,2,0,B|172:236,1,180,8|0,0:0|0:0,0:0:0
256,272,32475,5,0,0:0:0
256,299,32600,1,0,0:0:0
256,326,32725,1,8,0:0:0
344,300,32975,2,0,B|432:300,1,90
434,209,33475,2,0,B|344:209,1,90,0|8,0:0|0:0,0:0:0
256,200,33975,2,0,P|80:132|136:320,1,450
180,373,35475,6,0,B|232:381|256:337,1,90,0|8,0:0|0:0,0:0:0
332,373,35975,2,0,B|280:381|256:337,1,90,0|4,0:0|0:0,0:0:0
300,261,36475,2,0,B|256:241|212:261,1,90,0|8,0:0|0:0,0:0:0
124,273,36975,1,0,0:0:0
168,196,37225,2,0,B|256:153|341:195,1,180,2|8,0:0|0:0,0:0:0
388,273,37975,1,2,0:0:0
444,201,38225,5,0,0:0:0
388,129,38475,2,0,B|352:105|304:101,1,90,2|8,0:0|0:0,0:0:0
256,176,38975,1,0,0:0:0
208,100,39225,2,0,B|160:105|124:129,1,90,2|2,0:0|0:0,0:0:0
52,180,39725,1,10,0:0:0
4,256,39975,1,0,0:0:0
52,332,40225,5,0,0:0:0
96,256,40475,2,0,B|140:240|184:256,1,90,0|8,0:0|0:0,0:0:0
156,340,40975,2,0,B|200:356|244:340,1,90,0|2,0:0|0:0,0:0:0
268,256,41475,2,0,B|312:240|356:256,1,90,2|8,0:0|0:0,0:0:0
336,344,41975,2,0,B|380:360|424:344,1,90,2|0,0:0|0:0,0:0:0
448,256,42475,5,2,0:0:0
388,188,42725,2,0,B|336:116,1,90,8|0,0:0|0:0,0:0:0
256,72,43225,1,2,0:0:0
176,115,43475,2,0,B|124:188,1,90,2|8,0:0|0:0,0:0:0
212,208,43975,1,0,0:0:0
302,208,44225,5,4,0:0:0
256,284,44475,2,0,B|256:376,2,90,0|8|2,0:0|0:0|0:0,0:0:0
348,284,45225,1,2,0:0:0
348,284,45475,1,2,0:0:0
424,236,45725,1,8,0:0:0
352,180,45975,6,0,B|373:132|344:89|302:56|254:75,1,180,0|0,0:0|0:0,0:0:0
256,164,46725,1,8,0:0:0
188,104,46975,2,0,B|140:120|132:168,1,90,2|2,0:0|0:0,0:0:0
188,232,47475,2,0,B|140:216|132:168,1,90,2|8,0:0|0:0,0:0:0
41,167,47975,1,0,0:0:0
41,167,48225,5,4,0:0:0
60,256,48475,1,0,0:0:0
60,256,48600,1,0,0:0:0
60,256,48725,1,8,0:0:0
128,316,48975,2,0,B|212:348,1,90,2|2,0:0|0:0,0:0:0
302,348,49475,2,0,B|386:316,1,90,2|8,0:0|0:0,0:0:0
320,256,49975,2,0,B|484:184,1,180
504,96,50725,1,8,0:0:0
420,68,50975,5,2,0:0:0
340,112,51225,1,2,0:0:0
256,80,51475,1,2,0:0:0
172,112,51725,1,8,0:0:0
92,68,51975,1,0,0:0:0
8,96,52225,6,0,B|0:144|8:188,1,90,6|2,0:0|0:0,0:0:0
88,144,52725,2,0,B|95:185|87:233,1,90,8|0,0:0|0:0,0:0:0
172,260,53225,1,2,0:0:0
256,292,53475,1,2,0:0:0
340,260,53725,1,8,0:0:0
424,233,53975,6,0,B|416:185|424:144,1,90,2|0,0:0|0:0,0:0:0
504,185,54475,2,0,B|512:144|504:96,2,90,2|8|0,0:0|0:0|0:0,0:0:0
504,276,55225,2,0,B|428:324,1,90,2|2,0:0|0:0,0:0:0
360,272,55725,2,0,B|300:204,1,90,10|0,0:0|0:0,0:0:0
212,204,56225,2,0,B|152:272,1,90,2|0,0:0|0:0,0:0:0
84,324,56725,2,0,B|8:276,2,90,8|2|2,0:0|0:0|0:0,0:0:0
164,364,57475,1,2,0:0:0
344,364,57975,1,2,0:0:0
256,208,58475,6,0,B|256:120,1,90,0|8,0:0|0:0,0:0:0
164,120,58975,1,2,0:0:0
212,44,59225,1,2,0:0:0
302,44,59475,1,2,0:0:0
348,120,59725,1,8,0:0:0
348,208,59975,5,0,0:0:0
356,236,60100,1,0,0:0:0
340,260,60225,2,0,B|292:260|256:288|256:288|220:260|172:260,1,180,4|8,0:0|0:0,0:0:0
100,312,60975,2,0,B|116:356|168:364,1,90,2|2,0:0|0:0,0:0:0
256,372,61475,1,2,0:0:0
344,364,61725,2,0,B|396:356|412:312,1,90,8|0,0:0|0:0,0:0:0
336,260,62225,5,0,0:0:0
256,216,62475,1,0,0:0:0
176,260,62725,1,8,0:0:0
176,172,62975,2,0,B|120:96,2,90,2|2|2,0:0|0:0|0:0,0:0:0
256,216,63725,1,8,0:0:0
336,172,63975,2,0,B|392:96,1,90,0|4,0:0|0:0,0:0:0
432,180,64475,6,0,B|512:220,1,90,0|8,0:0|0:0,0:0:0
504,308,64975,2,0,B|424:268,1,90,2|2,0:0|0:0,0:0:0
340,300,65475,2,0,B|292:292|256:324|256:324|220:292|172:300,1,180,2|0,0:0|0:0,0:0:0
172,209,66225,1,0,0:0:0
256,240,66475,1,0,0:0:0
340,209,66725,1,8,0:0:0
340,119,66975,6,0,B|340:71|296:43,1,90,2|2,0:0|0:0,0:0:0
256,124,67475,1,2,0:0:0
214,44,67725,2,0,B|172:71|172:119,1,90,8|0,0:0|0:0,0:0:0
256,124,68225,1,4,0:0:0
44,280,69475,5,2,0:0:0
44,190,69725,1,8,0:0:0
124,232,69975,1,2,0:0:0
204,188,70225,2,0,B|228:232|208:276,2,90,0|2|8,0:0|0:0|0:0,0:0:0
256,116,70975,1,2,0:0:0
468,280,71475,5,2,0:0:0
468,190,71725,1,8,0:0:0
388,232,71975,1,2,0:0:0
308,188,72225,2,0,B|284:232|304:276,2,90,0|2|8,0:0|0:0|0:0,0:0:0
256,116,72975,1,2,0:0:0
196,180,73225,2,0,B|148:152|140:112|140:112|148:72|196:44,1,180,0|8,0:0|0:0,0:0:0
256,116,73975,1,2,0:0:0
300,36,74225,6,0,B|348:52|352:108,1,90,4|2,0:0|0:0,0:0:0
351,193,74725,2,0,B|347:244|299:260,1,90,8|2,0:0|0:0,0:0:0
209,259,75225,2,0,B|164:268|116:259,1,90,0|2,0:0|0:0,0:0:0
119,169,75725,2,0,B|164:161|208:169,1,90,8|2,0:0|0:0,0:0:0
248,88,76225,2,0,B|160:64|68:88,2,180,4|8|0,0:0|0:0|0:0,0:0:0
312,152,77475,5,2,0:0:0
384,204,77725,1,8,0:0:0
312,256,77975,1,2,0:0:0
240,204,78225,2,0,B|148:204|116:316,2,180,0|8|0,0:0|0:0|0:0,0:0:0
296,272,79475,1,2,0:0:0
212,308,79725,2,0,B|96:172,2,180,8|0|8,0:0|0:0|0:0,0:0:0
236,220,80975,2,0,B|120:84,1,180,2|2,0:0|0:0,0:0:0
119,83,81725,1,8,0:0:0
192,28,81975,1,2,0:0:0
256,92,82225,5,4,0:0:0
320,28,82475,1,2,0:0:0
392,83,82725,1,8,0:0:0
340,156,82975,2,0,B|360:200|346:243,1,90,2|0,0:0|0:0,0:0:0
256,264,83475,1,2,0:0:0
165,243,83725,2,0,B|152:200|172:156,1,90,8|2,0:0|0:0,0:0:0
108,96,84225,2,0,B|56:176|84:268,1,180,4|8,0:0|0:0,0:0:0
32,344,84975,5,0,0:0:0
32,344,85225,1,2,0:0:0
256,288,85725,1,8,0:0:0
480,344,86225,1,4,0:0:0
440,244,86475,5,0,0:0:0
440,244,86600,1,0,0:0:0
440,244,86725,2,0,B|408:212|400:164,1,90,8|0,0:0|0:0,0:0:0
492,156,87225,2,0,B|484:108|452:76,1,90,2|0,0:0|0:0,0:0:0
364,76,87725,1,8,0:0:0
340,164,87975,2,0,B|292:172|256:140|256:140|220:172|172:164,1,180,2|0,0:0|0:0,0:0:0
148,76,88725,5,8,0:0:0
59,76,88975,2,0,B|27:108|20:156,1,90,2|2,0:0|0:0,0:0:0
96,204,89475,1,2,0:0:0
172,252,89725,2,0,B|220:244|256:276|256:276|292:244|340:252,1,180,8|4,0:0|0:0,0:0:0
300,336,90475,2,0,B|256:360|212:336,2,90,0|8|0,0:0|0:0|0:0,0:0:0
340,252,91225,2,0,B|430:252,1,90,2|0,0:0|0:0,0:0:0
496,192,91725,1,8,0:0:0
430,132,91975,2,0,B|340:132,1,90,2|0,0:0|0:0,0:0:0
272,192,92475,6,0,B|180:192,1,90,0|8,0:0|0:0,0:0:0
152,276,92975,2,0,B|64:276,1,90,2|2,0:0|0:0,0:0:0
24,192,93475,1,2,0:0:0
62,108,93725,2,0,B|152:108,1,90,8|0,0:0|0:0,0:0:0
240,108,94225,6,0,B|320:108|320:36|400:36,1,180,4|8,0:0|0:0,0:0:0
452,108,94975,1,0,0:0:0
400,180,95225,2,0,B|320:180|320:108|240:108,1,180,2|8,0:0|0:0,0:0:0
256,196,95975,2,0,B|256:275|320:275|320:364,1,180,2|0,0:0|0:0,0:0:0
232,335,96725,2,0,B|200:307|188:255,1,90,8|0,0:0|0:0,0:0:0
180,168,97225,1,0,0:0:0
256,120,97475,1,0,0:0:0
332,168,97725,1,8,0:0:0
332,80,97975,5,0,0:0:0
256,28,98225,1,0,0:0:0
180,80,98475,1,0,0:0:0
180,168,98725,2,0,B|180:260,1,90,8|0,0:0|0:0,0:0:0
256,308,99225,1,0,0:0:0
332,258,99475,2,0,B|332:168,2,90,0|8|0,0:0|0:0|0:0,0:0:0
176,76,101475,5,0,0:0:0
256,116,101725,1,8,0:0:0
336,76,101975,1,0,0:0:0
324,164,102225,2,0,B|296:212|256:220|256:220|216:212|188:164,1,180,4|8,0:0|0:0,0:0:0
256,116,102975,1,0,0:0:0
256,116,103225,2,0,B|256:296,1,180,2|8,0:0|0:0,0:0:0
256,296,103975,1,2,0:0:0
168,296,104225,6,0,B|88:252,1,90
24,192,104725,1,8,0:0:0
89,131,104975,2,0,B|168:88,1,90,0|2,0:0|0:0,0:0:0
256,72,105475,1,2,0:0:0
312,140,105725,1,10,0:0:0
312,230,105975,1,0,0:0:0
256,300,106225,5,4,0:0:0
332,348,106475,1,0,0:0:0
332,348,106600,1,0,0:0:0
332,348,106725,2,0,B|420:332|496:252,1,180,8|2,0:0|0:0,0:0:0
492,168,107475,2,0,B|400:184|336:260,1,180,2|2,0:0|0:0,0:0:0
256,220,108225,5,4,0:0:0
192,156,108475,2,0,B|172:112|192:68,1,90,2|8,0:0|0:0,0:0:0
256,8,108975,1,0,0:0:0
320,68,109225,2,0,B|340:112|320:156,2,90,2|2|8,0:0|0:0|0:0,0:0:0
168,276,110225,6,0,B|228:256|256:352|284:256|344:276,1,180,4|8,0:0|0:0,0:0:0
300,356,110975,2,0,B|256:376|212:356,2,90,2|2|2,0:0|0:0|0:0,0:0:0
388,336,111725,1,8,0:0:0
452,272,111975,2,0,B|488:188|448:96,1,180
364,60,112725,1,8,0:0:0
384,148,112975,2,0,B|404:188|384:236,2,90,2|2|2,0:0|0:0|0:0,0:0:0
308,192,113725,1,8,0:0:0
256,120,113975,1,0,0:0:0
200,192,114225,6,0,B|184:292|92:328,1,180,4|8,0:0|0:0,0:0:0
60,248,114975,2,0,B|100:228|116:180,2,90,2|2|2,0:0|0:0|0:0,0:0:0
20,168,115725,1,8,0:0:0
32,80,115975,2,0,B|124:48|204:116,1,180
256,184,116725,1,8,0:0:0
256,184,116975,2,0,B|256:272,2,90,2|2|2,0:0|0:0|0:0,0:0:0
311,112,117725,2,0,B|388:48|480:80,1,180,8|4,0:0|0:0,0:0:0
452,164,118475,6,0,B|400:152|364:188,1,90,0|8,0:0|0:0,0:0:0
428,252,118975,1,0,0:0:0
428,252,119100,1,0,0:0:0
428,252,119225,1,2,0:0:0
372,320,119475,1,2,0:0:0
312,252,119725,1,8,0:0:0
256,320,119975,2,0,B|225:286|173:318|117:354|85:325,1,180,2|0,0:0|0:0,0:0:0
128,244,120725,6,0,B|120:196|126:154,1,90,8|0,0:0|0:0,0:0:0
212,124,121225,2,0,B|218:165|210:213,1,90,2|2,0:0|0:0,0:0:0
301,213,121725,2,0,B|293:165|300:124,1,90,10|0,0:0|0:0,0:0:0
385,154,122225,2,0,B|392:196|384:244,1,90,6|0,0:0|0:0,0:0:0
384,336,122725,5,8,0:0:0
300,364,122975,1,0,0:0:0
208,364,123225,1,2,0:0:0
124,336,123475,1,2,0:0:0
60,272,123725,2,0,B|12:192,1,90,8|2,0:0|0:0,0:0:0
64,120,124225,6,0,B|108:132|152:119,1,90
112,40,124725,2,0,B|156:28|200:40,1,90,8|2,0:0|0:0,0:0:0
242,120,125225,2,0,B|197:132|154:120,1,90,2|2,0:0|0:0,0:0:0
153,210,125725,1,8,0:0:0
304,304,126225,6,0,B|344:336|393:319|436:288|431:236,1,180,4|8,0:0|0:0,0:0:0
344,220,126975,1,2,0:0:0
256,196,127225,1,2,0:0:0
168,220,127475,1,2,0:0:0
208,304,127725,1,8,0:0:0
208,304,127975,2,0,B|168:336|119:319|76:288|81:236,1,180,0|0,0:0|0:0,0:0:0
168,220,128725,6,0,B|168:128,1,90,8|2,0:0|0:0,0:0:0
256,112,129225,2,0,B|256:24,2,90,2|2|8,0:0|0:0|0:0,0:0:0
344,130,129975,2,0,B|344:220,1,90,0|4,0:0|0:0,0:0:0
416,276,130475,1,0,0:0:0
396,295,130600,1,0,0:0:0
376,314,130725,1,8,0:0:0
300,268,130975,6,0,B|256:284|211:269,1,90,2|2,0:0|0:0,0:0:0
136,314,131475,1,2,0:0:0
116,295,131600,1,0,0:0:0
96,276,131725,1,8,0:0:0
164,212,131975,2,0,B|148:124|164:32,1,180
256,28,132725,1,8,0:0:0
332,76,132975,2,0,B|356:116|340:164,1,90,2|2,0:0|0:0,0:0:0
256,128,133475,1,2,0:0:0
400,36,133725,6,0,B|440:124|400:216,1,180,8|4,0:0|0:0,0:0:0
192,192,140475,5,0,0:0:0
256,256,140725,1,8,0:0:0
316,192,140975,1,0,0:0:0
256,124,141225,1,0,0:0:0
168,116,141475,2,0,B|120:132|116:184,1,90,0|8,0:0|0:0,0:0:0
76,264,141975,1,0,0:0:0
28,188,142225,6,0,B|28:92|120:44,1,180,4|8,0:0|0:0,0:0:0
392,44,143225,2,0,B|484:92|484:188,1,180,2|8,0:0|0:0,0:0:0
436,264,143975,1,0,0:0:0
396,184,144225,2,0,B|392:132|344:116,1,90
300,196,144725,1,8,0:0:0
212,196,144975,1,0,0:0:0
184,280,145225,2,0,B|204:328|256:336|308:328|328:280,2,180,0|8|4,0:0|0:0|0:0,0:0:0
184,104,146725,6,0,B|204:56|256:48|308:56|328:104,2,180,8|2|8,0:0|0:0|0:0,0:0:0
256,160,147975,2,0,B|268:200|256:248,2,90
176,204,148725,2,0,B|88:204,2,90,8|0|0,0:0|0:0|0:0,0:0:0
256,44,149725,1,8,0:0:0
436,64,150225,5,4,0:0:0
504,232,150725,2,0,B|344:312,1,180,8|2,0:0|0:0,0:0:0
256,152,151725,1,8,0:0:0
212,232,151975,1,0,0:0:0
168,312,152225,2,0,B|8:232,1,180,4|8,0:0|0:0,0:0:0
4,140,152975,1,0,0:0:0
16,52,153225,2,0,B|176:132,2,180,2|8|4,0:0|0:0|0:0,0:0:0
256,176,154975,5,2,0:0:0
256,264,155225,1,2,0:0:0
256,352,155475,1,2,0:0:0
256,192,155975,12,0,157725,0:0:0
168,104,158225,6,0,B|168:56|208:20,1,90,4|0,0:0|0:0,0:0:0
256,96,158725,1,8,0:0:0
308,24,158975,2,0,B|343:55|343:103,1,90,0|2,0:0|0:0,0:0:0
256,96,159475,1,2,0:0:0
256,184,159725,1,8,0:0:0
328,236,159975,2,0,B|308:284|256:292|204:284|184:236,1,180,2|0,0:0|0:0,0:0:0
112,288,160725,6,0,B|128:332|188:352,1,90,8|0,0:0|0:0,0:0:0
256,384,161225,1,2,0:0:0
336,347,161475,2,0,B|384:332|400:288,1,90,2|10,0:0|0:0,0:0:0
316,260,161975,1,0,0:0:0
256,192,162225,2,0,B|256:12,2,180,4|8|2,0:0|0:0|0:0,0:0:0
196,260,163475,1,2,0:0:0
116,304,163725,1,8,0:0:0
36,260,163975,1,2,0:0:0
44,172,164225,6,0,B|28:128|42:83,1,90,4|0,0:0|0:0,0:0:0
120,132,164725,1,8,0:0:0
200,172,164975,2,0,B|216:128|201:83,1,90,2|2,0:0|0:0,0:0:0
120,42,165475,2,0,B|120:132,1,90,2|8,0:0|0:0,0:0:0
300,40,166225,6,0,B|328:128|300:224,1,180,4|8,0:0|0:0,0:0:0
392,220,166975,1,2,0:0:0
420,136,167225,1,2,0:0:0
392,52,167475,1,2,0:0:0
420,136,167725,1,8,0:0:0
420,136,167975,2,0,B|468:124|512:136,1,90,0|0,0:0|0:0,0:0:0
480,220,168475,6,0,B|438:231|390:219,1,90,0|8,0:0|0:0,0:0:0
424,304,168975,1,2,0:0:0
344,348,169225,1,2,0:0:0
256,360,169475,1,2,0:0:0
168,348,169725,1,8,0:0:0
88,304,169975,1,0,0:0:0
210,217,170225,6,0,B|184:128|212:40,1,180,4|8,0:0|0:0,0:0:0
300,68,170975,1,2,0:0:0
356,140,171225,1,2,0:0:0
300,208,171475,1,2,0:0:0
256,288,171725,2,0,B|256:380,2,90,8|0|0,0:0|0:0|0:0,0:0:0
168,272,172475,2,0,B|112:272|112:272|60:320|0:280,1,180,0|2,0:0|0:0,0:0:0
0,189,173225,2,0,B|60:148|112:196|112:196|169:196,1,180,2|8,0:0|0:0,0:0:0
252,232,173975,1,0,0:0:0
228,144,174225,5,4,0:0:0
140,124,174475,2,0,B|104:88|40:96,2,90,0|8|0,0:0|0:0|0:0,0:0:0
228,144,175225,1,2,0:0:0
291,80,175475,1,2,0:0:0
324,164,175725,2,0,B|396:216,1,90,8|2,0:0|0:0,0:0:0
416,304,176225,5,0,0:0:0
328,320,176475,2,0,B|255:267,2,90,0|8|0,0:0|0:0|0:0,0:0:0
416,304,177225,2,0,B|489:357,2,90,2|2|8,0:0|0:0|0:0,0:0:0
456,224,177975,1,0,0:0:0
440,136,178225,6,0,B|397:112|388:65|388:65|340:68|307:32,1,180,0|8,0:0|0:0,0:0:0
256,108,178975,1,2,0:0:0
204,32,179225,2,0,B|171:68|123:65|123:65|114:112|72:136,1,180,2|8,0:0|0:0,0:0:0
40,296,179975,1,0,0:0:0
40,296,180225,2,0,B|80:232|124:276|160:312|216:264|216:264|216:190,2,270,4|0|8,0:0|0:0|0:0,0:0:0
296,191,182225,6,0,B|296:266|296:266|352:314|388:278|432:234|472:298,2,270,4|0|8,0:0|0:0|0:0,0:0:0
328,108,183975,2,0,B|308:60|256:52|204:60|184:108,2,180,0|0|0,0:0|0:0|0:0,0:0:0
256,164,185225,1,2,0:0:0
192,228,185475,1,2,0:0:0
256,292,185725,1,8,0:0:0
320,228,185975,1,0,0:0:0
368,152,186225,6,0,B|416:172|424:224|416:276|368:296,1,180,4|8,0:0|0:0,0:0:0
300,352,186975,2,0,B|256:364|212:352,1,90,2|2,0:0|0:0,0:0:0
228,264,187475,1,2,0:0:0
144,296,187725,1,8,0:0:0
144,296,187975,6,0,B|96:276|88:224|96:172|144:152,1,180
143,152,188725,1,8,0:0:0
256,192,188975,12,2,190225,0:0:0
