osu file format v7

[General]
AudioFilename: 3OH!3 - Deja Vu.mp3
AudioLeadIn: 0
PreviewTime: 33942
Countdown: 1
SampleSet: Soft
StackLeniency: 0.7
Mode: 0
LetterboxInBreaks: 0
EpilepsyWarning: 1

[Editor]
DistanceSpacing: 0.800000011920929
BeatDivisor: 4
GridSize: 8

[Metadata]
Title:Deja Vu
Artist:3OH!3
Creator:DiamondCrash
Version:Hard
Source:
Tags:Streets Of Gold Gladi

[Difficulty]
HPDrainRate:8
CircleSize:4
OverallDifficulty:7
SliderMultiplier:2
SliderTickRate:2

[Events]
//Background and Video events
0,0,"dejavu.png"
//Break Periods
2,64141,78042
2,124141,138745
//Storyboard Layer 0 (Background)
//Storyboard Layer 1 (Fail)
//Storyboard Layer 2 (Pass)
//Storyboard Layer 3 (Foreground)
//Storyboard Sound Samples
//Background Colour Transformations
3,100,163,162,255

[TimingPoints]
3942.30769230769,468.75,4,2,1,70,1,0
33926,-100,4,2,1,100,0,1
63926,-100,4,2,1,100,0,0
93942,-100,4,2,1,100,0,1
123942,-100,4,2,1,100,0,0
153942,-100,4,2,1,100,0,1
183942,-100,4,2,1,100,0,0

[HitObjects]
0,32,3942,5,4
72,176,4411,1,8
120,112,4645,1,0
168,48,4879,1,2
256,184,5348,1,2
256,264,5582,1,0
256,344,5817,5,4
328,304,6051,1,0
328,384,6286,1,8
400,344,6520,1,4
512,272,6989,5,0
512,192,7223,1,8
512,112,7457,1,0
512,32,7692,1,4
440,72,7926,1,0
440,152,8161,1,8
368,112,8395,1,0
312,48,8629,1,2
256,104,8864,1,0
256,184,9098,1,2
256,264,9332,1,0
256,344,9567,5,4
184,304,9801,1,0
184,384,10036,1,8
112,344,10270,1,4
0,272,10739,5,0
0,192,10973,1,8
0,112,11207,1,0
0,32,11442,1,4
72,72,11676,1,0
72,152,11911,1,8
144,112,12145,1,0
144,32,12379,1,2
256,184,12848,5,2
256,264,13082,1,0
256,344,13317,1,4
328,384,13551,1,0
328,304,13786,1,8
328,224,14020,2,2,B|544:224,1,200,2|4
456,48,14957,5,0
376,48,15192,1,4
296,48,15426,1,0
216,48,15661,1,8
136,48,15895,1,0
56,48,16129,1,2
96,120,16364,1,0
176,120,16598,1,8
256,120,16832,1,0
336,120,17067,5,4
416,120,17301,1,0
376,192,17536,1,8
336,264,17770,1,2
176,264,18239,1,4
512,32,18942,5,4
440,176,19411,1,8
392,112,19645,1,0
344,48,19879,1,2
256,184,20348,1,2
256,264,20582,1,0
256,344,20817,5,4
184,304,21051,1,0
184,384,21286,1,8
112,344,21520,1,4
0,344,21989,5,0
0,264,22223,1,8
0,184,22457,1,4
176,40,23161,1,8
256,40,23395,1,0
336,40,23629,1,2
256,184,24098,1,2
256,264,24332,1,0
256,344,24567,5,4
328,304,24801,1,0
328,384,25036,1,8
400,344,25270,1,4
512,272,25739,5,0
512,192,25973,1,8
512,112,26207,1,0
512,32,26442,1,4
440,72,26676,1,0
440,152,26911,1,8
368,112,27145,1,0
312,48,27379,1,2
256,104,27614,1,0
256,184,27848,1,2
256,264,28082,1,0
256,344,28317,5,4
184,384,28551,1,0
184,304,28786,1,8
112,344,29020,1,4
64,168,29489,6,2,B|32:80|88:24|176:40,2,200
136,120,30661,1,8
216,120,30895,1,0
296,120,31129,1,2
376,120,31364,1,0
336,192,31598,1,8
256,192,31832,1,0
176,192,32067,1,4
216,264,32301,1,0
296,264,32536,1,8
256,336,33473,1,14
40,352,34176,5,0
88,288,34411,1,10
136,224,34645,1,0
216,200,34879,2,0,B|200:152|152:128|112:144,2,100,6|0|10
256,272,35582,1,4
472,352,36051,5,0
424,288,36286,1,10
376,224,36520,1,0
296,200,36754,2,0,B|312:152|360:128|400:144,2,100,6|0|10
256,272,37457,1,4
256,72,37926,5,0
296,0,38161,1,10
216,0,38395,1,0
176,72,38629,1,6
216,144,38864,1,0
296,144,39098,1,10
336,72,39332,1,4
448,192,39801,5,0
432,272,40036,1,10
416,352,40270,1,0
356,298,40504,2,2,B|148:298,2,200,6|10|6
280,72,42145,5,0
208,32,42379,1,2
200,112,42614,1,0
232,184,42848,1,10
304,224,43082,1,0
312,144,43317,1,6
80,272,43786,5,10
96,352,44020,1,0
156,298,44254,2,2,B|364:298,2,200,6|10|6
232,72,45895,5,0
304,32,46129,1,2
312,112,46364,1,0
280,184,46598,1,10
208,224,46832,1,0
200,144,47067,1,6
432,272,47536,5,10
416,352,47770,1,0
356,298,48004,2,2,B|148:298,2,200,6|10|6
369,218,49176,5,0
424,160,49411,1,10
368,104,49645,1,0
288,80,49879,2,0,B|304:32|352:8|392:24,2,100,6|0|10
256,152,50582,1,4
143,218,51051,5,0
88,160,51286,1,10
144,104,51520,1,0
224,80,51754,2,0,B|208:32|160:8|120:24,2,100,6|0|10
256,152,52457,1,4
256,312,52926,5,0
216,384,53161,1,10
296,384,53395,1,0
336,312,53629,1,6
296,240,53864,1,0
216,240,54098,1,10
176,312,54332,1,4
64,192,54801,5,0
80,112,55036,1,10
96,32,55270,1,0
156,86,55504,2,2,B|364:86,2,200,6|10|6
232,312,57145,5,0
304,352,57379,1,2
312,272,57614,1,0
280,200,57848,1,10
208,160,58082,1,0
200,240,58317,1,6
432,112,58786,5,10
416,32,59020,1,0
356,86,59254,2,2,B|148:86,2,200,6|10|6
280,312,60895,5,0
208,352,61129,1,2
200,272,61364,1,0
232,200,61598,1,10
304,160,61832,1,0
312,240,62067,1,6
80,112,62536,5,10
96,32,62770,1,0
156,86,63004,2,2,B|364:86,2,200,6|10|6
176,32,78942,5,0
256,32,79176,1,0
336,32,79411,1,8
456,136,79879,1,2
400,192,80114,1,0
456,248,80348,1,8
336,352,80817,5,4
296,280,81051,1,0
216,280,81286,1,8
176,352,81520,1,4
352,104,81989,6,0,B|280:136|232:144|160:104,2,200,2|6|2
336,32,83161,1,8
256,32,83395,1,0
176,32,83629,1,2
80,224,84098,1,8
128,288,84332,1,0
176,352,84567,5,4
216,280,84801,1,0
296,280,85036,1,8
336,352,85270,1,4
256,160,85739,5,0
296,96,85973,1,10
216,96,86207,1,0
176,32,86442,1,0
256,32,86676,1,0
336,32,86911,1,8
400,80,87145,1,0
456,136,87379,1,2
400,192,87614,1,0
456,248,87848,1,8
336,352,88317,5,4
296,280,88551,1,0
216,280,88786,1,8
176,352,89020,1,4
112,200,89489,5,0
136,120,89723,1,0
168,48,89957,2,0,B|224:-8|296:-8|360:64,1,200
256,88,90661,1,8
256,248,91129,1,2
336,248,91364,1,0
296,320,91598,1,8
216,320,91832,1,0
176,248,92067,1,4
256,112,92536,1,8
256,112,93473,1,14
472,352,94176,5,0
424,288,94411,1,10
376,224,94645,1,0
296,200,94879,2,0,B|312:152|360:128|400:144,2,100,6|0|10
256,272,95582,1,4
40,352,96051,5,0
88,288,96286,1,10
136,224,96520,1,0
216,200,96754,2,0,B|200:152|152:128|112:144,2,100,6|0|10
256,272,97457,1,4
256,72,97926,5,0
216,0,98161,1,10
296,0,98395,1,0
336,72,98629,1,6
296,144,98864,1,0
216,144,99098,1,10
176,72,99332,1,4
64,192,99801,5,0
80,272,100036,1,10
96,352,100270,1,0
156,298,100504,2,2,B|364:298,2,200,6|10|6
216,32,102145,5,0
296,32,102379,1,2
296,112,102614,1,0
216,112,102848,1,10
216,192,103082,1,0
296,192,103317,1,6
432,272,103786,5,10
416,352,104020,1,0
356,298,104254,2,2,B|148:298,2,200,6|10|6
296,32,105895,5,0
216,32,106129,1,2
216,112,106364,1,0
296,112,106598,1,10
296,192,106832,1,0
216,192,107067,1,6
80,272,107536,5,10
96,352,107770,1,0
156,298,108004,2,2,B|364:298,2,200,6|10|6
143,218,109176,5,0
88,160,109411,1,10
144,104,109645,1,0
224,80,109879,2,0,B|208:32|160:8|120:24,2,100,6|0|10
256,152,110582,1,4
369,218,111051,5,0
424,160,111286,1,10
368,104,111520,1,0
288,80,111754,2,0,B|304:32|352:8|392:24,2,100,6|0|10
256,152,112457,1,4
256,312,112926,5,0
296,384,113161,1,10
216,384,113395,1,0
176,312,113629,1,6
216,240,113864,1,0
296,240,114098,1,10
336,312,114332,1,4
448,192,114801,5,0
432,112,115036,1,10
416,32,115270,1,0
356,86,115504,2,2,B|148:86,2,200,6|10|6
296,352,117145,5,0
216,352,117379,1,2
216,272,117614,1,0
296,272,117848,1,10
296,192,118082,1,0
216,192,118317,1,6
80,112,118786,5,10
96,32,119020,1,0
156,86,119254,2,2,B|364:86,2,200,6|10|6
216,352,120895,5,0
296,352,121129,1,2
296,272,121364,1,0
216,272,121598,1,10
216,192,121832,1,0
296,192,122067,1,6
432,112,122536,5,10
416,32,122770,1,0
356,86,123004,2,2,B|148:86,2,200,6|10|6
0,344,139645,5,0
56,288,139879,1,2
112,232,140114,1,0
128,312,140348,2,0,B|184:408|312:352,1,200,8|4
512,248,141520,5,0
456,192,141754,1,2
400,136,141989,1,0
384,216,142223,2,0,B|328:312|200:256,1,200,8|4
96,40,144098,5,8
176,40,144332,1,0
256,40,144567,1,4
336,40,144801,1,0
416,40,145036,1,8
360,192,145504,2,0,B|128:192,1,200,2|8
152,272,146207,2,4,B|368:272,1,200
456,40,147145,5,0
376,40,147379,1,2
256,40,147731,1,4
136,40,148082,1,0
8,144,148551,1,0
72,192,148786,1,8
136,232,149020,1,0
136,312,149254,1,2
256,312,149606,1,4
376,312,149957,1,0
256,192,150192,12,14,153473
488,192,154176,5,0
440,128,154411,2,0,B|424:80|376:56|336:72,2,100,10|0|6
360,144,155114,2,0,B|296:136|288:64,1,100,0|2
256,8,155582,1,4
24,192,156051,5,0
72,128,156286,2,0,B|88:80|136:56|176:72,2,100,10|0|6
152,144,156989,2,0,B|216:136|224:64,1,100,0|2
256,8,157457,1,4
256,168,157926,5,0
296,240,158161,1,10
216,240,158395,1,0
176,312,158629,1,6
216,384,158864,1,0
296,384,159098,1,10
336,312,159332,1,4
256,168,159801,5,0
216,96,160036,1,10
296,96,160270,1,0
352,40,160504,2,0,B|292:8|216:2|141:52,2,200,6|10|6
112,280,162145,5,0
160,216,162379,1,2
224,264,162614,1,0
288,312,162848,1,10
360,352,163082,1,0
400,280,163317,1,6
296,96,163786,5,10
216,96,164020,1,0
160,40,164254,2,0,B|220:8|296:2|371:52,2,200,6|10|6
400,280,165895,5,0
352,216,166129,1,2
288,264,166364,1,0
224,312,166598,1,10
152,352,166832,1,0
112,280,167067,1,6
216,96,167536,5,10
296,96,167770,1,0
352,40,168004,2,0,B|292:8|216:2|141:52,2,200,6|10|6
256,96,169176,5,0
296,168,169411,2,0,B|300:222|364:230,2,100,8|0|4
376,152,170114,2,0,B|440:160|456:232,1,100,0|2
496,280,170582,1,4
256,96,171051,5,0
216,168,171286,2,0,B|211:222|147:230,2,100,8|0|4
136,152,171989,2,0,B|72:160|56:232,1,100,0|2
16,280,172457,1,4
256,312,172926,5,0
296,240,173161,1,10
216,240,173395,1,0
176,312,173629,1,6
216,384,173864,1,0
296,384,174098,1,10
336,312,174332,1,4
256,168,174801,5,0
216,96,175036,1,10
296,96,175270,1,0
352,40,175504,2,0,B|292:8|216:2|141:52,2,200,6|10|6
400,280,177145,5,0
352,216,177379,1,2
288,264,177614,1,0
224,312,177848,1,10
160,360,178082,1,0
120,288,178317,1,6
80,112,178786,5,10
96,32,179020,1,0
156,86,179254,2,2,B|364:86,2,200,6|10|6
112,280,180895,5,0
160,216,181129,1,2
224,264,181364,1,0
288,312,181598,1,10
352,360,181832,1,0
392,288,182067,1,6
296,96,182536,5,10
216,96,182770,1,0
160,40,183004,2,0,B|220:8|296:2|371:52,2,200,6|10|6
