osu file format v7

[General]
AudioFilename: 3OH!3 - Deja Vu.mp3
AudioLeadIn: 0
PreviewTime: 33942
Countdown: 1
SampleSet: Soft
StackLeniency: 0.7
Mode: 0
LetterboxInBreaks: 0
EpilepsyWarning: 1

[Editor]
Bookmarks: 78942,139645
DistanceSpacing: 1
BeatDivisor: 4
GridSize: 8

[Metadata]
Title:Deja Vu
Artist:3OH!3
Creator:DiamondCrash
Version:Easy
Source:
Tags:Streets Of Gold Gladi

[Difficulty]
HPDrainRate:3
CircleSize:3
OverallDifficulty:3
SliderMultiplier:1.6
SliderTickRate:2

[Events]
//Background and Video events
0,0,"dejavu.png"
//Break Periods
2,64141,77502
2,124141,138205
//Storyboard Layer 0 (Background)
//Storyboard Layer 1 (Fail)
//Storyboard Layer 2 (Pass)
//Storyboard Layer 3 (Foreground)
//Storyboard Sound Samples
//Background Colour Transformations
3,100,163,162,255

[TimingPoints]
3942.30769230769,468.75,4,2,1,70,1,0
33926,-100,4,2,1,100,0,1
63926,-100,4,2,1,100,0,0
93942,-100,4,2,1,100,0,1
123942,-100,4,2,1,100,0,0
153942,-100,4,2,1,100,0,1
183942,-100,4,2,1,100,0,0

[HitObjects]
184,64,3942,2,0,B|224:24|288:16|328:68,1,160,4|8
480,112,4879,1,2
480,272,5348,1,0
344,192,5817,2,4,B|224:136|232:256|96:184,1,240
24,320,6989,5,0
24,320,7223,1,8
184,320,7692,2,0,B|224:360|288:368|328:316,1,160,4|8
480,272,8629,1,2
480,112,9098,1,0
344,192,9567,2,4,B|224:136|232:256|96:184,1,240
24,64,10739,5,0
24,64,10973,1,8
184,64,11442,2,0,B|224:24|288:16|328:68,1,160,4|8
480,112,12379,1,2
480,272,12848,1,8
344,192,13317,2,4,B|224:136|232:256|96:184,1,240
256,264,14489,1,0
416,232,14957,5,0
416,232,15192,1,4
336,88,15661,1,8
176,88,16129,1,2
96,232,16598,1,8
136,384,17067,2,4,B|392:384,1,240
256,280,18239,1,0
328,64,18942,6,0,B|288:24|224:16|184:68,1,160,4|8
32,112,19879,1,2
32,272,20348,1,8
168,192,20817,2,4,B|288:136|280:256|416:184,1,240
512,304,21989,5,0
352,288,22457,2,0,B|312:368|192:376|152:272,1,240,4|8
0,272,23629,1,2
0,112,24098,1,8
168,192,24567,2,4,B|288:136|280:256|416:184,1,240
488,64,25739,5,0
488,64,25973,1,8
328,64,26442,2,0,B|288:24|224:16|184:68,1,160,4|8
32,112,27379,1,2
32,272,27848,1,8
168,192,28317,2,4,B|288:136|280:256|416:184,1,240
504,72,29489,5,0
352,112,29957,2,0,B|312:32|192:24|152:128,1,240,4|8
96,256,31129,1,2
256,256,31598,1,8
416,256,32067,1,4
416,96,32536,2,4,B|88:96,1,320,0|14
0,352,34176,5,0
0,352,34411,1,10
136,264,34879,2,4,B|392:264,1,240
512,192,36051,5,0
512,192,36286,1,10
376,104,36754,2,4,B|120:104,1,240
256,208,37926,5,0
256,208,38161,1,8
144,320,38629,2,4,B|224:256|288:376|384:296,1,240
464,176,39801,5,0
464,176,40036,1,10
336,80,40504,2,4,B|144:80,2,160,4|8|4
448,296,42145,6,4,B|304:376|184:224|32:328,1,400,0|4
48,176,43786,5,8
176,80,44254,2,4,B|368:80,2,160,4|8|4
64,296,45895,6,4,B|208:376|328:224|480:328,1,400,0|4
464,176,47536,5,8
336,80,48004,2,4,B|144:80,2,160,4|8|4
416,56,49176,5,0
416,56,49411,1,10
376,208,49879,2,4,B|120:208,1,240
0,296,51051,5,0
0,296,51286,1,10
136,376,51754,2,4,B|392:376,1,240
256,272,52926,5,0
256,272,53161,1,8
368,160,53629,2,4,B|288:224|224:104|128:184,1,240
8,80,54801,5,0
8,80,55036,1,10
176,80,55504,2,4,B|368:80,2,160,4|8|4
64,296,57145,6,4,B|208:376|328:224|480:328,1,400,0|4
464,176,58786,5,8
336,80,59254,2,4,B|144:80,2,160,4|8|4
448,296,60895,6,4,B|304:376|184:224|32:328,1,400,0|4
48,176,62536,5,8
176,80,63004,2,4,B|368:80,2,160,4|8|4
256,32,78942,5,4
256,192,79411,1,8
184,336,79879,2,0,B|224:384|304:380|336:320,1,160,2|8
480,288,80817,2,4,B|536:200|504:88|464:40,1,240
352,160,81989,5,0
256,32,82457,2,4,B|208:128|312:176|248:288,1,240,4|8
160,160,83629,1,2
184,320,84098,1,8
32,288,84567,2,4,B|-24:200|8:88|48:40,1,240
160,160,85739,5,0
160,160,85973,1,8
256,32,86442,1,4
256,192,86911,1,8
184,336,87379,2,0,B|224:384|304:380|336:320,1,160,2|8
480,288,88317,2,4,B|536:200|504:88|464:40,1,240
320,32,89489,5,0
352,184,89957,2,0,B|312:264|192:272|152:168,1,240,4|8
200,32,91129,1,2
256,160,91598,1,8
256,328,92067,1,4
104,288,92536,2,0,B|200:224|328:224|424:304,1,320,8|14
512,352,94176,5,0
512,352,94411,1,10
376,264,94879,2,4,B|120:264,1,240
0,192,96051,5,0
0,192,96286,1,10
136,104,96754,2,4,B|392:104,1,240
256,208,97926,5,0
256,208,98161,1,8
368,320,98629,2,4,B|288:256|224:376|128:296,1,240
48,176,99801,5,0
48,176,100036,1,10
176,80,100504,2,4,B|368:80,2,160,4|8|4
64,296,102145,6,4,B|208:376|328:224|480:328,1,400,0|4
464,176,103786,5,8
336,80,104254,2,4,B|144:80,2,160,4|8|4
448,296,105895,6,4,B|304:376|184:224|32:328,1,400,0|4
48,176,107536,5,8
176,80,108004,2,4,B|368:80,2,160,4|8|4
96,56,109176,5,0
96,56,109411,1,10
136,208,109879,2,4,B|392:208,1,240
512,296,111051,5,0
512,296,111286,1,10
376,376,111754,2,4,B|120:376,1,240
256,272,112926,5,0
256,272,113161,1,8
144,160,113629,2,4,B|224:224|288:104|384:184,1,240
504,80,114801,5,0
504,80,115036,1,10
336,80,115504,2,4,B|144:80,2,160,4|8|4
448,296,117145,6,4,B|304:376|184:224|32:328,1,400,0|4
48,176,118786,5,8
176,80,119254,2,4,B|368:80,2,160,4|8|4
64,296,120895,6,4,B|208:376|328:224|480:328,1,400,0|4
464,176,122536,5,8
336,80,123004,2,4,B|144:80,2,160,4|8|4
120,96,139645,5,0
120,96,139879,2,0,B|176:16|264:40|248:144|344:152|400:80,1,320,8|4
392,288,141520,5,0
392,288,141754,2,0,B|336:368|248:344|264:240|168:232|112:304,1,320,8|4
64,144,144098,5,0
192,48,144567,2,0,B|224:104|288:112|328:32,1,160,4|8
336,208,145504,2,0,B|152:208,1,160
176,288,146207,2,2,B|360:288,1,160,4|2
440,168,147145,5,0
440,168,147379,2,4,B|424:88|352:32|232:56,1,240
96,56,148551,5,0
96,56,148786,1,2
72,216,149254,2,4,B|88:296|160:352|280:328,1,240
256,192,150192,12,8,153473
512,32,154176,5,0
512,32,154411,1,10
376,120,154879,2,4,B|120:120,1,240
0,192,156051,5,0
0,192,156286,1,10
136,280,156754,2,4,B|392:280,1,240
256,176,157926,5,0
256,176,158161,1,8
368,64,158629,2,4,B|288:128|224:8|128:88,1,240
48,208,159801,5,0
48,208,160036,1,10
176,304,160504,2,4,B|368:304,2,160,4|8|4
64,88,162145,6,4,B|208:8|328:160|480:56,1,400,0|4
464,208,163786,5,8
336,304,164254,2,4,B|144:304,2,160,4|8|4
448,88,165895,6,4,B|304:8|184:160|32:56,1,400,0|4
48,208,167536,5,8
176,304,168004,2,4,B|368:304,2,160,4|8|4
96,328,169176,5,0
96,328,169411,1,10
136,176,169879,2,4,B|392:176,1,240
512,88,171051,5,0
512,88,171286,1,10
376,8,171754,2,4,B|120:8,1,240
256,112,172926,5,0
256,112,173161,1,8
144,224,173629,2,4,B|224:160|288:280|384:200,1,240
504,304,174801,5,0
504,304,175036,1,10
336,304,175504,2,4,B|144:304,2,160,4|8|4
448,88,177145,6,4,B|304:8|184:160|32:56,1,400,0|4
48,208,178786,5,8
176,304,179254,2,4,B|368:304,2,160,4|8|4
64,88,180895,6,4,B|208:8|328:160|480:56,1,400,0|4
464,208,182536,5,8
336,304,183004,2,4,B|144:304,2,160,4|8|4
