osu file format v9

[General]
AudioFilename: 08-3OH3-Follow_Me_Down_feat._Neon_Hitch.mp3
AudioLeadIn: 0
PreviewTime: 44517
Countdown: 1
SampleSet: Soft
StackLeniency: 0.7
Mode: 0
LetterboxInBreaks: 1

[Editor]
Bookmarks: 74251
DistanceSpacing: 1
BeatDivisor: 4
GridSize: 8

[Metadata]
Title:Follow Me Down
Artist:3OH!3 (feat. Neon Hitch)
Creator:EEeee
Version:eee!!!
Source:Alice In Wonderland
Tags:Almost Alice

[Difficulty]
HPDrainRate:6
CircleSize:4
OverallDifficulty:7
ApproachRate:7
SliderMultiplier:2.2
SliderTickRate:1

[Events]
//Background and Video events
0,0,"Britney Spears.jpg"
//Break Periods
2,61754,69149
2,129719,137114
//Storyboard Layer 0 (Background)
//Storyboard Layer 1 (Fail)
//Storyboard Layer 2 (Pass)
//Storyboard Layer 3 (Foreground)
//Storyboard Sound Samples
//Background Colour Transformations
3,100,163,162,255

[TimingPoints]
10581,530.973451327434,4,2,1,61,1,0
27389,-100,4,1,1,50,0,0
44563,-100,4,1,1,50,0,1
61377,-100,4,2,1,70,0,0
70000,-100,4,1,1,40,0,0
78366,-100,4,1,1,49,0,0
92300,-200,4,1,1,49,0,0
95536,-100,4,1,1,71,0,1
112351,-100,4,1,1,71,0,0
112527,-100,4,1,1,80,0,1
129469,-100,4,1,1,10,0,0
137433,-100,4,1,1,30,0,0
161860,-100,4,1,1,14,0,0
162399,-100,4,1,1,30,0,0
162439,2123.89380530973,4,1,1,30,1,0
162664,-100,4,1,1,47,0,0
162930,-100,4,1,1,58,0,0
163195,-100,4,1,1,68,0,0
163500,530.973451327434,4,1,1,68,1,1
180315,-100,4,1,1,90,0,0
180491,-100,4,1,1,90,0,1
188815,-100,4,1,1,95,0,1
197429,-100,4,1,1,0,0,0

[HitObjects]
152,72,10580,2,0,B|184:32|320:32|368:80,1,220,2|2
152,312,11642,2,0,B|184:352|320:352|368:304,1,220,0|2
359,72,12704,1,2
432,120,12970,1,0
480,192,13235,1,2
432,264,13501,1,2
359,311,13766,2,0,B|320:352|184:352|152:312,1,220,0|2
112,104,14563,1,0
128,88,14696,1,0
144,72,14828,6,0,B|176:32|312:32|360:80,1,220,2|2
256,192,15625,5,2
168,184,15890,2,0,B|176:248|208:296|280:296|328:248,1,220
256,192,16687,1,0
168,184,16952,2,2,B|176:112|240:96,1,110
320,104,17483,5,2
344,112,17616,1,0
368,120,17749,1,2
448,152,18014,1,0
416,232,18280,1,2
336,200,18545,1,2
256,160,18811,1,2
240,152,18943,1,0
224,144,19076,6,2,B|168:112|88:112|56:160|16:240|80:336,1,330
152,296,20138,2,2,B|240:224|368:384|480:272,1,330
464,200,21200,5,2
432,120,21465,1,0
376,56,21731,1,0
288,40,21996,1,2
200,40,22262,2,0,B|128:64|72:144|80:240,1,220,0|2
112,296,23058,1,2
136,296,23191,1,0
160,296,23324,5,2
248,296,23589,1,0
336,296,23855,1,2
248,296,24120,1,2
336,296,24386,2,0,B|392:256|392:112|304:64,1,220,0|2
256,192,25448,12,4,27572
200,40,28103,5,2
312,40,28368,1,0
432,224,28899,5,0
352,296,29165,1,8
272,216,29430,1,8
192,136,29696,1,2
112,216,29961,1,2
267,52,30227,5,2
376,56,30492,1,0
376,280,31023,1,0
280,328,31288,1,8
184,272,31554,1,8
144,232,31687,1,0
104,192,31819,6,0,B|72:160|77:110|136:80,1,110,2|2
216,48,32350,2,0,B|256:40|288:64|304:128,1,110,10|0
272,216,32881,1,0
296,104,33147,1,0
400,136,33412,1,8
376,240,33678,1,0
296,320,33943,1,2
184,288,34209,1,2
80,256,34474,1,2
184,288,34740,1,2
256,80,35271,5,0
360,40,35536,1,0
360,152,35801,1,0
256,192,36067,1,2
160,136,36333,1,2
352,240,36598,5,2
256,192,36864,1,0
72,288,37395,5,0
104,192,37660,1,8
176,280,37926,1,0
208,176,38191,1,2
136,96,38457,1,2
280,264,38722,5,10
352,176,38988,1,0
136,96,39519,5,0
232,40,39784,1,8
328,88,40050,1,0
328,88,40182,1,0
328,88,40315,5,2
408,160,40581,1,2
408,272,40846,1,2
328,200,41111,1,0
248,128,41377,2,0,B|200:208|56:264,1,220,0|0
73,256,42173,1,0
256,192,42439,12,4,44563
304,272,44828,5,0
408,240,45093,1,8
440,136,45359,1,0
360,56,45624,1,0
248,32,45890,5,0
144,72,46155,1,8
56,136,46421,1,0
128,216,46686,1,0
192,304,46952,5,0
304,304,47217,1,8
128,216,47483,1,0
368,216,47748,1,8
192,304,48014,1,0
248,96,48279,1,8
304,304,48545,1,0
248,208,48810,5,4
112,112,49076,5,0
200,48,49341,2,0,B|248:104|336:80,1,110,8|0
408,64,49872,1,0
344,152,50138,5,0
280,240,50403,2,0,B|248:288|280:352,2,110,8|0|0
376,304,51200,5,0
160,304,51465,1,8
264,104,51731,1,0
264,320,51996,2,8,B|240:256|296:216|256:80,1,220
264,104,53058,6,0,B|144:104,1,110,4|2
64,176,53589,1,0
152,248,53855,2,0,B|376:248,1,220,2|0
356,83,54651,6,0,B|324:35|172:35|148:91,1,220,6|0
256,136,55447,1,2
312,232,55713,1,0
200,232,55978,1,2
424,232,56509,1,0
360,320,56775,6,0,B|328:368|176:368|152:312,1,220,2|0
104,224,57571,1,2
176,136,57837,1,0
248,48,58102,1,2
208,264,58633,1,2
344,88,59164,1,2
256,192,59297,12,4,61554
104,280,70049,5,0
176,328,70315,1,0
256,360,70580,1,8
336,328,70846,1,8
408,272,71111,2,0,B|480:176|424:40,2,220,0|8|8
336,328,72439,5,0
256,360,72704,1,8
176,328,72970,1,8
104,272,73235,2,0,B|32:176|88:40,2,220,0|8|8
176,328,74563,5,8
256,360,74828,1,0
256,272,75093,1,8
176,232,75359,2,0,B|184:144|328:146|336:248,1,220,0|8
256,192,76421,12,4,78545
200,40,79076,5,2
312,40,79342,1,2
192,224,79873,1,0
304,224,80138,1,8
304,224,80271,1,0
304,224,80404,1,8
392,160,80669,1,2
296,112,80934,1,2
488,216,81200,6,0,B|480:288|392:288,1,110,2|0
200,296,81996,1,8
200,296,82129,1,0
200,296,82262,2,0,B|184:232|120:216,1,110,8|0
129,218,82660,1,0
129,218,82793,5,8
64,304,83058,1,0
128,216,83324,1,8
96,112,83589,1,8
176,40,83855,2,0,B|168:112|240:152|336:88,2,165
288,0,84917,5,2
288,112,85182,1,2
288,224,85448,1,10
288,224,85581,1,0
288,224,85713,2,0,B|288:328|224:360|128:320,1,220,8|8
56,264,86510,5,8
56,208,86642,1,0
56,152,86775,1,0
128,72,87041,1,2
128,128,87173,1,0
128,184,87306,1,2
256,8,87572,5,2
184,96,87837,2,0,B|200:192|314:198|336:88,1,220,8|0
256,16,88634,5,8
256,128,88899,1,0
256,184,89032,1,0
256,240,89165,1,2
256,352,89430,1,2
160,304,89696,1,2
352,304,89961,2,0,B|323:243|184:239|144:328,1,220,8|8
256,352,90757,1,8
256,240,91023,1,0
256,184,91156,1,0
256,128,91288,5,8
184,40,91554,1,0
328,40,91819,1,0
256,128,92085,1,0
192,216,92350,2,2,B|192:320|328:320|328:192,1,220
256,192,93545,12,4,95536
176,208,95802,5,0
256,128,96067,1,8
336,48,96333,2,0,B|400:64|400:160,1,110
416,288,96864,5,0
336,208,97129,1,8
256,128,97395,2,0,B|192:144|192:240,1,110
256,288,97926,5,0
416,288,98191,1,8
256,128,98457,1,0
416,128,98722,2,8,B|416:208|248:208|256:112,1,220
304,24,99519,1,0
336,64,99651,1,0
376,24,99784,1,4
416,128,100050,5,0
456,232,100315,1,8
352,208,100581,1,0
312,104,100846,1,0
200,104,101111,5,0
160,208,101376,1,8
56,232,101642,1,0
96,128,101907,1,0
256,24,102173,5,0
160,208,102439,1,8
352,208,102704,1,0
256,24,102970,2,8,B|256:280,1,220
256,244,104032,6,0,B|304:280|376:248,1,110,4|2
312,152,104563,1,0
256,244,104828,2,0,B|304:280|379:263|464:192,1,220,2|0
368,56,105625,6,0,B|128:56,1,220,6|0
80,144,106421,5,2
136,240,106687,1,0
240,216,106952,2,0,B|248:272|200:336,2,110,2|0|0
148,56,107749,6,0,B|368:56,1,220,2|0
480,56,108545,5,0
432,152,108811,1,0
368,56,109076,1,0
256,248,109607,1,0
144,56,110138,1,0
368,56,110669,5,0
368,168,110934,1,8
424,264,111200,1,0
368,264,111333,1,0
312,264,111465,1,8
200,264,111731,1,8
88,264,111996,1,8
88,208,112129,1,0
88,152,112262,1,0
88,96,112395,1,0
88,40,112527,1,4
256,32,112793,5,0
256,144,113058,1,8
200,240,113324,2,0,B|328:240,1,110
464,200,113855,5,0
352,200,114120,1,8
256,144,114386,2,0,B|256:272,1,110
144,256,114917,5,0
256,376,115182,1,8
368,256,115448,1,0
256,144,115713,2,0,B|256:288,2,110,8|0|8
256,32,116510,2,0,B|256:152,1,110,0|8
144,144,117041,5,0
256,144,117306,1,8
368,144,117572,1,0
256,224,117837,5,0
144,304,118103,5,0
256,304,118368,1,8
368,304,118634,1,0
256,224,118899,5,0
144,304,119165,5,0
256,144,119430,1,8
368,304,119696,1,0
256,144,119961,2,0,B|216:56|216:56|312:56|312:56|288:104,1,220,8|0
298,82,121023,6,0,B|328:136|328:136|392:112,1,110,4|2
480,80,121554,1,0
376,120,121819,2,0,B|160:192,1,220,2|0
153,302,122616,6,0,B|172:349|324:349|356:301,1,220,2|0
256,248,123412,1,2
152,304,123678,1,0
256,248,123943,2,0,B|328:304|448:272|464:184,1,220,2|0
356,83,124740,6,0,B|324:35|172:35|148:91,1,220,2|0
80,160,125536,1,2
152,80,125802,1,0
216,168,126067,1,2
24,272,126598,1,2
240,296,127129,1,2
256,192,127262,12,2,129519
32,72,138014,5,0
144,72,138545,1,0
256,72,139076,1,0
368,72,139607,1,4
480,72,140138,2,0,B|512:136|480:192,2,110
408,256,141200,1,0
304,304,141731,1,4
192,304,142262,6,0,B|128:280|64:320,2,110
32,216,143324,1,0
88,312,143855,1,4
32,216,144386,2,0,B|32:80,2,110
144,216,145448,1,0
256,216,145979,1,4
456,304,146510,5,2
456,192,146775,1,0
456,80,147041,1,2
256,8,147572,2,0,B|232:112|280:176|240:272,1,220
56,304,148634,5,2
56,192,148899,1,0
56,80,149165,1,2
256,8,149696,2,0,B|232:112|280:176|240:272,1,220
144,328,150757,5,2
256,328,151023,1,0
368,328,151288,1,2
256,328,151554,1,0
200,232,151819,2,0,B|200:120|312:120|312:248,1,220
368,56,152881,5,2
256,56,153147,1,0
144,56,153412,1,2
256,56,153678,1,0
312,152,153943,2,0,B|312:264|200:264|200:136,1,220
40,304,155005,5,2
264,304,155536,1,2
376,304,155802,2,0,B|440:304,2,55
264,304,156333,1,0
152,304,156598,1,0
144,96,157129,5,2
256,96,157395,2,0,B|256:40,2,55,0|0|2
200,192,157926,1,0
312,192,158191,1,0
424,192,158457,2,0,B|488:192,2,55
368,288,158988,1,0
256,288,159253,5,8
144,288,159519,1,0
32,288,159784,1,8
32,176,160050,1,0
152,64,160315,5,8
264,64,160581,1,0
208,160,160846,1,8
320,160,161111,1,0
432,160,161377,5,0
424,184,161510,1,0
416,208,161642,1,0
408,232,161775,1,0
384,240,161908,1,0
360,248,162041,1,0
336,256,162173,1,0
312,264,162306,1,0
288,272,162439,6,0,B|256:296|224:256|160:288,1,110
128,184,163762,5,0
168,80,164027,1,8
272,48,164293,2,0,B|336:64|336:160,1,110
192,264,164824,5,0
232,160,165089,1,8
336,128,165355,2,0,B|400:144|400:240,1,110
256,288,165886,5,0
96,288,166151,1,8
256,128,166417,1,0
96,128,166682,2,8,B|96:208|264:208|256:112,1,220
208,24,167479,1,0
176,64,167611,1,0
136,24,167744,1,4
96,128,168010,5,0
56,232,168275,1,8
160,208,168541,1,0
200,104,168806,1,0
312,104,169071,5,0
352,208,169336,1,8
456,232,169602,1,0
416,128,169867,1,0
256,24,170133,5,0
352,208,170399,1,8
160,208,170664,1,0
256,24,170930,2,8,B|256:280,1,220
256,244,171992,6,0,B|208:280|136:248,1,110,4|2
200,152,172523,1,0
256,244,172788,2,0,B|208:280|133:263|48:192,1,220,2|0
144,56,173585,6,0,B|384:56,1,220,2|0
432,144,174381,5,2
376,240,174647,1,0
272,216,174912,2,0,B|264:272|312:336,2,110,2|0|0
364,56,175709,6,0,B|144:56,1,220,2|0
32,56,176505,5,2
80,152,176771,1,0
144,56,177036,1,2
256,248,177567,1,2
368,56,178098,1,2
144,56,178629,5,0
144,168,178894,1,8
88,264,179160,1,0
144,264,179293,1,0
200,264,179425,1,8
312,264,179691,1,8
424,264,179956,1,8
424,208,180089,1,0
424,152,180222,1,0
424,96,180355,1,0
424,40,180487,1,4
256,32,180753,5,2
256,144,181018,1,8
312,240,181284,2,0,B|184:240,1,110,2|0
48,200,181815,5,2
160,200,182080,1,8
256,144,182346,2,0,B|256:272,1,110,2|0
368,256,182877,5,2
256,376,183142,1,8
144,256,183408,1,2
256,144,183673,2,0,B|256:288,2,110,8|2|8
256,32,184470,2,0,B|256:152,1,110,2|12
368,144,185001,5,2
256,144,185266,1,8
144,144,185532,1,2
256,224,185797,5,0
368,304,186063,5,2
256,304,186328,1,0
144,304,186594,1,2
256,224,186859,5,0
368,304,187125,5,0
256,144,187390,1,8
144,304,187656,1,0
256,144,187921,2,8,B|296:56|296:56|200:56|200:56|224:104,1,220
214,82,188983,6,0,B|184:136|184:136|120:112,1,110,4|2
32,80,189514,1,0
136,120,189779,2,0,B|352:192,1,220,2|0
359,302,190576,6,0,B|340:349|188:349|156:301,1,220,2|0
256,248,191372,1,2
360,304,191638,1,0
256,248,191903,2,0,B|184:304|64:272|48:184,1,220,2|0
156,83,192700,6,0,B|188:35|340:35|364:91,1,220,2|0
432,160,193496,1,2
360,80,193762,1,0
296,168,194027,1,2
488,272,194558,1,2
272,296,195089,1,2
256,192,195222,12,0,197479
