osu file format v13

[General]
AudioFilename: deaglebiisi.mp3
AudioLeadIn: 0
PreviewTime: 4865
Countdown: 0
SampleSet: Normal
StackLeniency: 0.7
Mode: 0
LetterboxInBreaks: 1
SkinPreference:Default
WidescreenStoryboard: 1

[Editor]
DistanceSpacing: 0.8
BeatDivisor: 1
GridSize: 4
TimelineZoom: 4.299998

[Metadata]
Title:Jagger Bomb
TitleUnicode:Jagger Bomb
Artist:3LAU
ArtistUnicode:3LAU
Creator:Mara
Version:Pub Hero
Source:
Tags:maroon 5 moves like counter-strike
BeatmapID:458280
BeatmapSetID:192763

[Difficulty]
HPDrainRate:5
CircleSize:4
OverallDifficulty:5
ApproachRate:6
SliderMultiplier:1.4
SliderTickRate:1

[Events]
//Background and Video events
Video,0,"deagle.flv"
0,0,"wallpaper-1335392.jpg",0,0
//Break Periods
//Storyboard Layer 0 (Background)
//Storyboard Layer 1 (Fail)
//Storyboard Layer 2 (Pass)
//Storyboard Layer 3 (Foreground)
//Storyboard Sound Samples
//Background Colour Transformations
3,100,0,0,0

[TimingPoints]
4865,468.75,4,1,1,70,1,0
19855,468.75,4,1,1,70,1,0
34855,-100,4,2,1,70,0,0
35323,-100,4,2,1,60,0,0
35792,-100,4,2,1,50,0,0
36261,-100,4,2,1,40,0,0
36730,-100,4,2,1,30,0,0
37198,-100,4,2,1,20,0,0
37667,-100,4,2,1,10,0,0
38605,-100,4,2,1,50,0,0

[Colours]
Combo1 : 192,192,192
Combo2 : 255,0,0
Combo3 : 0,72,255

[HitObjects]
92,264,4865,5,8,0:0:0:0:
128,156,5333,1,0,0:0:0:0:
232,192,5802,1,0,0:0:0:0:
280,88,6271,1,0,0:0:0:0:
384,136,6740,2,0,P|414:256|323:267,1,140
343,332,7677,2,0,P|279:348|215:276,1,140
164,212,8615,5,0,0:0:0:0:
144,101,9083,1,0,0:0:0:0:
243,49,9552,1,0,0:0:0:0:
324,126,10021,1,0,0:0:0:0:
268,224,10490,2,0,P|319:267|388:270,1,140
344,168,11427,2,0,P|412:158|471:193,1,140
428,296,12365,5,0,0:0:0:0:
316,312,12833,1,0,0:0:0:0:
260,308,13068,1,0,0:0:0:0:
204,304,13302,1,0,0:0:0:0:
92,296,13771,2,0,P|21:237|39:182,1,140
104,120,14708,1,0,0:0:0:0:
152,88,14943,1,0,0:0:0:0:
200,56,15177,1,0,0:0:0:0:
312,68,15646,5,0,0:0:0:0:
396,140,16115,1,0,0:0:0:0:
308,212,16583,1,0,0:0:0:0:
224,140,17052,1,0,0:0:0:0:
312,68,17521,2,0,P|388:25|460:46,2,140,0|0|0,0:0|0:0|0:0,0:0:0:0:
224,140,18927,1,0,0:0:0:0:
448,160,19855,5,8,0:0:0:0:
352,104,20323,1,0,0:0:0:0:
256,44,20792,1,0,0:0:0:0:
164,104,21261,1,0,0:0:0:0:
68,160,21730,2,0,P|128:212|224:208,1,140
180,332,22667,2,0,P|249:341|316:323,1,140
416,272,23605,5,0,0:0:0:0:
464,172,24073,1,0,0:0:0:0:
360,212,24542,1,0,0:0:0:0:
256,248,25011,1,0,0:0:0:0:
200,256,25245,1,0,0:0:0:0:
152,260,25480,1,0,0:0:0:0:
192,152,25948,1,0,0:0:0:0:
96,88,26417,2,0,P|180:36|248:44,1,140,0|0,0:0|0:0,0:0:0:0:
332,44,27355,6,0,P|404:76|440:152,1,140
436,184,28058,1,0,0:0:0:0:
436,240,28292,1,0,0:0:0:0:
408,348,28761,1,0,0:0:0:0:
296,336,29230,2,0,P|224:304|188:228,1,140
192,196,29933,1,0,0:0:0:0:
192,140,30167,1,0,0:0:0:0:
148,36,30636,1,0,0:0:0:0:
112,144,31105,5,0,0:0:0:0:
176,240,31573,1,0,0:0:0:0:
240,144,32042,1,0,0:0:0:0:
304,56,32511,1,0,0:0:0:0:
376,144,32980,1,0,0:0:0:0:
312,240,33448,1,0,0:0:0:0:
272,280,33683,1,0,0:0:0:0:
232,320,33917,1,0,0:0:0:0:
256,192,34855,12,0,38605,0:0:0:0:
