osu file format v12

[General]
AudioFilename: WARNING!.mp3
AudioLeadIn: 0
PreviewTime: 72902
Countdown: 0
SampleSet: Normal
StackLeniency: 0.7
Mode: 0
LetterboxInBreaks: 0
EpilepsyWarning: 1
WidescreenStoryboard: 0

[Editor]
DistanceSpacing: 0.8
BeatDivisor: 4
GridSize: 4
TimelineZoom: 1

[Metadata]
Title:WARNING!
TitleUnicode:WARNING!
Artist:3L, mariapolo
ArtistUnicode:3L・maria♂polo
Creator:LunarSakuya
Version:Normal
Source:Touhou
Tags:reiuji utsuho sun worship of gnosis nuclear fusion dj command njk record meiikyuu eurobeat flash onosakihito subterranean animism
BeatmapID:250547
BeatmapSetID:92435

[Difficulty]
HPDrainRate:4
CircleSize:3
OverallDifficulty:3
ApproachRate:4
SliderMultiplier:1.3
SliderTickRate:2

[Events]
//Background and Video events
0,0,"warning.jpg",0,0
//Break Periods
2,18955,23289
2,108224,118411
//Storyboard Layer 0 (Background)
//Storyboard Layer 1 (Fail)
//Storyboard Layer 2 (Pass)
//Storyboard Layer 3 (Foreground)
Sprite,Foreground,Centre,"nuke\warning2.png",320,240 S,2,96316,96682,0.99,1.01 F,2,96316,97048,1,0 F,0,97048,99243,0.5,0 S,2,97048,99243,1.02,1
Sprite,Foreground,Centre,"nuke\blank.jpg",320,240 F,0,95585,96316,0,0.5 F,1,96316,96682,0.55,0
Sprite,Foreground,Centre,"nuke\nuke.png",320,240 F,0,96682,97048,0,0.35 S,0,96682,102170,1.292572 R,0,96682,102170,0,1 F,0,97048,102170,0.35
Sprite,Foreground,Centre,"nuke\blank.jpg",320,240 F,2,99243,99609,0.4,0
Sprite,Foreground,Centre,"nuke\blank.jpg",320,240 F,0,24609,26073,0,0.6 F,1,26073,26438,0.55,0
Sprite,Foreground,Centre,"nuke\warning2.png",320,240 L,26073,33 F,0,0,365,0.5,0
Sprite,Foreground,Centre,"nuke\blank.jpg",320,240 F,0,11438,12902,0,0.65 F,2,12902,13268,0.55,0
Sprite,Foreground,Centre,"nuke\nuke3.png",320,240 F,0,99243,102170,0.7,0 S,0,99243,102170,1.16988 R,0,99243,102170,0,-1
Sprite,Foreground,Centre,"nuke\warning2.png",320,240 F,0,99243,99975,0.8,0.4 F,2,99975,100341,0.5,0
Sprite,Foreground,Centre,"nuke\blank.jpg",320,240 L,101987,5 F,0,0,46,0.3,0
Sprite,Foreground,Centre,"nuke\warning2.png",320,240 M,2,107475,108024,322,242,327,247 F,2,107475,108024,0.2,0.6 M,0,108024,108390,325,245 F,2,108024,108390,0.6,0
Sprite,Foreground,Centre,"nuke\blank.jpg",320,240 F,2,108024,108390,0.5,0
Sprite,Foreground,Centre,"nuke\nuke2.png",320,240 F,0,12902,13634,0.1,0.5 S,0,12902,18755,1.273696 R,0,12902,18755,0.5,0.8 F,0,13634,14365,0.5,0.1 F,0,14365,15097,0.1,0.5 F,0,15097,15829,0.5,0.1 F,0,15829,16560,0.1,0.5 F,0,16560,18755,0.5,0.1
Sprite,Foreground,Centre,"nuke\blank.jpg",320,240 F,2,17292,17475,0.3,0 F,2,18755,19121,0.5,0
Sprite,Foreground,Centre,"nuke\warning2.png",320,240 F,2,17292,18024,0.6,0.1 F,0,18024,18755,0.1,0.5
Sprite,Foreground,Centre,"nuke\black.jpg",320,240 L,105097,4 F,0,0,183,0.2,0 F,0,105829,106560,0,0.7 F,2,106560,106926,0.9,0.8 F,0,106926,107475,0.8,0
Sprite,Foreground,Centre,"nuke\blank.jpg",320,240 L,72170,4 F,0,0,183,0.2,0
Sprite,Foreground,Centre,"nuke\blank.jpg",320,240 L,154121,4 F,0,0,183,0.2,0
Sprite,Foreground,Centre,"nuke\warning2.png",320,240 M,2,178268,178634,323,242,317,235 F,2,178268,178634,1,0.5 F,0,178634,178999,0.5,0 S,1,178634,178999,1,1.05
Sprite,Foreground,Centre,"nuke\blank.jpg",320,240 F,0,177536,178268,0,0.5 F,2,178268,178635,0.55,0
Sprite,Foreground,Centre,"nuke\warning2.png",320,240 F,2,178999,180097,0.6,0 S,2,178999,181194,1.02,1 F,0,180097,181194,0,0.6 F,2,181194,181926,0.7,0
Sprite,Foreground,Centre,"nuke\blank.jpg",320,240 F,2,181194,181560,0.5,0
Sprite,Foreground,Centre,"nuke\nuke.png",320,240 F,0,178634,181194,0,0.6 M,0,178634,184121,453,292 R,0,178634,184121,-0.05,1 F,0,181194,184121,0.6,0.1
Sprite,Foreground,Centre,"nuke\nuke3.png",320,240 M,0,181194,184121,231,207 F,0,181194,184121,0.1,0.7 S,0,181194,184121,1.151004 R,0,181194,184121,0.5,-0.05
Sprite,Foreground,Centre,"nuke\blank.jpg",320,240 L,183938,5 F,0,0,46,0.3,0
Sprite,Foreground,Centre,"nuke\black.jpg",320,240 L,187048,4 F,0,0,183,0.2,0 F,0,187780,188512,0,0.7 F,2,188512,188877,0.9,0.8 F,0,188877,189426,0.8,0
Sprite,Foreground,Centre,"nuke\warning2.png",320,240 F,2,189426,189609,0.2,0.6 M,2,189426,189975,315,242,316,241 F,2,189609,189975,0.6,0.2 M,0,189975,190341,316,241,324,237 F,2,189975,190341,0.3,0 S,1,189975,191073,0.99,1.02
Sprite,Foreground,Centre,"nuke\blank.jpg",320,240 F,2,189975,190341,0.5,0
Sprite,Foreground,Centre,"nuke\warning2.png",320,240 L,190341,32 F,0,0,365,0.5,0
//Storyboard Sound Samples
//Background Colour Transformations
3,100,163,162,255

[TimingPoints]
1195,365.853658536585,4,1,1,70,1,0
15647,-133.333333333333,4,1,1,70,0,0
16378,-100,4,1,1,70,0,0
16561,-100,4,1,1,45,0,0
16744,-100,4,1,1,50,0,0
16927,-100,4,1,1,55,0,0
17110,-100,4,1,1,60,0,0
17293,-100,4,1,1,70,0,0
32658,-100,4,1,1,50,0,0
32749,-100,4,1,1,70,0,0
34487,-100,4,1,1,50,0,0
34579,-100,4,1,1,70,0,0
37781,-125,4,1,1,70,0,0
37872,-125,4,2,1,70,0,0
47292,-125,4,2,1,60,0,0
47658,-125,4,2,1,50,0,0
48024,-125,4,2,1,70,0,0
49487,-100,4,1,1,70,0,0
72902,-100,4,1,1,70,0,1
96316,-100,4,1,2,45,0,0
96408,-100,4,1,1,70,0,0
99243,-100,4,1,2,40,0,0
99335,-100,4,1,1,70,0,0
106653,-100,4,2,1,70,0,0
107476,-83.3333333333333,4,1,1,70,0,0
108025,-100,4,1,1,70,0,0
154853,-100,4,1,1,70,0,1
178268,-100,4,1,2,45,0,0
178360,-100,4,1,1,70,0,0
181194,-100,4,1,2,40,0,0
181286,-100,4,1,1,70,0,0
189975,-100,4,1,1,60,0,0
190341,-100,4,1,1,50,0,0
190707,-100,4,1,1,70,0,0

[Colours]
Combo1 : 255,51,51
Combo2 : 0,152,225
Combo3 : 255,128,64
Combo4 : 155,126,194

[HitObjects]
256,192,9975,12,4,12902,0:0:0:0:
328,112,13816,6,0,L|364:244,1,130,0|4,0:0|0:0,0:0:0:0:
149,237,14914,2,0,L|184:112,2,130,0|0|4,0:0|0:0|0:0,0:0:0:0:
408,196,16560,6,0,P|397:120|239:54,1,260,0|4,0:0|0:0,0:0:0:0:
200,80,17475,2,0,P|162:126|83:160,2,130,0|8|0,0:0|0:0|0:0,0:0:0:0:
160,44,18390,2,0,L|92:32,2,65,8|0|4,0:0|0:0|0:0,0:0:0:0:
256,192,24609,12,4,26073,0:0:0:0:
100,280,26804,6,2,P|164:256|232:264,1,130,0|10,0:0|0:0,0:0:0:0:
328,272,27536,2,2,P|384:236|404:168,2,130,0|10|2,0:0|0:0|0:0,0:0:0:0:
300,172,28634,1,10,0:0:0:0:
196,160,28999,6,2,P|218:100|272:66,2,130,0|10|2,0:0|0:0|0:0,0:0:0:0:
160,256,30097,1,10,0:0:0:0:
60,228,30463,2,2,P|52:304|56:360,2,130,2|10|2,0:0|0:0|0:0,0:0:0:0:
64,124,31560,1,10,0:0:0:0:
144,56,31926,6,2,P|260:44|344:148,1,260,4|2,0:0|0:0,0:0:0:0:
344,252,33024,1,10,0:0:0:0:
260,316,33390,2,2,L|128:324,2,130,2|10|2,0:0|0:0|0:0,0:0:0:0:
252,212,34487,1,10,0:0:0:0:
148,224,34853,6,2,P|160:156|204:116,1,130,2|10,0:0|0:0,0:0:0:0:
308,128,35585,2,2,P|298:64|252:20,1,130,2|10,0:0|0:0,0:0:0:0:
256,192,36316,12,4,37780,0:0:0:0:
256,308,38694,5,2,0:0:0:0:
396,220,39243,2,0,P|400:148|352:72,2,156,2|0|0,1:2|1:0|1:0,0:0:0:0:
328,268,40707,6,0,B|281:295|225:267|173:239|125:259,1,208,0|0,1:0|0:0,0:0:0:0:
124,92,42170,2,0,B|172:112|224:84|280:56|328:84,1,208
356,160,43268,2,0,P|400:128|408:64,2,104,0|4|0,0:0|0:0|0:0,0:0:0:0:
292,268,44548,6,0,B|224:228|224:228|200:152,1,156,4|4,0:0|0:0,0:0:0:0:
84,108,45646,2,0,L|128:268,1,156,0|0,1:0|1:0,0:0:0:0:
188,316,46560,6,0,P|280:344|380:288,1,208,4|8,0:0|3:0,0:0:0:0:
396,216,47658,1,8,3:0:0:0:
360,140,48024,2,0,P|268:112|168:168,1,208,4|0,0:0|1:0,0:0:0:0:
112,216,49121,1,0,0:0:0:0:
116,300,49487,6,0,P|52:276|24:220,2,130,4|8|0,0:0|0:0|0:0,0:0:0:0:
164,320,50402,2,0,P|228:312|296:320,1,130
344,324,50951,2,0,P|416:316|464:208,2,195,0|0|8,0:0|0:0|0:0,0:0:0:0:
360,220,52414,6,0,B|336:176|356:100|356:100|312:28|224:36,1,260
140,48,53512,1,8,0:0:0:0:
88,136,53877,2,0,B|112:180|92:256|92:256|136:328|224:320,1,260,0|0,0:0|0:0,0:0:0:0:
308,324,54975,2,0,L|380:296,1,65,8|0,0:0|0:0,0:0:0:0:
408,264,55341,6,0,P|404:192|364:144,1,130,4|8,0:0|0:0,0:0:0:0:
272,108,56073,1,0,0:0:0:0:
180,160,56438,1,8,0:0:0:0:
116,240,56804,2,0,P|80:160|132:68,2,195,0|0|8,0:0|0:0|0:0,0:0:0:0:
204,292,58268,6,0,B|272:336|328:296|380:256|460:296,1,260
484,192,59365,1,8,0:0:0:0:
452,92,59731,2,0,B|377:129|325:89|269:49|201:93,1,260,4|4,0:0|0:0,0:0:0:0:
260,176,60829,2,0,L|272:244,1,65,8|0,0:0|0:0,0:0:0:0:
284,292,61194,6,0,P|356:284|416:300,1,130,4|8,0:0|0:0,0:0:0:0:
456,148,62109,1,0,0:0:0:0:
308,92,62658,2,0,B|264:64|216:72|216:72|160:48|112:72,2,195,0|0|8,0:0|0:0|0:0,0:0:0:0:
312,196,64121,6,0,P|288:248|232:292,1,130,0|8,0:0|0:0,0:0:0:0:
164,152,65036,1,0,0:0:0:0:
120,300,65585,2,0,B|84:244|84:244|44:208|32:168|44:128,2,195,0|0|8,0:0|0:0|0:0,0:0:0:0:
220,320,67048,6,0,L|356:308,1,130,4|8,0:0|0:0,0:0:0:0:
440,184,67963,1,0,0:0:0:0:
312,92,68512,2,0,L|336:24,2,65,0|0|8,0:0|0:0|0:0,0:0:0:0:
224,148,69243,2,0,L|244:216,2,65,0|0|8,0:0|0:0|0:0,0:0:0:0:
132,96,69975,6,0,P|60:200|108:312,1,260
156,336,70890,2,0,P|224:340|288:348,1,130
336,360,71438,2,0,B|292:296|336:236|384:168|340:108,1,260,4|4,0:0|2:0,0:0:0:0:
252,160,72536,1,0,0:0:0:0:
252,56,72902,6,0,P|316:28|444:60,2,195,4|0|8,0:0|0:0|0:0,0:0:0:0:
252,160,74365,2,0,P|316:188|444:156,2,195,0|0|8,0:0|0:0|0:0,0:0:0:0:
148,176,75829,6,0,L|16:192,1,130,0|8,0:0|0:0,0:0:0:0:
48,92,76560,2,0,L|112:84,1,65
212,60,77109,2,0,P|304:108|324:192,1,195,0|8,0:0|0:0,0:0:0:0:
292,288,78024,2,0,P|244:324|176:328,1,130,0|8,0:0|0:0,0:0:0:0:
204,228,78755,6,0,P|130:227|44:316,2,195,4|0|8,0:0|0:0|0:0,0:0:0:0:
308,228,80219,2,0,P|381:227|467:316,2,195,0|0|8,0:0|0:0|0:0,0:0:0:0:
240,148,81682,6,0,B|148:104|148:104|92:28,2,195,0|0|8,0:0|0:0|0:0,0:0:0:0:
344,132,83146,2,0,P|400:120|448:120,2,97.5,4|0|0,0:0|0:0|0:0,0:0:0:0:
340,184,83877,2,0,P|292:232|220:252,1,130,4|8,0:0|0:0,0:0:0:0:
136,288,84609,6,0,P|88:204|132:116,2,195,4|0|8,0:0|0:0|0:0,0:0:0:0:
196,200,86073,2,0,P|236:104|188:24,2,195,0|0|8,0:0|0:0|0:0,0:0:0:0:
256,284,87536,6,0,L|384:260,1,130,0|8,0:0|0:0,0:0:0:0:
448,176,88268,2,0,L|436:104,1,65
368,36,88816,2,0,P|336:84|208:108,1,195,0|8,0:0|0:0,0:0:0:0:
104,114,89731,2,0,P|125:174|180:208,1,130,0|8,0:0|0:0,0:0:0:0:
268,259,90463,6,0,P|280:166|208:108,2,195,4|0|8,0:0|0:0|0:0,0:0:0:0:
180,208,91926,2,0,P|108:232|60:336,2,195,0|0|8,0:0|0:0|0:0,0:0:0:0:
268,260,93390,6,0,B|368:264|368:264|464:232,2,195,0|0|8,0:0|0:0|0:0,0:0:0:0:
168,296,94853,2,0,P|112:256|88:196,1,130,4|8,0:0|0:0,0:0:0:0:
156,124,95585,2,0,P|196:80|268:64,1,130,4|8,0:0|0:0,0:0:0:0:
364,88,96316,6,2,L|396:216,1,130,6|2,0:0|0:0,0:0:0:0:
340,300,97048,1,2,0:0:0:0:
184,312,97597,2,2,B|144:232|144:232|92:212|40:236,2,195
248,228,99060,2,0,L|220:168,1,65,8|4,0:0|0:0,0:0:0:0:
140,100,99609,5,0,0:0:0:0:
240,72,99975,2,2,B|316:88|316:88|376:84|424:36,2,195
248,228,101621,1,2,0:0:0:0:
376,316,102170,6,0,L|512:312,2,130,4|8|0,0:0|0:0|0:0,0:0:0:0:
336,220,103268,1,8,0:0:0:0:
292,128,103634,2,0,L|152:132,1,130,0|8,0:0|0:0,0:0:0:0:
92,208,104365,1,0,0:0:0:0:
136,304,104731,1,8,0:0:0:0:
236,328,105097,6,0,P|304:324|352:288,1,130,4|8,0:0|0:0,0:0:0:0:
400,196,105829,2,0,B|308:115|308:115|247:103|172:135,1,260,0|4,0:0|1:2,0:0:0:0:
256,192,106652,12,4,108024,0:0:0:0:
104,216,119731,6,0,P|88:152|104:88,2,130,4|8|0,0:0|0:0|0:0,0:0:0:0:
196,264,120829,1,8,0:0:0:0:
292,300,121194,2,0,P|292:220|200:160,2,195,0|0|8,0:0|0:0|0:0,0:0:0:0:
392,336,122658,6,0,B|416:224|416:224|364:168|356:88,1,260
256,64,123755,1,8,0:0:0:0:
155,93,124121,2,0,B|148:168|96:224|96:224|120:336,1,260
224,340,125219,2,0,L|356:356,2,130,8|4|8,0:0|0:0|0:0,0:0:0:0:
348,248,126499,6,0,P|400:280|468:272,1,130
484,224,127048,2,0,B|424:152|424:152|408:96|456:48,2,195,0|0|8,0:0|0:0|0:0,0:0:0:0:
512,124,128512,6,0,P|392:76|272:120,1,260
212,200,129609,1,8,0:0:0:0:
288,272,129975,2,0,P|171:315|51:267,1,260,4|4,0:0|0:0,0:0:0:0:
40,164,131073,1,8,0:0:0:0:
92,72,131438,6,0,L|184:176,1,130,4|8,0:0|0:0,0:0:0:0:
336,168,132353,2,0,B|392:88|392:88|432:60|488:72,2,195
340,324,133999,1,8,0:0:0:0:
256,264,134365,6,0,P|188:224|224:64,2,260
272,160,136194,1,8,0:0:0:0:
356,220,136560,1,0,0:0:0:0:
380,120,136926,1,8,0:0:0:0:
296,60,137292,6,0,L|164:60,1,130,4|8,0:0|0:0,0:0:0:0:
44,160,138207,1,0,0:0:0:0:
120,296,138755,2,0,B|216:280|216:280|316:296,2,195,0|0|8,0:0|0:0|0:0,0:0:0:0:
140,192,140219,6,0,L|400:144,1,260
432,244,141316,1,8,0:0:0:0:
336,288,141682,2,0,L|256:32,1,260,4|4,0:0|0:0,0:0:0:0:
156,64,142780,1,8,0:0:0:0:
72,124,143146,6,0,P|127:158|194:159,1,130,4|8,0:0|0:0,0:0:0:0:
256,304,144060,2,0,B|292:264|348:284|400:304|440:252,2,195
372,200,145707,2,0,P|384:136|368:72,2,130,8|0|8,0:0|0:0|0:0,0:0:0:0:
216,216,146987,5,0,0:0:0:0:
136,84,147536,2,0,P|84:132|76:264,2,195,0|0|8,0:0|0:0|0:0,0:0:0:0:
236,56,148999,6,0,L|352:128,1,130,4|8,0:0|0:0,0:0:0:0:
388,276,149914,1,0,0:0:0:0:
252,196,150463,2,0,P|236:264|184:304,1,130,0|8,0:0|0:0,0:0:0:0:
144,208,151194,2,0,P|76:216|16:180,1,130,0|8,0:0|0:0,0:0:0:0:
100,116,151926,6,0,P|152:60|308:112,1,260
332,156,152841,2,0,L|256:272,1,130
240,312,153390,2,0,P|368:340|476:276,1,260,4|4,0:0|2:0,0:0:0:0:
448,176,154487,1,0,0:0:0:0:
344,156,154853,6,0,B|364:104|404:80|404:80|508:72,2,195,4|0|8,0:0|0:0|0:0,0:0:0:0:
340,260,156316,2,0,B|284:272|256:308|256:308|228:272|176:260,2,195,0|0|8,0:0|0:0|0:0,0:0:0:0:
344,156,157780,6,0,P|296:104|232:88,1,130,0|8,0:0|0:0,0:0:0:0:
140,108,158512,2,0,L|88:164,1,65
64,256,159060,2,0,P|156:240|248:184,1,195,0|8,0:0|0:0,0:0:0:0:
344,220,159975,2,0,P|308:268|252:308,1,130,0|8,0:0|0:0,0:0:0:0:
176,236,160707,6,0,P|108:192|-8:216,2,195,4|0|8,0:0|0:0|0:0,0:0:0:0:
256,304,162170,2,0,L|256:104,2,195,0|0|8,0:0|0:0|0:0,0:0:0:0:
336,236,163634,6,0,P|404:192|520:216,2,195,0|0|8,0:0|0:0|0:0,0:0:0:0:
276,152,165097,2,0,P|256:105|240:56,2,97.5,4|0|0,0:0|0:0|0:0,0:0:0:0:
252,196,165829,2,0,P|248:264|200:316,1,130,4|8,0:0|0:0,0:0:0:0:
152,224,166560,6,0,B|132:260|76:280|20:300|4:348,2,195,4|0|8,0:0|0:0|0:0,0:0:0:0:
136,120,168024,2,0,P|220:143|259:238,2,195,0|0|8,0:0|0:0|0:0,0:0:0:0:
204,40,169487,6,0,L|336:52,1,130,0|8,0:0|0:0,0:0:0:0:
432,92,170219,2,0,L|396:160,1,65
504,144,170768,2,0,B|464:232|464:232|468:344,1,195,0|8,0:0|0:0,0:0:0:0:
368,360,171682,2,0,L|364:220,1,130,0|8,0:0|0:0,0:0:0:0:
268,188,172414,6,0,P|192:248|96:244,2,195,4|0|8,0:0|0:0|0:0,0:0:0:0:
352,128,173877,2,0,P|441:163|486:248,2,195,0|0|8,0:0|0:0|0:0,0:0:0:0:
268,188,175341,6,0,P|254:92|324:28,2,195,0|0|8,0:0|0:0|0:0,0:0:0:0:
176,236,176804,2,0,L|204:364,1,130,4|8,0:0|0:0,0:0:0:0:
308,364,177536,2,0,L|335:237,1,130,4|8,0:0|0:0,0:0:0:0:
260,168,178268,6,2,L|140:112,1,130,6|2,0:0|0:0,0:0:0:0:
48,68,178999,1,2,0:0:0:0:
124,204,179548,2,2,B|212:244|212:244|245:281|232:336,2,195
184,120,181012,5,0,0:0:0:0:
184,120,181194,2,0,L|328:132,1,130,4|0,0:0|0:0,0:0:0:0:
388,204,181926,2,2,B|300:244|300:244|267:281|280:336,2,195
464,68,183573,1,0,0:0:0:0:
308,60,184121,6,0,P|248:48|180:72,1,130,4|8,0:0|0:0,0:0:0:0:
160,172,184853,2,0,P|116:208|40:224,1,130,0|8,0:0|0:0,0:0:0:0:
96,316,185585,2,0,P|168:312|224:328,1,130,0|8,0:0|0:0,0:0:0:0:
324,308,186316,2,0,P|388:280|424:232,1,130,0|8,0:0|0:0,0:0:0:0:
384,136,187048,5,4,0:0:0:0:
288,96,187414,1,8,0:0:0:0:
224,176,187780,2,0,P|142:184|54:43,1,260,0|4,0:0|0:0,0:0:0:0:
148,96,188877,2,0,P|88:168|116:272,2,195,2|0|6,2:0|0:0|0:0,0:0:0:0:
244,56,190341,5,10,0:0:0:0:
336,104,190707,2,2,P|380:152|400:220,1,130,2|10,0:0|0:0,0:0:0:0:
316,276,191438,2,2,L|184:336,2,130,0|10|2,0:0|0:0|0:0,0:0:0:0:
408,328,192536,1,10,0:0:0:0:
316,276,192902,6,2,P|260:228|240:168,1,130,0|10,0:0|0:0,0:0:0:0:
252,72,193634,2,2,P|192:80|148:132,1,130,0|10,0:0|0:0,0:0:0:0:
128,232,194365,1,2,0:0:0:0:
76,320,194731,2,2,P|136:332|200:304,2,130,10|2|10,0:0|0:0|0:0,0:0:0:0:
32,224,195829,6,2,L|48:92,1,130,4|10,0:0|0:0,0:0:0:0:
152,100,196560,2,2,L|136:232,1,130,0|10,0:0|0:0,0:0:0:0:
220,292,197292,1,2,0:0:0:0:
308,236,197658,2,2,P|364:232|440:240,2,130,10|2|10,0:0|0:0|0:0,0:0:0:0:
236,160,198755,6,2,L|224:92,2,65,2|0|10,0:0|0:0|0:0,0:0:0:0:
192,256,199487,2,2,P|138:239|70:204,1,130,2|10,0:0|0:0,0:0:0:0:
120,112,200219,2,2,P|220:32|332:84,2,260,4|6|4,0:0|0:0|0:0,0:0:0:0:
256,192,201774,12,4,204609,0:0:0:0:
