osu file format v12

[General]
AudioFilename: WARNING!.mp3
AudioLeadIn: 0
PreviewTime: 72902
Countdown: 0
SampleSet: Soft
StackLeniency: 0.7
Mode: 0
LetterboxInBreaks: 0
EpilepsyWarning: 1
WidescreenStoryboard: 0

[Editor]
DistanceSpacing: 1
BeatDivisor: 4
GridSize: 4
TimelineZoom: 1.4

[Metadata]
Title:WARNING!
TitleUnicode:WARNING!
Artist:3L, mariapolo
ArtistUnicode:3L・maria♂polo
Creator:LunarSakuya
Version:Lunatic
Source:Touhou
Tags:reiuji utsuho sun worship of gnosis nuclear fusion dj command njk record meiikyuu eurobeat flash onosakihito subterranean animism
BeatmapID:249904
BeatmapSetID:92435

[Difficulty]
HPDrainRate:7
CircleSize:4
OverallDifficulty:7
ApproachRate:9
SliderMultiplier:1.8
SliderTickRate:2

[Events]
//Background and Video events
0,0,"warning.jpg",0,0
//Break Periods
2,18955,24009
2,108223,119131
//Storyboard Layer 0 (Background)
//Storyboard Layer 1 (Fail)
//Storyboard Layer 2 (Pass)
//Storyboard Layer 3 (Foreground)
Sprite,Foreground,Centre,"nuke\warning2.png",320,240 S,2,96316,96682,0.99,1.01 F,2,96316,97048,1,0 F,0,97048,99243,0.5,0 S,2,97048,99243,1.02,1
Sprite,Foreground,Centre,"nuke\blank.jpg",320,240 F,0,95585,96316,0,0.5 F,1,96316,96682,0.55,0
Sprite,Foreground,Centre,"nuke\nuke.png",320,240 F,0,96682,97048,0,0.35 S,0,96682,102170,1.292572 R,0,96682,102170,0,1 F,0,97048,102170,0.35
Sprite,Foreground,Centre,"nuke\blank.jpg",320,240 F,2,99243,99609,0.4,0
Sprite,Foreground,Centre,"nuke\blank.jpg",320,240 F,0,24609,26073,0,0.6 F,1,26073,26438,0.55,0
Sprite,Foreground,Centre,"nuke\warning2.png",320,240 L,26073,33 F,0,0,365,0.5,0
Sprite,Foreground,Centre,"nuke\blank.jpg",320,240 F,0,11438,12902,0,0.65 F,2,12902,13268,0.55,0
Sprite,Foreground,Centre,"nuke\nuke3.png",320,240 F,0,99243,102170,0.7,0 S,0,99243,102170,1.16988 R,0,99243,102170,0,-1
Sprite,Foreground,Centre,"nuke\warning2.png",320,240 F,0,99243,99975,0.8,0.4 F,2,99975,100341,0.5,0
Sprite,Foreground,Centre,"nuke\blank.jpg",320,240 L,101987,5 F,0,0,46,0.3,0
Sprite,Foreground,Centre,"nuke\warning2.png",320,240 M,2,107475,108024,322,242,327,247 F,2,107475,108024,0.2,0.6 M,0,108024,108390,325,245 F,2,108024,108390,0.6,0
Sprite,Foreground,Centre,"nuke\blank.jpg",320,240 F,2,108024,108390,0.5,0
Sprite,Foreground,Centre,"nuke\nuke2.png",320,240 F,0,12902,13634,0.1,0.5 S,0,12902,18755,1.273696 R,0,12902,18755,0.5,0.8 F,0,13634,14365,0.5,0.1 F,0,14365,15097,0.1,0.5 F,0,15097,15829,0.5,0.1 F,0,15829,16560,0.1,0.5 F,0,16560,18755,0.5,0.1
Sprite,Foreground,Centre,"nuke\blank.jpg",320,240 F,2,17292,17475,0.3,0 F,2,18755,19121,0.5,0
Sprite,Foreground,Centre,"nuke\warning2.png",320,240 F,2,17292,18024,0.6,0.1 F,0,18024,18755,0.1,0.5
Sprite,Foreground,Centre,"nuke\black.jpg",320,240 L,105097,4 F,0,0,183,0.2,0 F,0,105829,106560,0,0.7 F,2,106560,106926,0.9,0.8 F,0,106926,107475,0.8,0
Sprite,Foreground,Centre,"nuke\blank.jpg",320,240 L,72170,4 F,0,0,183,0.2,0
Sprite,Foreground,Centre,"nuke\blank.jpg",320,240 L,154121,4 F,0,0,183,0.2,0
Sprite,Foreground,Centre,"nuke\warning2.png",320,240 M,2,178268,178634,323,242,317,235 F,2,178268,178634,1,0.5 F,0,178634,178999,0.5,0 S,1,178634,178999,1,1.05
Sprite,Foreground,Centre,"nuke\blank.jpg",320,240 F,0,177536,178268,0,0.5 F,2,178268,178635,0.55,0
Sprite,Foreground,Centre,"nuke\warning2.png",320,240 F,2,178999,180097,0.6,0 S,2,178999,181194,1.02,1 F,0,180097,181194,0,0.6 F,2,181194,181926,0.7,0
Sprite,Foreground,Centre,"nuke\blank.jpg",320,240 F,2,181194,181560,0.5,0
Sprite,Foreground,Centre,"nuke\nuke.png",320,240 F,0,178634,181194,0,0.6 M,0,178634,184121,453,292 R,0,178634,184121,-0.05,1 F,0,181194,184121,0.6,0.1
Sprite,Foreground,Centre,"nuke\nuke3.png",320,240 M,0,181194,184121,231,207 F,0,181194,184121,0.1,0.7 S,0,181194,184121,1.151004 R,0,181194,184121,0.5,-0.05
Sprite,Foreground,Centre,"nuke\blank.jpg",320,240 L,183938,5 F,0,0,46,0.3,0
Sprite,Foreground,Centre,"nuke\black.jpg",320,240 L,187048,4 F,0,0,183,0.2,0 F,0,187780,188512,0,0.7 F,2,188512,188877,0.9,0.8 F,0,188877,189426,0.8,0
Sprite,Foreground,Centre,"nuke\warning2.png",320,240 F,2,189426,189609,0.2,0.6 M,2,189426,189975,315,242,316,241 F,2,189609,189975,0.6,0.2 M,0,189975,190341,316,241,324,237 F,2,189975,190341,0.3,0 S,1,189975,191073,0.99,1.02
Sprite,Foreground,Centre,"nuke\blank.jpg",320,240 F,2,189975,190341,0.5,0
Sprite,Foreground,Centre,"nuke\warning2.png",320,240 L,190341,32 F,0,0,365,0.5,0
//Storyboard Sound Samples
//Background Colour Transformations
3,100,163,162,255

[TimingPoints]
1195,365.853658536585,4,1,1,70,1,0
15646,-133.333333333333,4,1,1,70,0,0
16377,-100,4,1,1,70,0,0
16560,-100,4,1,1,45,0,0
16743,-100,4,1,1,50,0,0
16926,-100,4,1,1,55,0,0
17109,-100,4,1,1,60,0,0
17292,-100,4,1,1,70,0,0
37780,-125,4,1,1,70,0,0
37871,-125,4,2,1,70,0,0
47292,-125,4,2,1,60,0,0
47658,-125,4,2,1,50,0,0
48024,-125,4,2,1,75,0,0
49487,-100,4,1,1,70,0,0
72902,-100,4,1,1,70,0,1
96316,-83.3333333333333,4,1,2,45,0,0
96682,-100,4,1,1,70,0,0
99243,-100,4,1,2,40,0,0
99335,-100,4,1,1,70,0,0
106653,-100,4,2,1,70,0,0
107475,-83.3333333333333,4,2,1,70,0,0
108024,-100,4,1,1,70,0,0
154853,-100,4,1,1,70,0,1
178268,-83.3333333333333,4,1,2,45,0,0
178360,-83.3333333333333,4,1,1,70,0,0
178634,-100,4,1,1,70,0,0
181194,-100,4,1,2,40,0,0
181286,-100,4,1,1,70,0,0
188604,-100,4,2,1,70,0,0
189426,-83.3333333333333,4,1,1,70,0,0
189975,-100,4,1,1,70,0,0

[Colours]
Combo1 : 255,51,51
Combo2 : 0,152,225
Combo3 : 255,128,64
Combo4 : 155,126,194

[HitObjects]
256,192,9975,12,4,12902,0:0:0:0:
256,64,13268,5,2,2:0:0:0:
256,64,13634,1,0,2:0:0:0:
336,152,13816,2,0,L|428:132,1,90,0|0,0:0|2:0,0:0:0:0:
300,284,14182,2,0,P|224:248|124:260,1,180,4|0,0:0|2:0,0:0:0:0:
20,196,14731,1,2,2:0:0:0:
116,76,14914,2,0,L|100:172,1,90,0|0,0:0|2:0,0:0:0:0:
260,108,15280,2,0,L|248:16,1,90,0|0,0:0|2:0,0:0:0:0:
368,168,15646,6,0,P|380:224|372:312,2,135.000005149842,4|2|0,2:0|2:0|2:0,0:0:0:0:
264,264,16560,1,0,0:0:0:0:
164,272,16743,1,0,0:0:0:0:
84,212,16926,1,0,0:0:0:0:
80,112,17109,1,0,0:0:0:0:
148,40,17292,1,4,2:0:0:0:
292,184,17475,6,0,L|384:192,1,90,0|0,0:0|0:0,0:0:0:0:
432,80,17841,2,0,L|343:73,1,90,0|8,0:0|0:0,0:0:0:0:
148,40,18207,1,0,0:0:0:0:
156,80,18298,1,0,0:0:0:0:
164,120,18390,1,8,0:0:0:0:
308,264,18573,1,0,0:0:0:0:
300,224,18664,1,0,0:0:0:0:
292,184,18755,1,4,0:0:0:0:
256,192,24609,12,0,25890,2:0:0:0:
296,44,26073,5,6,0:0:0:0:
332,72,26164,1,0,0:0:0:0:
356,108,26255,1,2,0:0:0:0:
372,152,26347,1,0,0:0:0:0:
380,196,26438,2,2,P|376:240|360:288,1,90,8|2,0:0|0:0,0:0:0:0:
240,340,26804,1,2,0:0:0:0:
116,296,26987,1,0,0:0:0:0:
116,296,27079,2,2,P|88:248|96:164,1,135
228,216,27536,5,2,0:0:0:0:
272,212,27627,1,0,0:0:0:0:
312,188,27719,2,2,P|348:160|376:120,1,90,2|10,0:0|0:0,0:0:0:0:
300,24,28085,1,2,0:0:0:0:
196,88,28268,2,2,L|100:68,1,90,2|2,0:0|0:0,0:0:0:0:
40,132,28542,2,2,L|136:152,1,90,2|0,0:0|0:0,0:0:0:0:
184,212,28816,1,2,0:0:0:0:
272,328,28999,5,2,0:0:0:0:
316,316,29092,1,0,0:0:0:0:
352,292,29182,1,0,0:0:0:0:
384,260,29274,1,0,0:0:0:0:
404,220,29365,2,2,P|412:176|416:128,1,90,10|0,0:0|0:0,0:0:0:0:
324,48,29731,1,2,0:0:0:0:
280,156,29914,1,0,0:0:0:0:
280,156,30005,1,0,0:0:0:0:
280,156,30097,2,2,P|228:184|192:192,1,90,8|2,0:0|0:0,0:0:0:0:
112,60,30463,6,2,P|156:72|192:96,1,90
240,324,30829,2,0,L|220:376,1,45,10|0,0:0|0:0,0:0:0:0:
160,324,31012,2,2,L|116:332,1,45,0|2,0:0|0:0,0:0:0:0:
120,252,31194,1,0,0:0:0:0:
120,252,31286,6,2,P|96:208|92:160,1,90,0|2,0:0|0:0,0:0:0:0:
128,92,31560,2,0,L|168:60,1,45,10|0,0:0|0:0,0:0:0:0:
208,128,31743,2,2,L|256:144,1,45,0|0,0:0|0:0,0:0:0:0:
300,80,31926,5,6,0:0:0:0:
300,80,32018,1,0,0:0:0:0:
300,80,32109,2,2,P|340:60|400:60,1,90,0|10,0:0|0:0,0:0:0:0:
368,192,32475,1,2,0:0:0:0:
280,292,32658,2,2,L|192:276,1,90,0|2,0:0|0:0,0:0:0:0:
128,340,32932,2,2,L|216:356,1,90,0|2,0:0|0:0,0:0:0:0:
280,292,33207,1,2,0:0:0:0:
420,344,33390,5,2,0:0:0:0:
452,312,33481,1,0,0:0:0:0:
468,268,33573,2,2,P|480:224|472:176,1,90,0|10,0:0|0:0,0:0:0:0:
376,80,33938,1,2,0:0:0:0:
352,220,34121,2,2,P|316:192|296:144,1,90,0|2,0:0|0:0,0:0:0:0:
214,152,34396,2,2,P|196:192|160:220,1,90,0|2,0:0|0:0,0:0:0:0:
128,140,34670,1,2,0:0:0:0:
48,264,34853,5,2,0:0:0:0:
68,304,34944,1,0,0:0:0:0:
104,332,35036,1,0,0:0:0:0:
148,344,35127,1,0,0:0:0:0:
192,344,35219,2,2,P|240:336|280:316,1,90,8|2,0:0|0:0,0:0:0:0:
308,172,35585,1,2,0:0:0:0:
180,136,35768,1,2,0:0:0:0:
180,136,35859,1,0,0:0:0:0:
180,136,35951,2,2,L|156:48,1,90,8|2,0:0|0:0,0:0:0:0:
92,204,36316,6,2,L|68:304,1,90,4|2,2:0|0:0,0:0:0:0:
112,356,36591,1,2,0:0:0:0:
232,344,36774,2,2,L|224:248,1,90
256,188,37048,2,2,L|296:160,1,45,6|0,2:0|0:0,0:0:0:0:
256,100,37231,2,2,L|264:56,1,45,2|0,0:0|0:0,0:0:0:0:
184,64,37414,2,2,P|144:36|100:32,1,90,10|2,0:0|0:0,0:0:0:0:
68,48,37688,1,0,0:0:0:0:
44,80,37780,6,0,L|56:200,1,108,4|0,0:0|0:0,0:0:0:0:
72,220,38146,2,0,L|112:220|156:220,1,72
232,132,38512,1,2,0:0:0:0:
248,256,38694,2,0,P|256:292|264:340,1,72
376,332,39060,1,0,1:0:0:0:
452,192,39243,2,0,P|385:182|320:233,1,144,4|0,0:0|0:0,0:0:0:0:
186,224,39792,2,0,P|126:182|60:192,1,144,0|0,1:0|0:0,0:0:0:0:
16,108,40341,2,0,P|24:60|28:28,1,72,0|0,1:0|0:0,0:0:0:0:
40,284,40707,6,0,P|100:324|176:300,1,144,2|0,0:0|0:0,0:0:0:0:
256,236,41255,1,0,0:0:0:0:
328,328,41438,1,2,0:0:0:0:
328,328,41804,1,0,0:0:0:0:
384,224,41987,1,0,0:0:0:0:
492,212,42170,6,0,P|484:280|424:324,2,144,2|0|0,0:0|0:0|0:0,0:0:0:0:
428,104,43085,1,0,0:0:0:0:
312,40,43268,1,0,3:0:0:0:
296,72,43359,1,0,3:0:0:0:
292,108,43451,1,0,3:0:0:0:
300,144,43542,1,0,3:0:0:0:
316,176,43634,5,4,0:0:0:0:
68,72,43999,1,0,0:0:0:0:
184,336,44365,1,0,1:0:0:0:
104,272,44548,2,0,P|120:232|128:200,1,72,2|0,0:0|0:0,0:0:0:0:
184,336,44914,1,4,0:0:0:0:
36,212,45097,6,0,P|58:131|68:64,1,144,2|0,0:0|0:0,0:0:0:0:
204,156,45646,2,0,P|220:224|260:292,1,144,0|0,1:0|0:0,0:0:0:0:
356,360,46194,2,0,P|372:320|384:284,1,72,0|0,1:0|1:0,0:0:0:0:
304,112,46560,6,0,P|304:160|432:148,1,216,4|0,0:0|0:0,0:0:0:0:
348,32,47292,1,8,3:0:0:0:
248,44,47475,1,0,0:0:0:0:
116,132,47658,1,8,3:0:0:0:
208,176,47841,1,0,0:0:0:0:
180,360,48024,6,0,P|132:348|148:204,1,216,4|0,0:0|1:0,0:0:0:0:
248,288,48755,1,2,0:0:0:0:
324,200,48938,1,0,1:0:0:0:
424,264,49121,1,2,0:0:0:0:
484,164,49304,1,0,0:0:0:0:
484,164,49396,1,0,0:0:0:0:
484,164,49487,6,0,L|408:100,1,90,4|0,0:0|0:0,0:0:0:0:
292,64,49853,2,0,P|200:48|132:112,1,180,8|0,0:0|0:0,0:0:0:0:
268,248,50402,2,0,L|253:159,1,90,0|8,0:0|0:0,0:0:0:0:
136,216,50768,1,0,0:0:0:0:
216,320,50951,6,0,P|256:336|308:328,1,90
348,180,51316,1,8,0:0:0:0:
168,104,51499,1,0,0:0:0:0:
156,132,51591,1,0,0:0:0:0:
144,160,51682,1,0,0:0:0:0:
216,320,51865,1,0,0:0:0:0:
356,268,52048,2,0,P|359:225|348:180,1,90,8|0,0:0|0:0,0:0:0:0:
168,104,52414,6,0,B|136:72|84:80|32:88|0:48,2,180,0|8|0,0:0|0:0|0:0,0:0:0:0:
328,188,53329,1,0,0:0:0:0:
184,188,53512,1,8,0:0:0:0:
256,52,53694,1,0,0:0:0:0:
344,104,53877,6,0,B|376:72|428:80|480:88|512:48,2,180,0|8|0,0:0|0:0|0:0,0:0:0:0:
256,200,54792,1,0,0:0:0:0:
144,272,54975,1,8,0:0:0:0:
116,236,55066,1,0,0:0:0:0:
100,192,55158,1,0,0:0:0:0:
100,148,55249,1,0,0:0:0:0:
116,104,55341,6,0,P|144:72|188:52,1,90,4|0,0:0|0:0,0:0:0:0:
332,232,55707,2,0,P|304:264|260:284,1,90,8|0,0:0|0:0,0:0:0:0:
196,140,56073,1,0,0:0:0:0:
348,140,56255,2,0,P|388:160|416:196,1,90,0|8,0:0|0:0,0:0:0:0:
384,308,56621,1,0,0:0:0:0:
256,200,56804,6,0,P|220:156|244:40,1,180,0|8,0:0|0:0,0:0:0:0:
128,96,57353,1,0,0:0:0:0:
128,96,57444,1,0,0:0:0:0:
128,96,57536,2,0,P|116:144|96:184,1,90
48,304,57902,2,0,P|92:284|144:272,1,90,8|0,0:0|0:0,0:0:0:0:
296,248,58268,6,0,B|347:252|364:300|380:344|439:348,2,180,0|8|0,0:0|0:0|0:0,0:0:0:0:
292,340,59182,1,0,0:0:0:0:
420,248,59365,1,8,0:0:0:0:
292,156,59548,1,0,0:0:0:0:
164,252,59731,6,0,B|113:248|96:200|80:156|21:152,1,180,4|8,0:0|0:0,0:0:0:0:
24,304,60280,1,0,0:0:0:0:
164,252,60463,1,4,0:0:0:0:
200,252,60554,1,0,0:0:0:0:
236,252,60646,1,0,0:0:0:0:
272,252,60737,1,0,0:0:0:0:
308,252,60829,1,8,0:0:0:0:
232,144,61012,1,0,0:0:0:0:
232,144,61103,1,0,0:0:0:0:
232,144,61194,6,0,P|224:96|232:56,1,90,4|0,0:0|0:0,0:0:0:0:
308,252,61560,2,0,P|316:300|308:340,1,90,8|0,0:0|0:0,0:0:0:0:
216,292,61926,1,0,0:0:0:0:
340,160,62109,2,0,P|380:168|428:160,1,90,0|8,0:0|0:0,0:0:0:0:
384,72,62475,1,0,0:0:0:0:
360,248,62658,6,0,P|300:236|252:136,1,180,0|8,0:0|0:0,0:0:0:0:
196,260,63207,2,0,P|164:192|172:88,1,180
68,176,63755,2,0,P|68:120|76:80,1,90,8|0,0:0|0:0,0:0:0:0:
196,260,64121,6,0,L|104:288,1,90
316,260,64487,2,0,L|408:288,1,90,8|0,0:0|0:0,0:0:0:0:
256,200,64853,1,0,0:0:0:0:
184,62,65036,2,0,B|176:108|176:108|186:151,1,90,0|8,0:0|0:0,0:0:0:0:
325,151,65402,2,0,B|336:108|336:108|328:64,2,90
256,28,65951,5,8,0:0:0:0:
412,24,66134,2,0,B|428:108|428:108|408:200,1,180
228,260,66682,2,0,P|233:217|257:177,1,90,8|0,0:0|0:0,0:0:0:0:
288,144,66957,1,0,0:0:0:0:
316,112,67048,6,0,P|312:60|296:16,1,90,4|0,0:0|0:0,0:0:0:0:
156,152,67414,2,0,L|60:144,1,90,8|0,0:0|0:0,0:0:0:0:
228,88,67780,1,0,0:0:0:0:
228,260,67963,2,0,L|204:360,1,90,0|8,0:0|0:0,0:0:0:0:
300,144,68329,1,0,0:0:0:0:
364,256,68512,6,0,P|396:292|436:312,1,90
228,260,68877,2,0,P|180:269|143:294,1,90,8|0,0:0|0:0,0:0:0:0:
300,144,69243,2,0,P|316:98|313:54,1,90
228,260,69609,2,0,L|300:332,1,90,8|0,0:0|0:0,0:0:0:0:
440,348,69975,6,0,P|488:272|460:192,2,180,0|8|0,0:0|0:0|0:0,0:0:0:0:
292,324,70890,2,0,L|228:260,1,90,0|8,0:0|0:0,0:0:0:0:
308,160,71255,1,0,0:0:0:0:
384,264,71438,5,4,0:0:0:0:
239,103,71621,1,0,0:0:0:0:
252,235,71804,1,0,0:0:0:0:
362,50,71987,1,0,0:0:0:0:
336,188,72170,6,0,L|368:148,1,45,4|0,2:0|0:0,0:0:0:0:
272,260,72353,2,0,L|288:308,1,45
188,200,72536,2,0,L|176:156,1,45
96,252,72719,2,0,L|80:300,1,45
0,164,72902,6,0,P|40:100|144:84,1,180,4|8,0:0|0:0,0:0:0:0:
188,200,73451,2,0,P|148:256|40:260,1,180
188,200,73999,2,0,L|240:280,1,90,8|0,0:0|0:0,0:0:0:0:
328,344,74365,2,0,P|388:344|468:260,1,180,0|8,0:0|0:0,0:0:0:0:
500,140,74914,2,0,P|440:140|360:224,1,180,0|0,0:0|0:0,0:0:0:0:
500,140,75463,2,0,L|472:44,1,90,8|0,0:0|0:0,0:0:0:0:
260,136,75829,6,0,L|288:232,1,90,0|0,0:0|0:0,0:0:0:0:
144,180,76194,2,0,P|134:136|141:92,1,90,8|0,0:0|0:0,0:0:0:0:
308,24,76560,2,0,P|344:50|369:88,1,90,0|0,0:0|0:0,0:0:0:0:
228,256,76926,1,8,0:0:0:0:
260,136,77109,1,0,0:0:0:0:
328,320,77292,2,0,P|376:312|412:288,1,90
440,252,77566,1,0,0:0:0:0:
456,208,77658,2,0,P|460:164|448:116,1,90,8|0,0:0|0:0,0:0:0:0:
332,56,78024,5,0,0:0:0:0:
288,48,78115,1,0,0:0:0:0:
244,60,78207,1,0,0:0:0:0:
212,92,78298,1,0,0:0:0:0:
192,132,78390,1,8,0:0:0:0:
160,160,78481,1,0,0:0:0:0:
116,168,78573,1,0,0:0:0:0:
72,156,78664,1,0,0:0:0:0:
48,120,78755,6,0,P|72:52|176:24,1,180,4|8,0:0|0:0,0:0:0:0:
464,120,79304,2,0,P|440:52|336:24,1,180,0|0,0:0|0:0,0:0:0:0:
212,180,79853,2,0,P|256:192|300:180,1,90,8|0,0:0|0:0,0:0:0:0:
128,128,80219,2,0,B|132:208|132:208|140:256|196:288,1,180,0|8,0:0|0:0,0:0:0:0:
321,284,80768,2,0,B|372:256|380:208|380:208|384:128,1,180
480,88,81316,2,0,L|473:179,1,90,8|0,0:0|0:0,0:0:0:0:
289,170,81682,6,0,L|295:78,1,90,0|0,0:0|0:0,0:0:0:0:
384,36,82048,1,8,0:0:0:0:
368,216,82231,2,0,P|320:252|208:220,1,180
80,264,82780,2,0,L|64:364,1,90,8|0,0:0|0:0,0:0:0:0:
100,160,83146,2,0,L|84:60,1,90,4|0,0:0|0:0,0:0:0:0:
104,48,83420,1,0,0:0:0:0:
136,40,83512,2,0,P|184:44|236:68,1,90,8|0,0:0|0:0,0:0:0:0:
296,156,83877,1,0,0:0:0:0:
224,272,84060,2,0,L|208:316,2,45,0|0|8,0:0|0:0|0:0,0:0:0:0:
368,320,84426,1,0,0:0:0:0:
368,320,84518,1,0,0:0:0:0:
368,320,84609,6,0,P|444:280|452:180,1,180,4|8,0:0|0:0,0:0:0:0:
344,40,85158,2,0,P|316:84|348:204,1,180
368,320,85707,2,0,L|276:344,1,90,8|0,0:0|0:0,0:0:0:0:
144,320,86073,2,0,P|68:280|60:180,1,180,0|8,0:0|0:0,0:0:0:0:
168,40,86621,2,0,P|196:84|164:204,1,180
168,40,87170,2,0,L|272:20,1,90,8|0,0:0|0:0,0:0:0:0:
404,40,87536,6,0,P|432:96|432:128,1,90
332,244,87902,2,0,P|304:188|304:156,1,90,8|0,0:0|0:0,0:0:0:0:
440,240,88268,2,0,L|492:240,2,45
344,336,88634,1,8,0:0:0:0:
204,320,88816,1,0,0:0:0:0:
204,320,88908,1,0,0:0:0:0:
204,320,88999,6,0,B|136:348|88:340|72:328|72:328|32:292,1,180,0|8,0:0|0:0,0:0:0:0:
24,156,89548,1,0,0:0:0:0:
160,192,89731,2,0,B|208:176|256:196,1,90,0|0,0:0|0:0,0:0:0:0:
288,212,90005,1,0,0:0:0:0:
324,236,90097,2,0,L|364:268,1,45,8|0,0:0|0:0,0:0:0:0:
460,220,90280,2,0,L|480:160,1,45
450,71,90463,6,0,P|364:61|304:124,1,180,4|8,0:0|0:0,0:0:0:0:
208,264,91012,2,0,P|144:328|60:316,1,180,0|0,0:0|0:0,0:0:0:0:
60,160,91560,2,0,P|82:199|117:233,1,90,8|0,0:0|0:0,0:0:0:0:
292,332,91926,2,0,B|340:316|384:328|384:328|400:284|440:256,1,180,0|8,0:0|0:0,0:0:0:0:
456,148,92475,1,0,0:0:0:0:
324,80,92658,1,0,0:0:0:0:
332,224,92841,1,0,0:0:0:0:
324,80,93024,1,8,0:0:0:0:
196,28,93207,1,0,0:0:0:0:
196,28,93298,1,0,0:0:0:0:
196,28,93390,6,0,B|164:120|164:120|136:152|88:156,1,180,0|8,0:0|0:0,0:0:0:0:
32,272,93938,2,0,B|76:328|76:328|132:328|200:344,1,180,0|0,0:0|0:0,0:0:0:0:
320,288,94487,2,0,P|328:244|332:196,1,90,8|0,0:0|0:0,0:0:0:0:
176,92,94853,2,0,P|168:136|164:184,1,90,4|0,0:0|0:0,0:0:0:0:
164,220,95127,1,0,0:0:0:0:
168,260,95219,2,0,P|176:308|188:352,1,90,8|0,0:0|0:0,0:0:0:0:
404,272,95585,2,0,P|412:228|416:180,1,90,4|0,0:0|0:0,0:0:0:0:
416,144,95859,1,0,0:0:0:0:
412,104,95951,2,0,P|404:56|392:12,1,90,8|0,0:0|0:0,0:0:0:0:
208,196,96316,6,2,P|272:194|307:57,1,215.999993408203,6|2,0:0|0:0,0:0:0:0:
296,84,97048,6,2,L|260:268,1,180,10|0,0:0|0:0,0:0:0:0:
340,332,97597,2,2,L|376:152,1,180,2|0,0:0|0:0,0:0:0:0:
200,124,98146,2,2,L|164:304,1,180,10|0,0:0|0:0,0:0:0:0:
80,248,98694,2,2,L|100:160,1,90
60,348,99060,1,8,0:0:0:0:
200,124,99243,5,6,0:0:0:0:
448,32,99609,1,0,0:0:0:0:
200,124,99975,2,2,B|224:156|272:168|272:168|368:152,1,180,10|0,0:0|0:0,0:0:0:0:
248,56,100524,2,2,P|172:44|116:120,1,180,2|0,0:0|0:0,0:0:0:0:
216,248,101073,2,2,L|400:216,1,180,8|2,0:0|0:0,0:0:0:0:
388,304,101621,2,2,L|296:320,1,90,0|0,0:0|0:0,0:0:0:0:
108,304,101987,2,0,L|84:324,3,22.5
116,292,102170,6,0,L|104:196,1,90,4|0,0:0|0:0,0:0:0:0:
256,236,102536,2,0,L|256:146,1,90,8|0,0:0|0:0,0:0:0:0:
396,292,102902,2,0,L|407:202,1,90,0|0,0:0|0:0,0:0:0:0:
484,92,103268,1,8,0:0:0:0:
406,202,103451,2,0,P|360:208|312:200,2,90
299,69,103999,2,0,P|256:60|212:68,1,90,8|0,0:0|0:0,0:0:0:0:
105,202,104365,2,0,P|152:208|200:200,1,90
20,168,104731,2,0,P|16:212|36:260,1,90,8|0,0:0|0:0,0:0:0:0:
52,288,105005,1,0,0:0:0:0:
84,312,105097,5,4,0:0:0:0:
196,344,105280,1,0,0:0:0:0:
308,312,105463,1,0,0:0:0:0:
420,344,105646,1,0,0:0:0:0:
472,228,105829,1,0,0:0:0:0:
472,204,105920,1,0,0:0:0:0:
472,180,106012,1,0,0:0:0:0:
472,156,106103,1,0,0:0:0:0:
464,136,106194,1,0,0:0:0:0:
452,116,106286,1,0,0:0:0:0:
440,96,106377,1,0,0:0:0:0:
428,80,106469,1,0,0:0:0:0:
416,64,106560,1,4,0:0:0:0:
288,292,106926,6,0,P|224:216|228:140,1,180,2|0,0:0|0:0,0:0:0:0:
53,242,107475,6,0,P|180:96|228:140,1,323.999990112305,0|4,0:0|0:0,0:0:0:0:
96,248,119731,6,0,L|180:280,1,90,4|0,0:0|0:0,0:0:0:0:
328,308,120097,2,0,L|292:216,1,90,8|0,0:0|0:0,0:0:0:0:
196,112,120463,1,0,0:0:0:0:
96,248,120646,1,0,0:0:0:0:
196,112,120829,1,8,0:0:0:0:
220,280,121012,1,0,0:0:0:0:
112,108,121194,6,0,P|153:39|253:47,1,180,0|8,0:0|0:0,0:0:0:0:
272,192,121743,1,0,0:0:0:0:
272,192,121835,1,0,0:0:0:0:
272,192,121926,2,0,L|252:292,1,90
376,136,122292,2,0,L|356:36,1,90,8|0,0:0|0:0,0:0:0:0:
342,227,122659,6,0,B|404:244|444:204|444:204|476:192|512:208,1,180,0|8,0:0|0:0,0:0:0:0:
256,256,123208,1,0,0:0:0:0:
160,136,123391,2,0,P|163:84|179:44,1,90,0|0,0:0|0:0,0:0:0:0:
335,48,123756,2,0,P|349:84|352:136,1,90,8|0,0:0|0:0,0:0:0:0:
165,228,124122,6,0,B|108:244|68:204|68:204|36:192|-4:208,1,180,0|8,0:0|0:0,0:0:0:0:
112,340,124670,1,0,0:0:0:0:
244,200,124853,2,0,L|232:156,2,45
344,320,125220,1,8,0:0:0:0:
372,284,125311,1,0,0:0:0:0:
388,240,125403,1,0,0:0:0:0:
392,196,125494,1,0,0:0:0:0:
384,152,125586,6,0,L|360:64,1,90,4|0,0:0|0:0,0:0:0:0:
128,152,125952,2,0,L|151:65,1,90,8|0,0:0|0:0,0:0:0:0:
256,188,126317,1,0,0:0:0:0:
164,276,126500,2,0,P|120:280|76:268,1,90,0|8,0:0|0:0,0:0:0:0:
128,152,126866,1,0,0:0:0:0:
256,188,127049,6,0,P|300:272|268:356,1,180,0|8,0:0|0:0,0:0:0:0:
256,188,127598,2,0,P|256:136|272:96,1,90
408,72,127964,1,0,0:0:0:0:
484,204,128147,2,0,P|444:224|392:228,1,90,8|0,0:0|0:0,0:0:0:0:
256,188,128513,6,0,B|203:180|174:151|174:151|140:117|93:111,2,180,0|8|0,0:0|0:0|0:0,0:0:0:0:
416,164,129427,1,0,0:0:0:0:
320,56,129610,1,8,0:0:0:0:
256,188,129793,1,0,0:0:0:0:
256,188,129885,1,0,0:0:0:0:
256,188,129976,2,0,P|284:240|312:264,1,90,4|0,0:0|0:0,0:0:0:0:
488,196,130342,2,0,P|492:156|476:104,1,90,8|0,0:0|0:0,0:0:0:0:
276,32,130708,6,0,L|292:84,1,45
220,108,130891,2,0,L|208:152,1,45
248,216,131074,1,8,0:0:0:0:
160,304,131256,1,0,0:0:0:0:
160,304,131348,1,0,0:0:0:0:
160,304,131439,6,0,P|116:272|96:232,1,90,4|0,0:0|0:0,0:0:0:0:
352,304,131805,2,0,P|396:272|416:232,1,90,8|0,0:0|0:0,0:0:0:0:
188,216,132171,1,0,0:0:0:0:
332,216,132354,2,0,L|320:120,1,90,0|8,0:0|0:0,0:0:0:0:
156,44,132720,5,0,0:0:0:0:
156,44,132811,1,0,0:0:0:0:
156,44,132903,2,0,L|168:140,1,90,0|0,0:0|0:0,0:0:0:0:
332,216,133269,1,8,0:0:0:0:
80,152,133452,2,0,L|104:340,1,180
216,256,133999,2,0,P|232:208|240:168,1,90,8|0,0:0|0:0,0:0:0:0:
320,52,134366,6,0,P|336:96|456:136,2,180,0|8|0,0:0|0:0|0:0,0:0:0:0:
416,48,135281,1,0,0:0:0:0:
448,224,135464,1,8,0:0:0:0:
416,48,135647,1,0,0:0:0:0:
336,204,135829,6,0,P|304:272|200:300,1,180,0|8,0:0|0:0,0:0:0:0:
104,240,136377,2,0,L|76:284,2,45
112,120,136743,1,0,0:0:0:0:
0,256,136926,2,0,P|8:304|28:340,1,90,8|0,0:0|0:0,0:0:0:0:
260,272,137292,6,0,L|320:192,1,90,4|0,0:0|0:0,0:0:0:0:
272,48,137658,2,0,L|328:120,1,90,8|0,0:0|0:0,0:0:0:0:
416,240,138024,1,0,0:0:0:0:
304,344,138207,2,0,P|256:352|204:340,1,90,0|8,0:0|0:0,0:0:0:0:
88,268,138574,1,0,0:0:0:0:
260,272,138755,6,0,P|276:188|224:100,1,180,0|8,0:0|0:0,0:0:0:0:
176,208,139305,2,0,B|216:208|264:184|308:160|352:160,1,180
432,252,139854,2,0,P|388:268|340:268,1,90,8|0,0:0|0:0,0:0:0:0:
332,72,140220,6,0,P|412:56|500:104,2,180,0|8|0,0:0|0:0|0:0,0:0:0:0:
200,164,141135,1,0,0:0:0:0:
312,164,141317,1,8,0:0:0:0:
180,72,141500,5,0,0:0:0:0:
180,72,141592,1,0,0:0:0:0:
180,72,141683,2,0,P|100:56|12:104,2,180,4|8|4,0:0|0:0|0:0,0:0:0:0:
272,208,142598,1,0,0:0:0:0:
280,252,142689,1,0,0:0:0:0:
288,292,142781,1,8,0:0:0:0:
88,228,142964,1,0,0:0:0:0:
96,184,143055,1,0,0:0:0:0:
104,144,143146,6,0,L|120:52,1,90,4|0,0:0|0:0,0:0:0:0:
272,208,143512,2,0,L|320:124,1,90,8|0,0:0|0:0,0:0:0:0:
424,232,143877,1,0,0:0:0:0:
288,336,144060,2,0,L|192:324,1,90,0|8,0:0|0:0,0:0:0:0:
172,176,144426,1,0,0:0:0:0:
320,200,144609,6,0,P|392:160|436:72,1,180,0|8,0:0|0:0,0:0:0:0:
200,108,145158,2,0,P|280:124|356:64,1,180
352,280,145708,2,0,P|304:276|260:260,1,90,8|0,0:0|0:0,0:0:0:0:
200,108,146074,6,0,L|180:16,1,90
324,256,146439,2,0,L|344:348,1,90,8|0,0:0|0:0,0:0:0:0:
180,216,146805,2,0,L|84:240,1,90
152,340,147171,2,0,L|248:316,1,90,8|0,0:0|0:0,0:0:0:0:
432,276,147537,6,0,P|368:224|272:232,1,180,0|8,0:0|0:0,0:0:0:0:
152,340,148086,2,0,P|88:332|16:248,1,180
52,96,148635,2,0,P|92:72|140:64,1,90,8|0,0:0|0:0,0:0:0:0:
156,68,148909,1,0,0:0:0:0:
176,80,149000,6,0,L|224:168,1,90,4|0,0:0|0:0,0:0:0:0:
392,140,149366,2,0,L|440:228,1,90,8|0,0:0|0:0,0:0:0:0:
292,320,149732,1,0,0:0:0:0:
224,204,149915,2,0,L|295:148,1,90,0|8,0:0|0:0,0:0:0:0:
184,80,150281,1,0,0:0:0:0:
136,192,150464,6,0,P|144:232|172:276,1,90
342,273,150830,2,0,P|368:232|376:192,1,90,8|0,0:0|0:0,0:0:0:0:
169,110,151194,2,0,P|145:148|136:192,1,90
376,192,151560,2,0,P|366:148|342:111,1,90,8|0,0:0|0:0,0:0:0:0:
64,216,151926,6,0,B|69:225|69:225|64:235|64:235|74:240|74:240|69:250|69:250|79:255|79:255|73:265|73:265|83:271|83:271|78:281|78:281|88:286|88:286|83:296|83:296|93:301|93:301|87:311|87:311|97:316|97:316|92:326|92:326|102:332|102:332|100:344|100:344|107:347|107:347|112:360,1,180,0|8,0:0|0:0,0:0:0:0:
224,300,152476,1,0,0:0:0:0:
192,172,152659,1,0,0:0:0:0:
308,88,152842,2,0,P|300:136|300:184,2,90,0|8|0,0:0|0:0|0:0,0:0:0:0:
408,208,153391,5,4,0:0:0:0:
320,300,153574,1,0,0:0:0:0:
192,300,153756,1,0,0:0:0:0:
96,208,153939,1,0,0:0:0:0:
96,76,154121,6,0,L|84:124,1,45,4|0,2:0|0:0,0:0:0:0:
196,104,154304,2,0,L|196:149,1,45
316,104,154487,2,0,L|316:149,1,45
416,76,154670,2,0,L|426:119,1,45
460,248,154853,6,0,P|368:272|288:244,1,180,4|8,0:0|0:0,0:0:0:0:
164,148,155402,2,0,P|131:235|166:316,1,180
316,340,155952,2,0,P|360:321|397:292,1,90,8|0,0:0|0:0,0:0:0:0:
412,148,156317,2,0,P|360:69|280:53,1,180,0|8,0:0|0:0,0:0:0:0:
400,268,156866,2,0,P|456:256|516:152,1,180
320,244,157415,2,0,P|324:292|344:336,1,90,8|0,0:0|0:0,0:0:0:0:
252,88,157781,6,0,P|200:72|160:72,1,90
164,296,158147,2,0,P|199:295|251:279,1,90,8|0,0:0|0:0,0:0:0:0:
112,192,158513,2,0,P|60:180|24:164,1,90
72,40,158878,1,8,0:0:0:0:
228,56,159061,1,0,0:0:0:0:
228,56,159153,1,0,0:0:0:0:
228,56,159244,2,0,B|245:117|337:-42|333:137|385:93,1,180,0|8,0:0|0:0,0:0:0:0:
492,72,159793,1,0,0:0:0:0:
412,208,159976,5,0,0:0:0:0:
368,224,160067,1,0,0:0:0:0:
324,240,160159,1,0,0:0:0:0:
284,256,160250,1,0,0:0:0:0:
240,272,160342,1,8,0:0:0:0:
200,288,160433,1,0,0:0:0:0:
156,304,160525,1,0,0:0:0:0:
116,320,160616,1,0,0:0:0:0:
72,336,160708,6,0,B|32:284|32:284|24:224|56:172,1,180,4|8,0:0|0:0,0:0:0:0:
256,340,161256,2,0,B|296:288|296:288|304:228|272:176,1,180,0|0,0:0|0:0,0:0:0:0:
188,112,161805,2,0,P|172:156|172:200,1,90,8|0,0:0|0:0,0:0:0:0:
376,296,162171,2,0,P|368:216|332:124,1,180,0|8,0:0|0:0,0:0:0:0:
96,208,162720,2,0,P|100:124|144:36,1,180,0|0,0:0|0:0,0:0:0:0:
220,172,163269,2,0,P|256:204|300:224,1,90,8|0,0:0|0:0,0:0:0:0:
488,176,163635,6,0,P|456:136|336:128,1,180,0|8,0:0|0:0,0:0:0:0:
176,128,164183,2,0,P|56:136|24:176,1,180,0|0,0:0|0:0,0:0:0:0:
256,240,164732,2,0,L|256:144,1,90,8|0,0:0|0:0,0:0:0:0:
300,328,165098,2,0,P|256:336|212:328,1,90,4|0,0:0|0:0,0:0:0:0:
176,304,165372,1,0,0:0:0:0:
152,268,165464,2,0,P|108:224|56:192,1,90,8|0,0:0|0:0,0:0:0:0:
44,92,165830,1,0,0:0:0:0:
160,48,166013,1,0,0:0:0:0:
172,48,166104,1,0,0:0:0:0:
184,48,166195,1,8,0:0:0:0:
352,48,166378,1,0,0:0:0:0:
340,48,166469,1,0,0:0:0:0:
328,48,166561,6,0,B|324:96|368:128|408:156|404:204,1,180,4|8,0:0|0:0,0:0:0:0:
384,364,167109,2,0,B|388:316|348:288|304:256|308:208,1,180
208,208,167658,1,8,0:0:0:0:
128,324,167841,1,0,0:0:0:0:
148,144,168024,2,0,B|204:108|264:144|264:144|304:92,1,180,0|8,0:0|0:0,0:0:0:0:
76,96,168573,2,0,P|64:168|144:228,1,180
328,184,169121,2,0,L|384:112,1,90,8|0,0:0|0:0,0:0:0:0:
344,288,169488,6,0,L|360:380,1,90
240,248,169853,2,0,L|144:228,1,90,8|0,0:0|0:0,0:0:0:0:
84,120,170220,1,0,0:0:0:0:
84,120,170310,1,0,0:0:0:0:
84,120,170403,1,0,0:0:0:0:
188,40,170586,1,8,0:0:0:0:
292,136,170768,1,0,0:0:0:0:
296,160,170859,1,0,0:0:0:0:
300,184,170951,6,0,P|272:232|156:224,1,180,0|8,0:0|0:0,0:0:0:0:
68,360,171499,2,0,L|160:344,1,90
308,232,171865,1,0,0:0:0:0:
304,208,171957,1,0,0:0:0:0:
300,184,172048,1,8,0:0:0:0:
296,160,172140,1,0,0:0:0:0:
292,136,172231,1,0,0:0:0:0:
288,112,172323,1,0,0:0:0:0:
284,88,172414,6,0,P|372:68|448:120,1,180,4|8,0:0|0:0,0:0:0:0:
428,320,172964,2,0,B|388:248|388:248|372:148,1,180
304,300,173513,2,0,L|344:380,1,90,8|0,0:0|0:0,0:0:0:0:
168,380,173878,2,0,B|208:296|208:296|208:208,1,180,0|8,0:0|0:0,0:0:0:0:
152,84,174427,1,0,0:0:0:0:
100,208,174610,1,0,0:0:0:0:
256,84,174792,1,0,0:0:0:0:
308,208,174976,1,8,0:0:0:0:
396,80,175158,1,0,0:0:0:0:
396,80,175249,1,0,0:0:0:0:
396,80,175341,6,0,B|320:68|256:84|256:84|212:52,1,180,0|8,0:0|0:0,0:0:0:0:
404,160,175890,2,0,P|312:152|227:170,1,180
404,160,176438,2,0,P|452:144|488:128,1,90,8|0,0:0|0:0,0:0:0:0:
226,170,176804,2,0,P|200:208|172:248,1,90,4|0,0:0|0:0,0:0:0:0:
128,304,177079,1,0,0:0:0:0:
128,304,177170,2,0,P|72:328|32:336,1,90,8|0,0:0|0:0,0:0:0:0:
340,296,177536,2,0,L|432:316,1,90,4|0,0:0|0:0,0:0:0:0:
488,268,177810,1,0,0:0:0:0:
488,268,177902,2,0,P|496:220|496:176,1,90,8|0,0:0|0:0,0:0:0:0:
256,188,178268,6,0,B|188:176|188:176|128:136|128:136|44:116,1,215.999993408203,4|0,0:0|0:0,0:0:0:0:
188,280,179000,6,0,P|96:264|0:284,1,180,10|0,0:0|0:0,0:0:0:0:
256,188,179549,2,0,P|272:96|252:0,1,180,2|0,0:0|0:0,0:0:0:0:
324,280,180098,2,0,P|416:296|512:276,1,180,10|0,0:0|0:0,0:0:0:0:
256,188,180647,2,2,P|184:132|80:120,1,180,2|0,0:0|0:0,0:0:0:0:
52,232,181195,5,6,0:0:0:0:
472,92,181561,1,0,0:0:0:0:
472,92,181927,2,0,B|428:136|372:140|372:140|308:120,1,180,10|0,0:0|0:0,0:0:0:0:
40,92,182475,2,0,B|84:136|140:140|140:140|204:120,1,180,2|0,0:0|0:0,0:0:0:0:
372,240,183024,2,2,P|316:208|200:208,1,180,10|2,0:0|0:0,0:0:0:0:
72,332,183573,2,2,P|116:340|168:336,1,90,0|0,0:0|0:0,0:0:0:0:
336,280,183938,2,0,L|360:300,3,22.5
348,264,184121,6,0,L|404:192,1,90,4|0,0:0|0:0,0:0:0:0:
153,63,184487,2,0,L|184:148,1,90,8|0,0:0|0:0,0:0:0:0:
328,148,184853,2,0,L|358:63,1,90
100,200,185219,2,0,L|164:264,1,90,8|0,0:0|0:0,0:0:0:0:
256,170,185585,2,0,L|256:80,1,90
412,200,185951,2,0,L|348:264,1,90,8|0,0:0|0:0,0:0:0:0:
168,104,186316,2,0,L|80:125,1,90,0|0,0:0|0:0,0:0:0:0:
344,104,186682,2,0,L|431:125,1,90,8|0,0:0|0:0,0:0:0:0:
217,25,187049,5,4,0:0:0:0:
168,104,187231,1,0,0:0:0:0:
118,182,187414,1,0,0:0:0:0:
68,261,187597,1,0,0:0:0:0:
216,338,187780,1,0,0:0:0:0:
220,318,187871,1,0,0:0:0:0:
224,299,187963,1,0,0:0:0:0:
228,279,188054,1,0,0:0:0:0:
232,260,188146,1,0,0:0:0:0:
235,240,188237,1,0,0:0:0:0:
239,220,188329,1,0,0:0:0:0:
243,201,188420,1,0,0:0:0:0:
247,181,188512,1,4,0:0:0:0:
512,260,188877,6,0,P|429:200|360:219,1,180,2|0,0:0|0:0,0:0:0:0:
124,188,189426,6,0,P|230:295|360:218,1,323.999990112305,0|6,2:0|0:0,0:0:0:0:
372,176,190067,5,0,0:0:0:0:
368,128,190158,1,2,0:0:0:0:
240,48,190341,2,2,P|192:60|152:72,1,90,8|2,0:0|0:0,0:0:0:0:
20,200,190707,2,2,P|20:152|28:104,1,90,0|2,0:0|0:0,0:0:0:0:
100,160,190982,2,2,P|100:200|96:256,1,90
44,312,191256,1,2,0:0:0:0:
188,192,191439,5,2,0:0:0:0:
232,176,191531,1,0,0:0:0:0:
276,172,191622,1,0,0:0:0:0:
320,180,191714,1,0,0:0:0:0:
360,200,191805,2,2,P|392:228|424:264,1,90,8|2,0:0|0:0,0:0:0:0:
480,164,192171,1,2,0:0:0:0:
376,104,192354,1,0,0:0:0:0:
376,104,192445,1,0,0:0:0:0:
376,104,192537,2,2,P|380:56|392:8,1,90,8|2,0:0|0:0,0:0:0:0:
268,144,192903,5,2,0:0:0:0:
256,188,192994,1,0,0:0:0:0:
232,224,193086,1,0,0:0:0:0:
200,252,193177,1,0,0:0:0:0:
156,268,193269,2,2,P|108:272|60:264,1,90,8|2,0:0|0:0,0:0:0:0:
116,176,193635,1,2,0:0:0:0:
256,328,193817,1,0,0:0:0:0:
256,328,193909,1,0,0:0:0:0:
256,328,194000,2,2,L|356:332,1,90,8|2,0:0|0:0,0:0:0:0:
256,188,194366,6,2,P|232:148|216:100,1,90
380,48,194732,2,0,L|368:96,1,45,10|0,0:0|0:0,0:0:0:0:
428,136,194915,2,0,L|440:184,1,45,2|0,0:0|0:0,0:0:0:0:
472,248,195098,1,0,0:0:0:0:
472,248,195189,2,2,P|424:268|384:280,1,90,0|2,0:0|0:0,0:0:0:0:
312,264,195464,2,0,L|268:260,1,45,8|0,0:0|0:0,0:0:0:0:
204,308,195647,2,2,L|164:280,1,45,0|0,0:0|0:0,0:0:0:0:
120,220,195830,5,6,0:0:0:0:
120,220,195921,1,0,0:0:0:0:
120,220,196013,2,2,P|124:168|128:120,1,90,0|10,0:0|0:0,0:0:0:0:
96,24,196378,1,0,0:0:0:0:
236,76,196561,2,2,L|320:44,1,90
388,100,196836,2,2,L|380:208,1,90,0|2,0:0|0:0,0:0:0:0:
304,216,197110,1,0,0:0:0:0:
472,184,197293,5,2,0:0:0:0:
472,228,197385,1,0,0:0:0:0:
456,272,197476,1,0,0:0:0:0:
428,308,197567,1,0,0:0:0:0:
388,328,197659,2,2,P|348:340|296:344,1,90,10|2,0:0|0:0,0:0:0:0:
196,316,198025,1,2,0:0:0:0:
136,196,198208,1,0,0:0:0:0:
104,228,198299,1,0,0:0:0:0:
88,268,198391,2,2,P|80:312|88:356,1,90,8|2,0:0|0:0,0:0:0:0:
240,224,198756,5,2,0:0:0:0:
244,180,198848,1,0,0:0:0:0:
232,136,198939,1,0,0:0:0:0:
204,100,199031,1,0,0:0:0:0:
164,80,199122,2,2,P|120:68|72:64,1,90,10|0,0:0|0:0,0:0:0:0:
348,80,199488,2,2,P|392:68|440:64,1,90,2|0,0:0|0:0,0:0:0:0:
428,140,199763,2,2,L|400:228,1,90,2|0,0:0|0:0,0:0:0:0:
432,296,200037,1,2,0:0:0:0:
312,364,200220,6,0,P|280:328|264:288,1,90,4|0,2:0|0:0,0:0:0:0:
224,216,200494,2,2,L|116:232,1,90,2|2,0:0|0:0,0:0:0:0:
168,132,200769,1,0,0:0:0:0:
172,124,200860,1,2,0:0:0:0:
176,116,200952,1,0,0:0:0:0:
180,108,201043,1,0,0:0:0:0:
184,100,201135,2,2,P|232:96|284:84,1,90,0|10,0:0|0:0,0:0:0:0:
384,184,201500,5,0,0:0:0:0:
392,224,201592,1,0,0:0:0:0:
400,264,201683,1,4,0:0:0:0:
256,192,201775,12,4,204610,0:0:0:0:
