osu file format v11

[General]
AudioFilename: 3L - Three Magic.mp3
AudioLeadIn: 0
PreviewTime: 62917
Countdown: 0
SampleSet: Normal
StackLeniency: 0.7
Mode: 0
LetterboxInBreaks: 1

[Editor]
DistanceSpacing: 1
BeatDivisor: 4
GridSize: 4

[Metadata]
Title:Three Magic
TitleUnicode:Three Magic
Artist:3L
ArtistUnicode:3L
Creator:cRyo[iceeicee]
Version:Normal
Source:Touhou
Tags:mythol xsrsbsns cilvery kanpakyin aabc271 AIRMAN Kite ryuu angel time digital wing emotional skyscraper cosmic mind byakuren hijiri
BeatmapID:181636
BeatmapSetID:59631

[Difficulty]
HPDrainRate:3
CircleSize:3
OverallDifficulty:3
ApproachRate:4
SliderMultiplier:1.2
SliderTickRate:1

[Events]
//Background and Video events
0,0,"BG.jpg"
//Break Periods
2,155718,167932
//Storyboard Layer 0 (Background)
//Storyboard Layer 1 (Fail)
//Storyboard Layer 2 (Pass)
//Storyboard Layer 3 (Foreground)
//Storyboard Sound Samples
//Background Colour Transformations
3,100,163,162,255

[TimingPoints]
33012,451.127819548872,4,2,1,40,1,0
33124,-100,4,2,1,50,0,0
33688,-100,4,1,2,40,0,0
34027,-100,4,2,1,50,0,0
34590,-100,4,2,1,60,0,0
34816,-100,4,2,1,55,0,0
35154,-100,4,2,1,50,0,0
36621,-100,4,1,2,40,0,0
36721,-100,4,2,1,50,0,0
37297,-100,4,1,2,40,0,0
37623,-100,4,2,1,50,0,0
38087,-100,4,2,1,60,0,0
38651,-100,4,2,1,55,0,0
38763,-100,4,2,1,50,0,0
40104,-100,4,2,1,50,0,0
41132,-100,4,1,2,40,0,0
41232,-100,4,2,1,50,0,0
41696,-100,4,2,1,60,0,0
42260,-100,4,2,1,55,0,0
42372,-100,4,2,1,50,0,0
43839,-100,4,1,2,40,0,0
43939,-100,4,2,1,50,0,0
44402,-100,4,1,2,40,0,0
44854,-100,4,2,1,50,0,0
45305,-100,4,2,1,60,0,0
45869,-100,4,2,1,50,0,0
46545,-100,4,1,2,40,0,0
46645,-100,4,2,1,50,0,0
47560,-100,4,2,2,60,0,0
49127,-100,4,2,2,60,0,0
50154,-100,4,1,2,50,0,0
50254,-100,4,2,2,50,0,0
50605,-100,4,1,2,50,0,0
50705,-100,4,2,2,60,0,0
54089,-100,4,2,2,60,0,0
54666,-100,4,1,2,50,0,0
55117,-100,4,2,2,60,0,0
56345,-100,4,2,2,60,0,0
57372,-100,4,1,2,50,0,0
57936,-100,4,2,2,50,0,0
58275,-100,4,2,2,60,0,0
59854,-100,4,2,2,40,0,0
59954,-100,4,2,2,40,0,0
60530,-100,4,2,2,50,0,0
60981,-100,4,2,2,60,0,0
61433,-100,4,2,2,70,0,0
61884,-100,4,2,2,80,0,0
61984,-100,4,2,2,60,0,0
62899,-100,4,2,1,50,0,0
63688,-100,4,2,1,60,0,1
63801,-100,4,1,1,60,0,1
64816,-100,4,2,3,45,0,1
64916,-100,4,1,1,60,0,1
66621,-100,4,2,3,45,0,1
66721,-100,4,1,1,60,0,1
68425,-100,4,2,3,45,0,1
68525,-100,4,1,1,60,0,1
70230,-100,4,2,3,45,0,1
70330,-100,4,1,1,60,0,1
71132,-100,4,2,1,65,0,1
71232,-100,4,1,1,60,0,1
72034,-100,4,2,3,45,0,1
72134,-100,4,1,1,60,0,1
72936,-100,4,2,1,65,0,1
73036,-100,4,1,1,60,0,1
73839,-100,4,2,3,45,0,1
73939,-100,4,1,1,60,0,1
74741,-100,4,2,1,65,0,1
74841,-100,4,1,1,60,0,1
77673,-100,4,2,1,60,0,1
78124,-100,4,2,2,50,0,1
78224,-100,4,1,1,60,0,1
79252,-100,4,2,1,65,0,1
79352,-100,4,1,1,60,0,1
79703,-100,4,2,1,65,0,1
79803,-100,4,1,1,60,0,1
81057,-100,4,2,1,65,0,1
81157,-100,4,1,1,60,0,1
82410,-100,4,2,1,65,0,1
82510,-100,4,1,1,60,0,1
82861,-100,4,2,1,65,0,1
82961,-100,4,1,1,60,0,1
84891,-100,4,2,1,70,0,1
85342,-100,4,2,2,50,0,1
85455,-100,4,1,1,60,0,1
86019,-100,4,2,1,65,0,1
86119,-100,4,1,1,60,0,1
86470,-100,4,2,1,65,0,1
86570,-100,4,1,1,60,0,1
86921,-100,4,2,1,65,0,1
87021,-100,4,1,1,60,0,1
87824,-100,4,2,1,65,0,1
87924,-100,4,1,1,60,0,1
88275,-100,4,2,1,65,0,1
88375,-100,4,1,1,60,0,1
89177,-100,4,2,1,65,0,1
89277,-100,4,1,1,60,0,1
92109,-100,4,2,1,50,0,1
92560,-133.333333333333,4,1,2,30,0,0
93801,-100,4,2,2,50,0,0
94252,-100,4,2,1,40,0,0
94478,-100,4,2,2,50,0,0
95042,-100,4,1,2,40,0,0
95367,-100,4,2,1,50,0,0
95831,-100,4,2,1,60,0,0
96395,-100,4,3,1,40,0,0
96495,-100,4,2,1,60,0,0
97297,-100,4,2,1,45,0,0
97397,-100,4,2,1,50,0,0
97748,-100,4,2,1,40,0,0
97848,-100,4,1,2,40,0,0
98425,-100,4,2,1,50,0,0
98651,-100,4,1,2,40,0,0
98751,-100,4,2,1,50,0,0
98876,-100,4,1,2,40,0,0
98976,-100,4,2,1,50,0,0
99553,-100,4,2,1,60,0,0
100004,-100,4,3,1,40,0,0
100104,-100,4,2,1,60,0,0
100906,-100,4,2,1,50,0,0
102260,-100,4,1,2,40,0,0
102585,-100,4,2,1,50,0,0
103162,-100,4,2,1,60,0,0
103613,-100,4,3,1,40,0,0
103713,-100,4,2,1,60,0,0
104615,-100,4,2,1,50,0,0
105066,-100,4,1,2,40,0,0
105643,-100,4,2,1,50,0,0
106094,-100,4,1,2,40,0,0
106194,-100,4,2,1,50,0,0
106771,-100,4,2,1,60,0,0
107222,-100,4,2,1,55,0,0
107322,-100,4,2,1,50,0,0
107899,-100,4,1,2,40,0,0
108224,-100,4,2,1,50,0,0
108688,-100,4,2,1,45,0,0
108914,-100,4,2,2,60,0,0
110480,-100,4,2,1,60,0,0
111508,-100,4,1,2,50,0,0
111608,-100,4,2,1,60,0,0
111959,-100,4,1,2,50,0,0
112059,-100,4,2,2,60,0,0
115004,-100,4,1,2,50,0,0
115455,-100,4,2,2,60,0,0
116019,-100,4,1,2,40,0,0
116119,-100,4,2,2,60,0,0
117598,-100,4,1,2,40,0,0
117698,-100,4,2,2,60,0,0
118726,-100,4,1,2,50,0,0
119277,-100,4,2,2,60,0,0
121207,-100,4,1,2,40,0,0
121307,-100,4,2,1,40,0,0
121884,-100,4,2,1,50,0,0
122335,-100,4,2,1,60,0,0
122786,-100,4,2,1,70,0,0
123237,-100,4,2,2,80,0,0
123337,-100,4,2,2,60,0,0
124252,-100,4,2,1,50,0,0
125042,-100,4,2,1,60,0,1
125154,-100,4,1,1,60,0,1
126169,-100,4,2,3,45,0,1
126269,-100,4,1,1,60,0,1
127974,-100,4,2,3,45,0,1
128074,-100,4,1,1,60,0,1
129778,-100,4,2,3,45,0,1
129878,-100,4,1,1,60,0,1
131583,-100,4,2,3,50,0,1
131683,-100,4,1,1,60,0,1
132485,-100,4,2,1,65,0,1
132585,-100,4,1,1,60,0,1
133387,-100,4,2,3,45,0,1
133487,-100,4,1,1,60,0,1
134290,-100,4,2,1,65,0,1
134390,-100,4,1,1,60,0,1
135192,-100,4,2,3,45,0,1
135292,-100,4,1,1,60,0,1
136094,-100,4,2,1,65,0,1
136194,-100,4,1,1,60,0,1
139027,-100,4,2,1,70,0,1
139478,-100,4,2,2,50,0,1
139534,-100,4,1,1,60,0,1
140154,-100,4,2,1,65,0,1
140254,-100,4,1,1,60,0,1
140605,-100,4,2,1,65,0,1
140705,-100,4,1,1,60,0,1
141057,-100,4,2,1,65,0,1
141157,-100,4,1,1,60,0,1
141959,-100,4,2,1,65,0,1
142059,-100,4,1,1,60,0,1
142410,-100,4,2,1,65,0,1
142510,-100,4,1,1,60,0,1
143763,-100,4,2,1,65,0,1
143863,-100,4,1,1,60,0,1
144215,-100,4,2,1,65,0,1
144315,-100,4,1,1,60,0,1
144666,-100,4,2,1,65,0,1
144766,-100,4,1,1,60,0,1
146119,-100,4,1,1,60,0,1
146696,-100,4,2,2,50,0,1
146796,-100,4,1,1,60,0,1
147372,-100,4,2,1,65,0,1
147472,-100,4,1,1,60,0,1
147824,-100,4,2,1,65,0,1
147924,-100,4,1,1,60,0,1
149177,-100,4,2,1,65,0,1
149277,-100,4,1,1,60,0,1
149628,-100,4,2,1,65,0,1
149728,-100,4,1,1,60,0,1
150530,-100,4,2,1,65,0,1
150630,-100,4,1,1,60,0,1
152560,-100,4,3,2,60,0,1
152660,-100,4,1,1,60,0,1
153406,-100,4,2,1,70,0,1
153914,-100,4,1,1,50,0,0
168914,-100,4,2,2,50,0,0
170042,-100,4,1,2,45,0,0
170605,-100,4,2,1,60,0,0
170931,-100,4,1,1,60,0,0
171395,-100,4,1,2,45,0,0
172297,-100,4,1,1,60,0,0
173312,-100,4,1,2,45,0,0
173412,-100,4,1,1,60,0,0
173763,-100,4,1,2,45,0,0
173863,-100,4,2,2,50,0,0
174666,-100,4,1,1,60,0,0
174766,-100,4,2,2,50,0,0
175117,-100,4,1,2,45,0,0
175681,-100,4,2,2,50,0,0
176470,-100,4,1,1,60,0,0
176570,-100,4,2,2,60,0,0
176921,-100,4,1,2,45,0,0
177824,-100,4,1,1,60,0,0
178500,-100,4,1,2,45,0,0
179628,-100,4,1,1,60,0,0
180530,-100,4,1,2,50,0,0
180981,-100,4,1,2,30,0,0
181433,-100,4,1,2,40,0,0
181884,-100,4,1,2,50,0,0
182335,-100,4,1,2,60,0,0
182786,-100,4,1,2,50,0,0
183801,-100,4,2,1,60,0,0
184365,-100,4,1,2,50,0,0
184465,-100,4,2,1,60,0,0
184590,-100,4,2,1,60,0,1
184703,-100,4,1,1,60,0,1
185718,-100,4,2,3,45,0,1
185818,-100,4,1,1,60,0,1
187523,-100,4,2,3,45,0,1
187623,-100,4,1,1,60,0,1
189327,-100,4,2,3,45,0,1
189427,-100,4,1,1,60,0,1
191132,-100,4,2,0,50,0,1
191232,-100,4,1,1,60,0,1
192034,-100,4,2,1,65,0,1
192134,-100,4,1,1,60,0,1
192936,-100,4,2,3,50,0,1
193036,-100,4,1,1,60,0,1
193839,-100,4,2,1,65,0,1
193939,-100,4,1,1,60,0,1
194741,-100,4,2,3,50,0,1
194841,-100,4,1,1,60,0,1
195643,-100,4,2,1,65,0,1
195743,-100,4,1,1,60,0,1
198575,-100,4,2,1,70,0,1
199027,-100,4,2,2,50,0,1
199127,-100,4,1,1,60,0,1
199365,-100,4,3,2,60,0,1
199703,-100,4,2,1,65,0,1
199803,-100,4,1,1,5,0,1
200267,-100,4,1,1,60,0,1
201169,-100,4,3,2,60,0,1
201508,-100,4,2,1,65,0,1
201608,-100,4,1,1,5,0,1
201959,-100,4,2,1,65,0,1
202059,-100,4,1,1,60,0,1
202410,-100,4,2,1,65,0,1
202510,-100,4,1,1,60,0,1
203312,-100,4,2,1,65,0,1
203412,-100,4,1,1,60,0,1
203763,-100,4,2,1,65,0,1
203863,-100,4,1,1,60,0,1
204215,-100,4,2,1,65,0,1
204315,-100,4,1,1,60,0,1
206245,-100,4,2,2,50,0,1
206345,-100,4,1,1,60,0,1
206921,-100,4,2,1,65,0,1
207472,-100,4,1,1,60,0,1
207824,-100,4,2,1,65,0,1
207924,-100,4,1,1,60,0,1
208726,-100,4,2,1,65,0,1
209277,-100,4,1,1,60,0,1
209628,-100,4,2,1,65,0,1
209728,-100,4,1,1,60,0,1
210079,-100,4,2,1,65,0,1
210179,-100,4,1,1,60,0,1
210530,-100,4,2,1,65,0,1
210630,-100,4,1,1,60,0,1
213012,-100,4,2,1,70,0,1
213463,-100,4,2,2,50,0,1
213563,-100,4,1,1,60,0,1
214139,-100,4,2,1,65,0,1
214690,-100,4,1,1,60,0,1
215042,-100,4,2,1,65,0,1
215142,-100,4,1,1,60,0,1
215944,-100,4,2,1,65,0,1
216495,-100,4,1,1,60,0,1
218199,-100,4,2,1,65,0,1
218299,-100,4,1,1,60,0,1
218651,-100,4,2,1,65,0,1
218751,-100,4,1,1,60,0,1
220681,-100,4,2,2,50,0,1
220781,-100,4,1,1,60,0,1
221357,-100,4,2,1,65,0,1
221908,-100,4,1,1,60,0,1
223162,-100,4,2,1,65,0,1
223613,-100,4,2,1,65,0,1
223713,-100,4,2,1,65,0,1
224615,-100,4,1,1,60,0,1
224966,-100,4,2,1,65,0,1
225066,-100,4,1,1,60,0,1
225869,-100,4,2,1,65,0,1
225969,-100,4,1,1,60,0,1
226320,-100,4,2,1,65,0,1
226420,-100,4,1,1,60,0,1
226771,-100,4,2,1,65,0,1
227448,-100,4,2,1,60,0,1
227899,-100,4,2,1,30,0,0

[Colours]
Combo1 : 255,255,128
Combo2 : 255,128,192
Combo3 : 146,146,201

[HitObjects]
188,72,33011,22,0,B|220:128|200:208,1,120,4|8,0:0|0:0,0:0:0
132,284,33914,2,0,B|100:284|60:300,2,60,0|0|8,0:0|0:0|0:0,0:0:0
188,304,34590,6,0,B|252:320|304:288,1,120,2|2,0:0|0:0,0:0:0
344,244,35267,1,8,0:0:0
356,124,35718,1,2,0:0:0
256,56,36169,1,8,0:0:0
156,124,36621,6,0,B|132:184|156:252,1,120,0|8,0:0|0:0,0:0:0
176,296,37297,1,0,0:0:0
224,332,37523,2,0,B|284:360|340:320,1,120,0|8,0:0|0:0,0:0:0
360,268,38199,6,0,B|368:144,1,120,2|2,0:0|0:0,0:0:0
372,88,38876,1,8,0:0:0
256,44,39327,1,2,0:0:0
140,80,39778,1,8,0:0:0
68,184,40230,6,0,B|107:242|177:240|239:206|244:135,1,240,8|0,0:0|0:0,0:0:0
340,64,41583,1,8,0:0:0
340,64,41808,2,0,B|348:196,1,120,2|2,0:0|0:0,0:0:0
356,244,42485,5,8,0:0:0
256,312,42936,1,2,0:0:0
156,244,43387,1,8,0:0:0
56,180,43839,6,0,B|24:236|52:300,1,120,0|8,0:0|0:0,0:0:0
88,344,44515,1,0,0:0:0
148,353,44741,2,0,B|212:359|259:307,1,120,0|8,0:0|0:0,0:0:0
256,252,45418,6,0,B|256:132,1,120,2|2,0:0|0:0,0:0:0
256,72,46094,1,8,0:0:0
372,36,46545,1,0,0:0:0
440,132,46996,1,8,0:0:0
328,172,47448,6,0,B|344:236|424:252,2,120,4|2|10,0:0|0:0|0:0,0:0:0
256,72,48801,1,0,0:0:0
144,112,49252,2,0,B|96:100|48:104,2,90,8|8|8,0:0|0:0|0:0,0:0:0
184,156,50154,1,0,0:0:0
256,252,50605,2,0,B|240:324,1,60,0|2,0:0|0:0,0:0:0
220,364,51057,6,0,B|176:404|85:372|76:314,1,180,8|2,0:0|0:0,0:0:0
68,256,51959,2,0,B|55:198|127:135|182:156,1,180,8|2,0:0|0:0,0:0:0
240,176,52861,2,0,B|295:195|310:290|263:326,2,180,8|8|8,0:0|0:0|0:0,0:0:0
120,192,54666,6,0,B|96:132|120:72,1,120,0|2,0:0|0:0,0:0:0
232,32,55568,2,0,B|289:60|312:121,1,120,8|2,0:0|0:0,0:0:0
392,208,56470,2,0,B|436:224|488:216,2,90,8|8|8,0:0|0:0|0:0,0:0:0
332,196,57372,2,0,B|272:184|212:212,1,120
96,236,58275,6,0,B|25:231|-9:169|-11:99|47:60,1,240,8|8,0:0|0:0,0:0:0
108,52,59402,2,0,B|120:88|136:104|136:104|124:132|68:148,1,120,2|0,0:0|1:0,0:0:0
256,192,60079,12,4,61884,0:0:0
148,156,63012,38,0,B|152:128|144:92,2,60,2|0|2,0:0|0:0|0:0,0:0:0
144,216,63688,6,0,B|80:232|24:204,2,120,4|12|8,0:0|0:0|0:0,0:0:0
196,248,64816,1,4,0:0:0
256,256,65042,2,0,B|288:196|264:128,1,120,12|8,0:0|0:0,0:0:0
196,44,65944,6,0,B|256:12|312:32,1,120,12|8,0:0|0:0,0:0:0
364,60,66621,1,4,0:0:0
408,100,66846,2,0,B|432:156|412:220,1,120,12|8,0:0|0:0,0:0:0
404,336,67748,6,0,B|340:328|304:268,1,120,12|8,0:0|0:0,0:0:0
256,244,68425,1,4,0:0:0
256,184,68651,2,0,B|256:48,1,120,12|8,0:0|0:0,0:0:0
152,128,69553,6,0,B|164:192|152:248,1,120,12|8,0:0|0:0,0:0:0
104,284,70230,2,0,B|40:264|40:264|8:220|24:148,1,180,4|8,0:0|0:0,0:0:0
64,112,71132,5,2,0:0:0
116,80,71357,2,0,B|180:100|236:68,1,120,12|8,0:0|0:0,0:0:0
292,76,72034,1,4,0:0:0
348,100,72260,2,0,B|396:144|400:204,1,120,12|8,0:0|0:0,0:0:0
408,264,72936,5,2,0:0:0
392,324,73162,2,0,B|340:364|255:352,1,120,12|8,0:0|0:0,0:0:0
220,348,73839,1,4,0:0:0
188,296,74064,2,0,B|177:233|206:177,1,120,12|8,0:0|0:0,0:0:0
256,148,74741,5,2,0:0:0
306,179,74966,2,0,B|334:233|324:296,2,120,12|8|12,0:0|0:0|0:0,0:0:0
388,92,76320,2,0,B|415:130|422:174,2,90,8|8|8,0:0|0:0|0:0,0:0:0
352,44,77222,1,8,0:0:0
256,116,77673,1,8,0:0:0
152,176,78124,6,0,B|84:192|20:148,2,120,4|12|8,0:0|0:0|0:0,0:0:0
212,188,79252,2,0,B|255:229|256:304,1,120,2|2,0:0|0:0,0:0:0
256,356,79929,1,8,0:0:0
372,320,80380,5,12,0:0:0
372,320,80605,2,0,B|404:268|385:200,1,120,2|2,2:0|0:0,0:0:0
344,160,81282,2,0,B|280:142|228:174,1,120,8|8,0:0|0:0,0:0:0
128,240,82184,5,12,0:0:0
128,240,82410,2,0,B|92:184|112:100,1,120,2|2,0:0|0:0,0:0:0
148,80,83087,2,0,B|210:64|269:103,2,120,12|8|12,0:0|0:0|0:0,0:0:0
188,192,84440,1,8,0:0:0
256,292,84891,1,8,0:0:0
376,276,85342,6,0,B|400:216|380:152,1,120,4|12,0:0|0:0,0:0:0
360,104,86019,1,2,0:0:0
260,36,86470,2,0,B|236:96|256:160,1,120,2|2,0:0|0:0,0:0:0
280,208,87147,1,8,0:0:0
376,276,87598,5,12,0:0:0
376,276,87824,1,2,0:0:0
276,340,88275,1,2,0:0:0
276,340,88500,2,0,B|212:356|136:324,1,120,12|8,0:0|0:0,0:0:0
116,288,89177,6,0,B|124:236|96:212|96:212|128:176|132:112,1,180,2|8,0:0|0:0,0:0:0
232,56,90305,1,8,0:0:0
344,104,90756,2,0,B|402:143|400:213|366:275|295:280,1,240,8|8,0:0|0:0,0:0:0
176,280,92109,1,8,0:0:0
80,208,92560,6,0,B|60:116,1,90.0000034332277
148,140,93463,2,0,B|164:44,1,90.0000034332277,0|8,0:0|0:0,0:0:0
256,128,94365,6,0,B|248:176|264:208|256:248,1,120,4|8,0:0|0:0,0:0:0
256,308,95042,1,0,0:0:0
216,352,95267,2,0,B|152:364|92:324,1,120,0|8,0:0|0:0,0:0:0
80,272,95944,6,0,B|60:76,1,180,2|8,0:0|0:0,0:0:0
172,48,97072,1,2,0:0:0
292,56,97523,1,8,0:0:0
392,120,97974,6,0,B|422:175|408:238,1,120,0|8,0:0|0:0,0:0:0
376,288,98651,1,0,0:0:0
316,280,98876,2,0,B|260:252|235:194,1,120,0|8,0:0|0:0,0:0:0
204,144,99553,6,0,B|152:184|96:156|96:156|48:232,1,180,2|8,0:0|0:0,0:0:0
52,332,100681,1,2,0:0:0
168,352,101132,1,8,0:0:0
260,276,101583,6,0,B|268:228|228:168,2,90,8|8|0,0:0|0:0|0:0,0:0:0
276,332,102485,2,0,B|400:344,1,120,0|8,0:0|0:0,0:0:0
456,348,103162,6,0,B|508:272|468:176,1,180,2|8,0:0|0:0,0:0:0
392,84,104290,1,2,0:0:0
276,112,104741,1,8,0:0:0
256,232,105192,6,0,B|208:272|140:256,2,120,0|8|0,0:0|0:0|0:0,0:0:0
368,276,106545,1,8,0:0:0
368,276,106771,2,0,B|380:156,1,120,2|2,0:0|0:0,0:0:0
388,96,107448,1,8,0:0:0
276,136,107899,2,0,B|208:156|152:120,1,120,0|8,1:0|0:0,0:0:0
40,124,108801,6,0,B|41:59|97:23,2,120,4|2|10,0:0|0:0|0:0,0:0:0
108,220,110154,1,0,0:0:0
80,336,110605,2,0,B|28:328|4:272,2,90,8|8|8,0:0|0:0|0:0,0:0:0
140,336,111508,1,0,0:0:0
260,316,111959,2,0,B|324:304,1,60,0|2,0:0|0:0,0:0:0
376,292,112410,6,0,B|432:212|384:120,1,180,8|2,0:0|0:0,0:0:0
336,88,113312,2,0,B|240:67|174:147,1,180,8|2,0:0|0:0,0:0:0
136,192,114215,2,0,B|88:204|40:168,2,90,8|8|8,0:0|0:0|0:0,0:0:0
168,244,115117,1,0,0:0:0
256,328,115568,1,8,0:0:0
344,244,116019,6,0,B|392:292|372:364,2,120,0|2|8,0:0|0:0|0:0,0:0:0
288,220,117147,2,0,B|268:156|296:92,1,120,2|0,0:0|0:0,0:0:0
320,48,117824,2,0,B|284:16|224:16,2,90,8|8|8,0:0|0:0|0:0,0:0:0
376,72,118726,1,0,0:0:0
452,164,119177,1,0,0:0:0
400,272,119628,6,0,B|440:324|508:316,2,120,8|2|8,0:0|0:0|0:0,0:0:0
360,228,120756,2,0,B|296:212|236:248,1,120,2|0,0:0|0:0,0:0:0
256,192,121433,12,4,123237,0:0:0
404,104,124365,6,0,B|424:84|468:80,2,60,2|0|2,0:0|0:0|0:0,0:0:0
372,156,125042,6,0,B|372:288,2,120,4|12|8,0:0|0:0|0:0,0:0:0
320,124,126169,1,4,0:0:0
260,136,126395,2,0,B|196:160|132:120,1,120,12|8,0:0|0:0,0:0:0
68,36,127297,6,0,B|21:75|25:144,1,120,12|8,0:0|0:0,0:0:0
24,204,127974,1,4,0:0:0
48,260,128199,2,0,B|96:296|168:280,1,120,12|8,0:0|0:0,0:0:0
256,356,129102,6,0,B|304:320|376:336,1,120,12|8,0:0|0:0,0:0:0
428,316,129778,1,4,0:0:0
464,268,130004,2,0,B|472:204|440:144,1,120,12|8,0:0|0:0,0:0:0
396,44,130906,6,0,B|330:35|286:83,1,120,12|8,0:0|0:0,0:0:0
256,132,131583,2,0,B|184:148|132:104|132:104|68:124,1,180,4|8,0:0|0:0,0:0:0
36,152,132485,5,2,0:0:0
44,212,132711,2,0,B|72:264|140:280,1,120,12|8,0:0|0:0,0:0:0
196,288,133387,1,4,0:0:0
256,288,133613,2,0,B|318:284|366:239,1,120,12|8,0:0|0:0,0:0:0
400,192,134290,5,2,0:0:0
364,142,134515,2,0,B|318:99|256:96,1,120,12|8,0:0|0:0,0:0:0
196,100,135192,1,4,0:0:0
148,136,135418,2,0,B|124:192|148:252,1,120,12|8,0:0|0:0,0:0:0
196,292,136094,5,2,0:0:0
256,308,136320,2,4,B|320:315|368:277,2,120,12|8|8,0:0|0:0|0:0,0:0:0
256,188,137673,1,8,0:0:0
256,68,138124,1,12,0:0:0
152,124,138575,2,0,B|124:180|138:240,1,120,8|8,0:0|0:0,0:0:0
224,324,139478,6,0,B|284:336|348:300,1,120,4|12,0:0|0:0,0:0:0
388,268,140154,1,2,0:0:0
472,180,140605,2,0,B|480:208|500:236,2,60,2|12|2,0:0|0:0|0:0,0:0:0
448,124,141282,2,0,B|392:96|328:109,1,120,8|12,0:0|0:0,0:0:0
272,120,141959,1,2,0:0:0
156,152,142410,5,2,0:0:0
156,152,142636,2,0,B|95:165|39:137,2,120,12|8|12,0:0|0:0|0:0,0:0:0
196,196,143763,1,2,0:0:0
256,300,144215,6,0,B|256:360,2,60,2|12|2,0:0|0:0|0:0,0:0:0
304,264,144891,2,0,B|368:276|420:232,1,120,8|12,0:0|0:0,0:0:0
440,116,145793,1,8,0:0:0
336,56,146245,1,4,0:0:0
220,92,146696,6,0,B|156:112|100:76,1,120,4|12,0:0|0:0,0:0:0
52,52,147372,1,2,0:0:0
32,172,147824,1,2,0:0:0
32,172,148049,2,0,B|52:232|20:288,2,120,12|8|12,0:0|0:0|0:0,0:0:0
76,132,149177,1,2,0:0:0
192,156,149628,5,2,0:0:0
192,156,149854,2,0,B|256:176|312:140,1,120,12|8,0:0|0:0,0:0:0
360,116,150530,1,2,0:0:0
416,88,150756,2,0,B|468:124|464:208,2,120,12|8|12,0:0|0:0|0:0,0:0:0
300,56,152109,6,0,B|232:80|184:28|184:28|112:44|144:132,1,240,8|8,0:0|0:0,0:0:0
152,232,153463,1,8,0:0:0
256,292,153914,2,0,B|256:400,2,90,4|4|4,0:0|0:0|0:0,0:0:0
256,232,154816,1,4,0:0:0
324,344,169252,6,0,B|368:296|344:216,1,120,2|0,0:0|0:0,0:0:0
344,112,170154,2,0,B|392:72|456:84,2,120,0|0|4,0:0|0:0|0:0,0:0:0
256,192,171508,1,0,0:0:0
168,272,171959,2,0,B|120:312|56:300,2,120,0|0|4,0:0|0:0|0:0,0:0:0
256,192,173312,1,0,0:0:0
344,272,173763,6,0,B|392:312|456:300,2,120,0|0|4,0:0|0:0|0:0,0:0:0
256,192,175117,2,0,B|256:60,2,120
164,268,176470,1,4,0:0:0
256,344,176921,1,0,0:0:0
348,268,177372,6,0,B|408:256|464:288,2,120,0|0|4,0:0|0:0|0:0,0:0:0
256,192,178726,1,0,0:0:0
164,116,179177,2,0,B|104:128|48:96,2,120,0|0|4,0:0|0:0|0:0,0:0:0
256,40,180530,1,0,0:0:0
256,192,180981,12,0,182786,0:0:0
256,240,183914,6,0,B|248:272|256:300,2,60,8|8|0,0:0|0:0|0:0,0:0:0
292,192,184590,6,0,B|412:192,2,120,4|12|8,0:0|0:0|0:0,0:0:0
256,144,185718,1,4,0:0:0
236,88,185944,2,0,B|184:56|112:64,1,120,12|8,0:0|0:0,0:0:0
20,128,186846,6,0,B|-12:184|12:260,1,120,12|8,0:0|0:0,0:0:0
28,300,187523,1,4,0:0:0
76,336,187748,2,0,B|140:349|192:321,1,120,12|8,0:0|0:0,0:0:0
319,321,188651,6,0,B|371:349|436:336,1,120,12|8,0:0|0:0,0:0:0
476,292,189327,2,0,B|484:256|480:216,1,60,4|12,0:0|0:0,0:0:0
392,152,190004,2,0,B|368:92|404:36,2,120,8|12|8,0:0|0:0|0:0,0:0:0
396,212,191132,2,0,B|336:236|332:276|332:276|304:248|248:272,1,180,4|8,0:0|0:0,0:0:0
192,276,192034,5,2,0:0:0
132,264,192260,2,0,B|104:204|124:144,1,120,12|8,0:0|0:0,0:0:0
152,96,192936,1,4,0:0:0
200,60,193162,2,0,B|256:40|317:59,1,120,12|8,0:0|0:0,0:0:0
360,96,193839,5,2,0:0:0
388,147,194064,2,0,B|408:204|380:264,1,120,12|8,0:0|0:0,0:0:0
324,288,194741,1,4,0:0:0
264,284,194966,2,0,B|196:288|152:248,1,120,12|8,0:0|0:0,0:0:0
124,196,195643,5,2,0:0:0
152,135,195869,2,0,B|196:96|264:100,2,120,12|8|12,0:0|0:0|0:0,0:0:0
48,196,197222,1,8,0:0:0
104,304,197673,1,12,0:0:0
224,324,198124,2,0,B|284:344|356:300,1,120,8|8,0:0|0:0,0:0:0
428,228,199027,6,0,B|440:164|396:128|396:128|439:48,2,180,4|2|12,0:0|0:0|0:0,0:0:0
340,308,200831,2,0,B|276:320|240:276|240:276|179:309,2,180,8|2|12,0:0|0:0|0:0,0:0:0
436,236,202636,2,0,B|452:172|420:112,1,120,8|12,0:0|0:0,0:0:0
376,80,203312,2,0,B|312:72|256:108,1,120,2|2,0:0|0:0,0:0:0
204,120,203989,6,0,B|140:128|84:92,2,120,12|8|12,0:0|0:0|0:0,0:0:0
256,228,205342,1,8,0:0:0
168,308,205793,1,12,0:0:0
52,276,206245,6,0,B|20:220|40:160,1,120,4|12,0:0|0:0,0:0:0
56,104,206921,1,2,0:0:0
168,60,207372,1,2,0:0:0
168,60,207598,2,0,B|216:64|244:44|244:44|296:48,2,120,12|8|12,0:0|0:0|0:0,0:0:0
108,64,208726,1,2,0:0:0
68,176,209177,5,2,0:0:0
68,176,209402,2,0,B|52:236|84:304,1,120,12|8,0:0|0:0,0:0:0
96,352,210079,2,0,B|64:372|32:368,2,60,2|12|2,0:0|0:0|0:0,0:0:0
156,340,210756,1,8,0:0:0
256,276,211207,1,12,0:0:0
348,196,211658,6,0,B|380:236|372:296,2,90,8|8|8,0:0|0:0|0:0,0:0:0
320,144,212560,1,8,0:0:0
192,144,213011,1,8,0:0:0
96,212,213463,6,0,B|84:272|118:329,1,120,4|12,0:0|0:0,0:0:0
168,356,214139,1,2,0:0:0
256,272,214590,1,2,0:0:0
256,272,214816,2,0,B|256:132,2,120,12|8|12,0:0|0:0|0:0,0:0:0
256,332,215944,1,2,0:0:0
372,304,216395,5,2,0:0:0
372,304,216621,2,0,B|400:248|384:180,1,120,12|8,0:0|0:0,0:0:0
324,84,217523,2,0,B|267:56|206:72,1,120,12|8,0:0|0:0,0:0:0
148,76,218199,2,0,B|120:68|96:44,2,60,2|12|2,0:0|0:0|0:0,0:0:0
144,136,218876,6,0,B|160:200|128:260,1,120,8|12,0:0|0:0,0:0:0
48,336,219778,1,8,0:0:0
164,372,220230,1,12,0:0:0
256,296,220681,6,0,B|256:160,1,120,4|12,0:0|0:0,0:0:0
256,116,221357,1,2,0:0:0
356,52,221808,1,2,0:0:0
356,52,222034,2,0,B|392:104|376:184,1,120,12|8,0:0|0:0,0:0:0
316,268,222936,1,12,0:0:0
316,268,223162,2,0,B|373:295|433:273,2,120,2|2|2,0:0|0:0|0:0,0:0:0
224,192,224515,6,0,B|240:172|272:156,2,60,2|12|2,0:0|0:0|0:0,0:0:0
176,224,225192,2,0,B|116:252|44:220,1,120,8|12,0:0|0:0,0:0:0
20,180,225869,2,0,B|15:113|71:58,1,120,2|2,0:0|0:0,0:0:0
112,44,226545,1,4,0:0:0
168,64,226771,2,0,B|212:107|207:173,1,120,2|2,0:0|0:0,0:0:0
176,224,227448,2,0,B|192:252|232:260,2,60,8|8|2,0:0|0:0|0:0,0:0:0
