osu file format v11

[General]
AudioFilename: 3L - Three Magic.mp3
AudioLeadIn: 0
PreviewTime: 62917
Countdown: 0
SampleSet: Soft
StackLeniency: 0.7
Mode: 0
LetterboxInBreaks: 1

[Editor]
DistanceSpacing: 0.7
BeatDivisor: 4
GridSize: 4

[Metadata]
Title:Three Magic
TitleUnicode:Three Magic
Artist:3L
ArtistUnicode:3L
Creator:cRyo[iceeicee]
Version:Collab
Source:Touhou
Tags:mythol xsrsbsns cilvery kanpakyin aabc271 AIRMAN Kite ryuu angel time digital wing emotional skyscraper cosmic mind byakuren hijiri
BeatmapID:178643
BeatmapSetID:59631

[Difficulty]
HPDrainRate:7
CircleSize:4
OverallDifficulty:7
ApproachRate:8
SliderMultiplier:1.8
SliderTickRate:1

[Events]
//Background and Video events
0,0,"bg.jpg"
//Break Periods
2,155718,168502
//Storyboard Layer 0 (Background)
//Storyboard Layer 1 (Fail)
//Storyboard Layer 2 (Pass)
//Storyboard Layer 3 (Foreground)
Sprite,Foreground,Centre,"neimuu\Mythol.png",320,240 M,0,33012,33124,67,114,124,114 F,0,33012,33124,0,1 V,0,33012,33124,1,1,1,1.430463 V,0,33124,33237,1,1.430463,1,1 M,0,33124,94252,124,114 F,0,33124,94252,1 V,0,33237,,1,1 V,0,33237,94139,1,1 V,0,94139,94252,1,1,1,1.403132 M,0,94252,94365,124,114,124,200 F,0,94252,94365,1,0 V,0,94252,94365,1,1.403132,1,0.1
Sprite,Foreground,Centre,"neimuu\cRyo[iceeicee].png",320,240 M,0,94365,94478,104,178,104,122 F,0,94365,94478,0,1 V,0,94365,94478,1,1,1,1.478292 F,0,94478,,1 V,0,94478,94590,1,1.478292,1,1 F,0,94478,155605,1 V,0,94590,,1,1 V,0,94590,155605,1,1 F,0,155605,155718,1,0.001845181 V,0,155605,155718,1,1,1,0.1
Sprite,Foreground,Centre,"neimuu\xsrsbsns.png",320,240 M,0,169252,169365,107,60,107,125 F,0,169252,169365,0,1 V,0,169252,169365,1,1,1,1.57395 V,0,169365,169478,1,1.57395,1,1 F,0,169365,228463,1 V,0,169478,228463,1,1 F,0,228463,228575,1,0 V,0,228463,228575,1,1,1.006833,0.1
//Storyboard Sound Samples
//Background Colour Transformations
3,100,163,162,255

[TimingPoints]
33012,451.127819548872,4,2,1,40,1,0
33124,-100,4,2,1,50,0,0
33688,-100,4,1,2,40,0,0
34027,-100,4,2,1,50,0,0
34590,-100,4,2,1,60,0,0
34690,-100,4,2,1,50,0,0
35042,-100,4,2,1,55,0,0
35142,-100,4,2,1,50,0,0
35944,-100,4,2,1,45,0,0
36044,-100,4,2,1,50,0,0
36395,-100,4,2,1,40,0,0
36495,-100,4,2,1,50,0,0
36621,-100,4,1,2,40,0,0
36721,-100,4,2,1,50,0,0
37297,-100,4,1,2,40,0,0
37623,-100,4,2,1,50,0,0
38087,-100,4,2,1,60,0,0
38651,-100,4,2,1,55,0,0
38763,-100,4,2,1,50,0,0
39553,-100,4,2,1,45,0,0
39653,-100,4,2,1,50,0,0
40004,-100,4,2,1,35,0,0
40104,-100,4,2,1,50,0,0
40906,-100,4,1,2,40,0,0
41006,-100,4,2,1,50,0,0
41132,-100,4,1,2,40,0,0
41232,-100,4,2,1,50,0,0
41696,-100,4,2,1,60,0,0
42260,-100,4,2,1,55,0,0
42372,-100,4,2,1,50,0,0
43162,-100,4,2,1,45,0,0
43262,-100,4,2,1,50,0,0
43839,-100,4,1,2,40,0,0
43939,-100,4,2,1,50,0,0
44402,-100,4,1,2,40,0,0
44854,-100,4,2,1,50,0,0
45305,-100,4,2,1,60,0,0
45869,-100,4,2,1,50,0,0
46545,-100,4,1,2,40,0,0
46645,-100,4,2,1,50,0,0
47560,-100,4,2,2,60,0,0
48124,-100,4,1,2,50,0,0
48224,-100,4,2,2,60,0,0
48463,-100,4,2,2,50,0,0
49027,-100,4,1,2,50,0,0
49127,-100,4,2,2,60,0,0
50154,-100,4,1,2,50,0,0
50254,-100,4,2,2,50,0,0
50605,-100,4,1,2,50,0,0
50705,-100,4,2,2,60,0,0
53763,-100,4,1,2,50,0,0
53863,-100,4,2,2,50,0,0
53989,-100,4,1,2,50,0,0
54089,-100,4,2,2,60,0,0
54666,-100,4,1,2,50,0,0
54766,-100,4,2,2,50,0,0
55117,-100,4,2,2,60,0,0
55342,-100,4,1,2,50,0,0
55442,-100,4,2,2,50,0,0
55793,-100,4,2,2,60,0,0
55893,-100,4,2,2,50,0,0
56245,-100,4,1,2,50,0,0
56345,-100,4,2,2,60,0,0
57372,-100,4,1,2,50,0,0
57936,-100,4,2,2,50,0,0
58275,-100,4,2,2,60,0,0
58951,-100,4,1,2,50,0,0
59051,-100,4,2,2,50,0,0
60192,-100,4,2,1,60,0,0
60643,-100,4,2,1,70,0,0
61094,-100,4,2,1,80,0,0
61545,-100,4,2,1,80,0,0
61884,-100,4,2,2,80,0,0
61984,-100,4,2,2,60,0,0
62899,-100,4,2,1,50,0,0
63688,-100,4,2,1,60,0,1
63801,-100,4,1,1,60,0,1
64816,-100,4,2,3,45,0,1
64916,-100,4,1,1,60,0,1
66621,-100,4,2,3,45,0,1
66721,-100,4,1,1,60,0,1
68425,-100,4,2,3,45,0,1
68525,-100,4,1,1,60,0,1
69440,-100,4,2,1,65,0,1
69891,-100,4,1,1,60,0,1
70230,-100,4,2,3,45,0,1
70330,-100,4,1,1,60,0,1
71132,-100,4,2,1,65,0,1
71232,-100,4,1,1,60,0,1
72034,-100,4,2,3,45,0,1
72134,-100,4,1,1,60,0,1
72936,-100,4,2,1,65,0,1
73036,-100,4,1,1,60,0,1
73839,-100,4,2,3,45,0,1
73939,-100,4,1,1,60,0,1
74741,-100,4,2,1,65,0,1
74841,-100,4,1,1,60,0,1
75192,-100,4,2,1,65,0,1
75292,-100,4,1,1,60,0,1
75756,-100,4,2,3,60,0,1
75856,-100,4,1,1,60,0,1
77166,-100,4,1,1,40,0,1
77673,-100,4,2,1,50,0,1
78124,-100,4,2,2,50,0,1
78224,-100,4,1,1,60,0,1
79252,-100,4,2,1,65,0,1
79352,-100,4,1,1,60,0,1
79703,-100,4,2,1,65,0,1
79803,-100,4,1,1,60,0,1
81057,-100,4,2,1,65,0,1
81157,-100,4,1,1,60,0,1
81508,-100,4,2,1,65,0,1
81608,-100,4,1,1,60,0,1
82861,-100,4,2,1,65,0,1
82961,-100,4,1,1,60,0,1
83312,-100,4,2,1,65,0,1
83412,-100,4,1,1,60,0,1
84891,-100,4,2,1,60,0,1
85342,-100,4,2,2,50,0,1
85455,-100,4,1,1,60,0,1
86470,-100,4,2,1,65,0,1
86570,-100,4,1,1,60,0,1
86921,-100,4,2,1,65,0,1
87021,-100,4,1,1,60,0,1
88275,-100,4,2,1,65,0,1
88375,-100,4,1,1,60,0,1
88726,-100,4,2,1,65,0,1
88826,-100,4,1,1,60,0,1
89177,-100,4,2,1,65,0,1
89277,-100,4,1,1,60,0,1
89628,-100,4,2,1,65,0,1
89728,-100,4,1,1,60,0,1
90079,-100,4,2,1,65,0,1
90179,-100,4,1,1,60,0,1
90530,-100,4,2,1,65,0,1
90630,-100,4,1,1,60,0,1
91320,-100,4,1,1,40,0,1
92109,-100,4,2,1,50,0,1
92560,-133.333333333333,4,1,2,27,0,0
93801,-100,4,2,2,50,0,0
94252,-100,4,2,1,40,0,0
94478,-100,4,2,2,50,0,0
95042,-100,4,1,2,40,0,0
95142,-100,4,2,1,50,0,0
95267,-100,4,1,2,40,0,0
95367,-100,4,2,1,50,0,0
95831,-100,4,2,1,60,0,0
96395,-100,4,2,1,55,0,0
96508,-100,4,2,1,50,0,0
97297,-100,4,2,1,45,0,0
97397,-100,4,2,1,50,0,0
97748,-100,4,2,1,40,0,0
97848,-100,4,1,2,40,0,0
98425,-100,4,2,1,50,0,0
98651,-100,4,1,2,40,0,0
98751,-100,4,2,1,50,0,0
98876,-100,4,1,2,40,0,0
98976,-100,4,2,1,50,0,0
99553,-100,4,2,1,60,0,0
100004,-100,4,2,1,55,0,0
100104,-100,4,2,1,50,0,0
100906,-100,4,2,1,45,0,0
101006,-100,4,2,1,50,0,0
101357,-100,4,2,1,40,0,0
101457,-100,4,2,1,50,0,0
102260,-100,4,1,2,40,0,0
102360,-100,4,2,1,50,0,0
102485,-100,4,1,2,40,0,0
102585,-100,4,2,1,50,0,0
103162,-100,4,2,1,60,0,0
103613,-100,4,2,1,55,0,0
103713,-100,4,2,1,50,0,0
104515,-100,4,2,1,45,0,0
104615,-100,4,2,1,50,0,0
104966,-100,4,2,1,40,0,0
105066,-100,4,1,2,40,0,0
105643,-100,4,2,1,50,0,0
105869,-100,4,1,2,40,0,0
105969,-100,4,2,1,50,0,0
106094,-100,4,1,2,40,0,0
106194,-100,4,2,1,50,0,0
106771,-100,4,2,1,60,0,0
107222,-100,4,2,1,55,0,0
107322,-100,4,2,1,50,0,0
107899,-100,4,1,2,50,0,0
108124,-100,4,2,1,45,0,0
108224,-100,4,2,1,50,0,0
108688,-100,4,2,1,45,0,0
108914,-100,4,2,2,60,0,0
109478,-100,4,1,2,50,0,0
109578,-100,4,2,2,60,0,0
110380,-100,4,1,2,50,0,0
110480,-100,4,2,1,60,0,0
111508,-100,4,1,2,50,0,0
111608,-100,4,2,1,60,0,0
111959,-100,4,1,2,50,0,0
112059,-100,4,2,2,60,0,0
115004,-100,4,1,2,50,0,0
115455,-100,4,2,2,60,0,0
118726,-100,4,1,2,50,0,0
118826,-100,4,2,1,60,0,0
119177,-100,4,1,2,50,0,0
119277,-100,4,2,2,60,0,0
121207,-100,4,1,2,40,0,0
121307,-100,4,2,1,60,0,0
123237,-100,4,2,2,80,0,0
123337,-100,4,2,2,60,0,0
124252,-181.818181818181,4,2,1,50,0,0
125042,-100,4,2,1,60,0,1
125154,-100,4,1,1,60,0,1
126169,-100,4,2,3,45,0,1
126269,-100,4,1,1,60,0,1
127974,-100,4,2,3,45,0,1
128074,-100,4,1,1,60,0,1
129778,-100,4,2,3,45,0,1
129878,-100,4,1,1,60,0,1
130793,-100,4,2,3,65,0,1
130893,-100,4,1,1,60,0,1
131132,-100,4,2,1,65,0,1
131232,-100,4,1,1,60,0,1
131583,-100,4,2,3,50,0,1
131683,-100,4,1,1,60,0,1
132485,-100,4,2,1,65,0,1
132585,-100,4,1,1,60,0,1
133387,-100,4,2,3,45,0,1
133487,-100,4,1,1,60,0,1
134290,-100,4,2,1,65,0,1
134390,-100,4,1,1,60,0,1
135192,-100,4,2,3,45,0,1
135292,-100,4,1,1,60,0,1
136094,-100,4,2,1,65,0,1
136194,-100,4,1,1,60,0,1
136545,-100,4,2,1,65,0,1
136645,-100,4,1,1,60,0,1
137109,-100,4,2,1,65,0,1
137209,-100,4,1,1,60,0,1
137448,-100,4,2,1,65,0,1
137548,-100,4,1,1,60,0,1
138463,-100,4,1,1,40,0,1
139027,-100,4,2,1,60,0,1
139478,-100,4,2,2,50,0,1
139534,-100,4,1,1,60,0,1
140605,-100,4,2,1,65,0,1
140705,-100,4,1,1,60,0,1
141057,-100,4,2,1,65,0,1
141157,-100,4,1,1,60,0,1
142410,-100,4,2,1,65,0,1
142510,-100,4,1,1,60,0,1
142861,-100,4,2,1,65,0,1
142961,-100,4,1,1,60,0,1
144215,-100,4,2,1,65,0,1
144315,-100,4,1,1,60,0,1
144666,-100,4,2,1,65,0,1
144766,-100,4,1,1,60,0,1
145230,-100,4,2,1,65,0,1
145330,-100,4,1,1,60,0,1
146019,-100,4,2,1,65,0,1
146119,-100,4,1,1,60,0,1
146696,-100,4,2,2,50,0,1
146796,-100,4,1,1,60,0,1
147824,-100,4,2,1,65,0,1
147924,-100,4,1,1,60,0,1
148275,-100,4,2,1,65,0,1
148375,-100,4,1,1,60,0,1
149628,-100,4,2,1,65,0,1
149728,-100,4,1,1,60,0,1
150079,-100,4,2,1,65,0,1
150179,-100,4,1,1,60,0,1
150530,-100,4,2,1,65,0,1
150630,-100,4,1,1,60,0,1
150981,-100,4,2,1,65,0,1
151081,-100,4,1,1,60,0,1
151433,-100,4,2,1,65,0,1
151533,-100,4,1,1,60,0,1
151884,-100,4,2,1,65,0,1
151984,-100,4,1,1,60,0,1
152673,-100,4,1,1,40,0,1
153406,-100,4,2,1,50,0,1
153914,-100,4,1,1,50,0,0
168914,-100,4,2,2,50,0,0
170042,-100,4,1,2,45,0,0
170605,-100,4,2,1,60,0,0
170831,-100,4,1,2,45,0,0
170931,-100,4,1,1,60,0,0
171395,-100,4,1,2,45,0,0
172410,-100,4,1,1,60,0,0
172636,-100,4,1,2,45,0,0
172736,-100,4,1,1,60,0,0
173312,-100,4,1,2,45,0,0
173412,-100,4,1,1,60,0,0
173763,-100,4,1,2,45,0,0
173863,-100,4,2,2,50,0,0
174666,-100,4,1,1,60,0,0
174766,-100,4,2,2,50,0,0
176470,-100,4,1,1,60,0,0
176570,-100,4,2,2,60,0,0
177372,-100,4,1,2,45,0,0
177824,-100,4,2,2,60,0,0
178049,-100,4,1,2,50,0,0
178149,-100,4,1,1,60,0,0
178500,-100,4,1,2,50,0,0
178839,-100,4,2,2,60,0,0
179177,-100,4,1,2,50,0,0
179628,-100,4,2,2,60,0,0
179854,-100,4,1,2,50,0,0
179954,-100,4,1,1,60,0,0
180530,-100,4,1,2,50,0,0
180630,-100,4,1,1,60,0,0
182335,-100,4,1,2,35,0,0
183801,-100,4,2,1,60,0,0
184365,-100,4,1,2,50,0,0
184465,-100,4,2,1,60,0,0
184590,-100,4,2,1,60,0,1
184703,-100,4,1,1,60,0,1
185718,-100,4,2,3,45,0,1
185818,-100,4,1,1,60,0,1
187523,-100,4,2,3,45,0,1
187623,-100,4,1,1,60,0,1
189327,-100,4,2,3,45,0,1
189427,-100,4,1,1,60,0,1
190342,-100,4,2,1,65,0,1
190442,-100,4,1,1,60,0,1
190681,-100,4,2,1,65,0,1
190781,-100,4,1,1,60,0,1
191132,-100,4,2,3,50,0,1
191232,-100,4,1,1,60,0,1
192034,-100,4,2,1,65,0,1
192134,-100,4,1,1,60,0,1
192936,-100,4,2,3,50,0,1
193036,-100,4,1,1,60,0,1
193839,-100,4,2,1,65,0,1
193939,-100,4,1,1,60,0,1
194741,-100,4,2,3,50,0,1
194841,-100,4,1,1,60,0,1
195643,-100,4,2,1,65,0,1
195743,-100,4,1,1,60,0,1
196094,-100,4,2,1,65,0,1
196194,-100,4,1,1,60,0,1
196658,-100,4,2,1,65,0,1
196758,-100,4,1,1,60,0,1
196996,-100,4,2,1,65,0,1
197096,-100,4,1,1,60,0,1
197786,-100,4,1,1,40,0,1
198575,-100,4,2,1,50,0,1
199027,-100,4,2,2,50,0,1
199127,-100,4,1,1,60,0,1
200154,-100,4,2,1,65,0,1
200254,-100,4,1,1,60,0,1
200605,-100,4,2,1,65,0,1
200705,-100,4,1,1,60,0,1
201959,-100,4,2,1,65,0,1
202059,-100,4,1,1,60,0,1
202410,-100,4,2,1,65,0,1
202510,-100,4,1,1,60,0,1
203763,-100,4,2,1,65,0,1
203863,-100,4,1,1,60,0,1
204215,-100,4,2,1,65,0,1
204315,-100,4,1,1,60,0,1
205568,-100,4,2,1,70,0,1
205668,-100,4,1,1,60,0,1
206245,-100,4,2,2,50,0,1
206345,-100,4,1,1,60,0,1
207372,-100,4,2,1,65,0,1
207472,-100,4,1,1,60,0,1
207824,-100,4,2,1,65,0,1
207924,-100,4,1,1,60,0,1
209177,-100,4,2,1,65,0,1
209277,-100,4,1,1,60,0,1
209628,-100,4,2,1,65,0,1
209728,-100,4,1,1,60,0,1
210079,-100,4,2,1,65,0,1
210179,-100,4,1,1,60,0,1
210530,-100,4,2,1,65,0,1
210630,-100,4,1,1,60,0,1
210981,-100,4,2,1,65,0,1
211081,-100,4,1,1,60,0,1
211433,-100,4,2,1,65,0,1
211533,-100,4,1,1,60,0,1
212222,-100,4,1,1,40,0,1
213012,-100,4,2,1,50,0,1
213463,-100,4,2,2,50,0,1
213563,-100,4,1,1,60,0,1
214590,-100,4,2,1,65,0,1
214690,-100,4,1,1,60,0,1
215042,-100,4,2,1,65,0,1
215142,-100,4,1,1,60,0,1
216395,-100,4,2,1,65,0,1
216495,-100,4,1,1,60,0,1
216846,-100,4,2,1,65,0,1
216946,-100,4,1,1,60,0,1
218199,-100,4,2,1,65,0,1
218299,-100,4,1,1,60,0,1
218651,-100,4,2,1,65,0,1
218751,-100,4,1,1,60,0,1
219215,-100,4,2,1,65,0,1
219315,-100,4,1,1,60,0,1
220004,-100,4,2,1,70,0,1
220104,-100,4,1,1,60,0,1
220681,-100,4,2,2,50,0,1
220781,-100,4,1,1,60,0,1
221808,-100,4,2,1,65,0,1
221908,-100,4,1,1,60,0,1
222260,-100,4,2,1,65,0,1
222360,-100,4,1,1,60,0,1
223613,-100,4,2,1,65,0,1
223713,-100,4,1,1,60,0,1
224064,-100,4,2,1,65,0,1
224164,-100,4,1,1,60,0,1
224515,-100,4,2,1,65,0,1
224615,-100,4,1,1,60,0,1
224966,-100,4,2,1,65,0,1
225066,-100,4,1,1,60,0,1
225418,-100,4,2,1,65,0,1
225518,-100,4,1,1,60,0,1
225869,-100,4,2,1,65,0,1
225969,-100,4,1,1,60,0,1
226320,-100,4,2,1,65,0,1
226420,-100,4,1,1,60,0,1
226658,-100,4,1,1,40,0,1
227448,-100,4,2,1,50,0,1
227899,-100,4,2,1,30,0,0

[Colours]
Combo1 : 255,255,128
Combo2 : 255,128,192
Combo3 : 146,146,201

[HitObjects]
168,256,33011,2,0,B|120:272|80:240,1,90,4|0,0:0|0:0,0:0:0
188,140,33463,2,0,B|236:124|276:156,1,90,8|0,0:0|0:0,0:0:0
388,244,33914,1,0,0:0:0
388,244,34027,1,0,0:0:0
388,244,34139,2,0,B|444:244|472:196,1,90,0|8,0:0|0:0,0:0:0
404,56,34590,6,0,B|404:152,1,90,2|0,0:0|0:0,0:0:0
216,168,35042,1,2,0:0:0
388,244,35267,1,8,0:0:0
312,104,35493,1,2,0:0:0
252,248,35718,2,0,B|204:268|156:236,1,90,0|2,0:0|0:0,0:0:0
88,164,36169,1,8,0:0:0
44,164,36282,1,0,0:0:0
12,196,36395,1,2,0:0:0
72,328,36621,5,0,0:0:0
165,242,36846,1,0,0:0:0
240,332,37072,1,8,0:0:0
76,240,37297,1,0,0:0:0
156,336,37523,1,0,0:0:0
156,336,37636,1,0,0:0:0
156,336,37748,1,0,0:0:0
228,164,37974,1,8,0:0:0
324,216,38199,6,0,B|432:244|480:148,1,180,2|2,0:0|0:0,0:0:0
228,164,38876,2,0,B|204:212|228:260,1,90,8|2,0:0|0:0,0:0:0
384,284,39327,1,0,0:0:0
228,164,39553,1,2,0:0:0
360,112,39778,2,0,B|400:84|448:96,1,90,8|2,0:0|0:0,0:0:0
316,220,40230,6,0,B|260:244,1,45,8|8,0:0|0:0,0:0:0
160,96,40568,2,0,B|212:152,1,45,8|8,0:0|0:0,0:0:0
108,268,40906,1,0,0:0:0
108,268,41019,1,0,0:0:0
108,268,41132,2,0,B|60:284|16:252,2,90,0|0|8,0:0|0:0|0:0,0:0:0
212,196,41808,6,0,B|260:240|248:328|184:364,1,180,2|2,0:0|0:0,0:0:0
108,268,42485,2,0,B|16:248,1,90,8|2,0:0|0:0,0:0:0
212,196,42936,2,0,B|304:216,1,90,0|2,0:0|0:0,0:0:0
404,288,43387,2,0,B|472:316|532:268|524:188,2,180,8|0|8,0:0|0:0|0:0,0:0:0
336,204,44515,1,0,0:0:0
404,120,44741,2,0,B|420:16,1,90
496,104,45192,1,8,0:0:0
312,120,45418,6,0,B|252:128|220:200|268:268,1,180,2|2,0:0|0:0,0:0:0
300,364,46094,2,0,B|360:356|392:284|344:216,2,180,8|0|8,0:0|0:0|0:0,0:0:0
248,356,47109,1,8,0:0:0
248,356,47222,1,8,0:0:0
132,288,47448,6,0,B|100:224|168:160|124:96,1,180,4|2,0:0|0:0,0:0:0
52,148,48124,1,0,0:0:0
208,248,48350,2,0,B|256:264|312:224,2,90,10|0|2,0:0|0:0|0:0,0:0:0
148,180,49027,1,0,0:0:0
352,168,49252,2,0,B|392:196|396:260|364:300,2,135,8|8|8,0:0|0:0|0:0,0:0:0
204,257,50154,2,0,B|292:236,1,90
176,120,50605,2,0,B|88:141,1,90
20,228,51057,6,0,B|12:284|56:324|112:320,1,135,8|2,0:0|0:0,0:0:0
140,312,51508,1,0,0:0:0
256,260,51733,1,2,0:0:0
372,312,51959,5,10,0:0:0
372,312,52072,1,0,0:0:0
372,312,52184,2,0,B|428:320|468:256,1,90,2|0,0:0|0:0,0:0:0
500,160,52636,1,2,0:0:0
408,76,52861,6,0,B|356:36,1,45,8|0,0:0|0:0,0:0:0
296,148,53199,2,0,B|260:175,1,45,8|0,0:0|0:0,0:0:0
152,196,53538,1,8,0:0:0
60,140,53763,1,0,0:0:0
60,140,53876,1,0,0:0:0
60,140,53989,2,0,B|32:96|48:48,1,90,0|8,0:0|0:0,0:0:0
76,20,54327,1,8,0:0:0
184,88,54553,1,8,0:0:0
184,88,54666,6,0,B|268:148|372:84,1,180,0|2,0:0|0:0,0:0:0
448,40,55342,1,0,0:0:0
504,192,55568,1,8,0:0:0
428,268,55793,2,0,B|364:308|284:264,1,135,2|0,0:0|0:0,0:0:0
264,244,56245,1,0,0:0:0
140,268,56470,6,0,B|92:260|48:296|56:364,2,135,8|8|8,0:0|0:0|0:0,0:0:0
148,356,57372,1,0,0:0:0
364,28,57824,1,0,0:0:0
268,80,58049,1,0,0:0:0
164,52,58275,6,0,B|100:36|40:80|48:160,1,180,8|2,0:0|0:0,0:0:0
116,256,58951,1,0,0:0:0
12,224,59177,1,8,0:0:0
152,156,59402,2,0,B|216:128|288:156,2,135,2|0|8,0:0|0:0|0:0,0:0:0
116,256,60305,6,0,B|144:316,2,45,2|0|8,0:0|0:0|0:0,0:0:0
292,296,60756,2,0,B|352:312,2,45,2|0|8,0:0|0:0|0:0,0:0:0
336,140,61207,2,0,B|324:84,2,45,2|0|8,0:0|0:0|0:0,0:0:0
404,224,61658,1,2,0:0:0
404,224,61771,1,0,0:0:0
404,224,61884,5,12,0:0:0
288,336,62109,1,8,0:0:0
140,268,62335,1,8,0:0:0
156,108,62560,1,8,0:0:0
316,88,62786,1,8,0:0:0
404,224,63012,6,0,B|452:228|488:188,2,90,2|0|2,0:0|0:0|0:0,0:0:0
292,196,63688,6,0,B|232:152,1,45,4|0,0:0|0:0,0:0:0
240,296,64027,2,0,B|300:340,1,45,0|12,0:0|0:0,0:0:0
372,268,64365,1,4,0:0:0
196,216,64590,2,0,B|88:216,1,90,8|4,0:0|0:0,0:0:0
28,140,65042,1,12,0:0:0
28,140,65154,2,0,B|0:184|12:240,1,90
24,268,65493,6,0,B|44:320|96:332|148:304,2,135,8|0|0,0:0|0:0|0:0,0:0:0
124,164,66395,1,8,0:0:0
228,344,66621,1,4,0:0:0
316,264,66846,1,12,0:0:0
316,264,66959,2,0,P|352:248|428:260,1,90,0|0,0:0|0:0,0:0:0
416,248,67297,6,0,B|460:184|424:104,1,135,8|0,0:0|0:0,0:0:0
412,80,67748,1,12,0:0:0
272,192,67974,1,4,0:0:0
304,32,68199,1,8,0:0:0
408,172,68425,1,4,0:0:0
408,172,68538,1,0,0:0:0
408,172,68651,2,0,B|464:176|496:128,1,90,12|0,0:0|0:0,0:0:0
240,100,69102,6,0,B|160:84|104:148,2,135,8|2|2,0:0|0:0|0:0,0:0:0
304,184,70004,1,8,0:0:0
244,276,70230,1,4,0:0:0
408,172,70455,1,4,0:0:0
240,100,70681,1,4,0:0:0
360,252,70906,5,8,0:0:0
256,160,71132,1,2,0:0:0
256,160,71245,1,0,0:0:0
256,160,71357,2,0,B|212:136|152:160,1,90,12|0,0:0|0:0,0:0:0
100,176,71696,2,0,B|16:176|0:84,1,135,0|4,0:0|0:0,0:0:0
164,76,72260,1,12,0:0:0
100,176,72485,1,0,0:0:0
100,176,72598,1,0,0:0:0
100,176,72711,6,0,B|100:272,1,90,8|2,0:0|0:0,0:0:0
36,328,73162,1,12,0:0:0
192,228,73387,1,0,0:0:0
192,228,73500,1,0,0:0:0
192,228,73613,2,0,B|192:128,1,90,8|4,0:0|0:0,0:0:0
148,40,74064,1,12,0:0:0
252,72,74290,6,0,B|308:72,2,45,0|0|8,0:0|0:0|0:0,0:0:0
376,160,74741,2,0,B|320:160,2,45,2|0|12,0:0|0:0|0:0,0:0:0
468,104,75192,1,2,0:0:0
312,244,75418,2,0,B|252:236|228:164|264:112,2,135,8|2|0,0:0|0:0|0:0,0:0:0
452,212,76320,6,0,B|480:268,1,45,8|0,0:0|0:0,0:0:0
468,104,76658,2,0,B|424:100,1,45,8|4,0:0|0:0,0:0:0
292,68,76996,1,8,0:0:0
208,176,77222,1,8,0:0:0
200,208,77335,1,8,0:0:0
204,240,77448,1,8,0:0:0
216,268,77560,1,8,0:0:0
236,292,77673,2,8,B|264:296|288:332,3,45
344,340,78124,6,0,B|416:352|472:292|448:212,2,180,4|12|8,0:0|0:0|0:0,0:0:0
236,292,79252,2,0,B|216:340|232:384,1,90,2|12,0:0|0:0,0:0:0
336,256,79703,1,2,0:0:0
232,184,79929,2,0,B|184:172|140:192,1,90,8|0,0:0|0:0,0:0:0
236,292,80380,1,12,0:0:0
328,344,80605,2,0,B|392:364|464:296|408:208,1,180,0|2,0:0|0:0,0:0:0
344,92,81282,1,12,0:0:0
268,204,81508,1,2,0:0:0
156,124,81733,6,0,B|116:96|60:104|24:148,1,135,8|0,0:0|0:0,0:0:0
12,180,82184,1,12,0:0:0
88,280,82410,2,0,B|112:240|104:188,1,90,0|8,0:0|0:0,0:0:0
48,72,82861,1,2,0:0:0
156,124,83087,1,12,0:0:0
48,72,83312,1,2,0:0:0
148,28,83538,6,0,B|208:12,1,45,8|0,0:0|0:0,0:0:0
300,112,83876,2,0,B|360:128,1,45,8|4,0:0|0:0,0:0:0
424,52,84215,1,0,0:0:0
320,192,84440,6,0,B|348:240,1,45,8|0,0:0|0:0,0:0:0
252,232,84666,2,0,B|224:284,1,45,0|0,0:0|0:0,0:0:0
316,300,84891,2,0,B|340:348,1,45,8|8,0:0|0:0,0:0:0
244,344,85117,2,8,B|224:384,1,45
160,340,85342,6,0,B|136:268|56:252|-8:296,2,180,4|12|8,0:0|0:0|0:0,0:0:0
56,376,86470,1,2,0:0:0
184,248,86696,1,12,0:0:0
40,172,86921,1,2,0:0:0
144,104,87147,6,0,B|196:112|236:72,1,90,8|0,0:0|0:0,0:0:0
140,16,87598,1,12,0:0:0
56,84,87824,2,0,B|36:144|88:208|172:188,1,180,0|2,0:0|0:0,0:0:0
288,144,88500,1,12,0:0:0
396,268,88726,1,2,0:0:0
432,128,88951,5,8,0:0:0
288,252,89177,1,2,0:0:0
288,252,89290,1,0,0:0:0
288,252,89402,2,0,B|244:272|196:252,1,90,12|2,0:0|0:0,0:0:0
120,132,89854,2,0,B|164:112|212:132,1,90,8|2,0:0|0:0,0:0:0
288,252,90305,1,12,0:0:0
207,130,90530,1,2,0:0:0
324,152,90756,6,0,B|376:140,1,45,8|0,0:0|0:0,0:0:0
188,232,91094,2,0,B|136:244,1,45,8|4,0:0|0:0,0:0:0
256,192,91433,5,8,0:0:0
280,212,91545,1,8,0:0:0
308,224,91658,1,8,0:0:0
340,224,91771,1,8,0:0:0
368,212,91884,1,8,0:0:0
388,188,91996,1,8,0:0:0
404,160,92109,2,8,B|428:88,1,45
488,200,92335,2,8,B|473:242,1,45
444,284,92560,6,0,B|408:288|378:301,1,67.5000025749208
224,332,93012,2,0,B|260:336|290:350,1,67.5000025749208
160,232,93463,2,0,B|124:236|95:250,1,67.5000025749208,0|0,0:0|0:0,0:0:0
108,124,93914,2,8,B|116:104|109:79,1,45
108,124,94365,6,0,B|60:116|16:140,2,90,4|0|8,0:0|0:0|0:0,0:0:0
224,176,95042,1,0,0:0:0
224,176,95154,1,0,0:0:0
224,176,95267,2,0,B|272:184|316:160,1,90
396,96,95718,1,8,0:0:0
352,264,95944,2,0,B|260:252|164:276,1,180,2|2,0:0|0:0,0:0:0
44,324,96621,5,8,0:0:0
16,164,96846,1,2,0:0:0
176,204,97072,1,0,0:0:0
88,232,97297,1,2,0:0:0
248,268,97523,1,8,0:0:0
192,112,97748,1,2,0:0:0
324,56,97974,6,0,B|364:116|344:208,1,135
336,232,98425,2,0,B|381:231|421:255,1,90,8|0,0:0|0:0,0:0:0
448,272,98763,1,0,0:0:0
476,288,98876,2,0,B|492:244|480:192,1,90
424,92,99327,1,8,0:0:0
264,128,99553,2,0,B|172:120|68:116,1,180,2|2,0:0|0:0,0:0:0
84,117,100230,5,8,0:0:0
136,232,100455,1,2,0:0:0
20,280,100681,1,0,0:0:0
108,328,100906,1,2,0:0:0
212,156,101132,2,0,B|260:144|308:164,1,90,8|2,0:0|0:0,0:0:0
408,184,101583,6,8,B|456:176,1,45
376,288,101921,2,8,B|331:295,1,45
204,304,102260,1,0,0:0:0
204,304,102372,1,0,0:0:0
204,304,102485,2,0,B|160:292|113:298,2,90,0|0|8,0:0|0:0|0:0,0:0:0
316,236,103162,2,0,B|324:148|332:48,1,180,2|2,0:0|0:0,0:0:0
152,44,103839,5,8,0:0:0
240,132,104064,1,2,0:0:0
260,32,104290,1,0,0:0:0
136,144,104515,1,2,0:0:0
152,44,104741,1,8,0:0:0
220,220,104966,1,2,0:0:0
380,76,105192,6,0,B|420:136|404:212,1,135
392,232,105643,1,8,0:0:0
288,272,105869,1,0,0:0:0
288,272,105981,1,0,0:0:0
288,272,106094,2,0,B|296:224|300:176,1,90
376,332,106545,1,8,0:0:0
220,220,106771,2,0,B|132:216|40:212,1,180,2|2,0:0|0:0,0:0:0
40,212,107448,5,8,0:0:0
124,316,107673,1,2,0:0:0
220,220,107899,2,0,B|222:174|228:120,1,90,0|2,0:0|0:0,0:0:0
360,68,108350,1,8,0:0:0
360,68,108463,1,8,0:0:0
360,68,108575,1,8,0:0:0
464,200,108801,6,0,B|396:168|332:208,1,135,4|0,0:0|0:0,0:0:0
312,224,109252,2,0,P|306:271|300:316,1,90,2|0,0:0|0:0,0:0:0
132,272,109703,2,0,P|144:184|155:93,1,180,2|0,0:0|0:0,0:0:0
236,152,110380,1,0,0:0:0
68,108,110605,6,0,B|16:116,1,45,8|8,0:0|0:0,0:0:0
216,24,110944,2,0,B|268:32,1,45,8|8,0:0|0:0,0:0:0
155,94,111282,1,8,0:0:0
224,232,111508,2,0,B|268:236|306:203,1,90
348,92,111959,1,0,0:0:0
232,100,112184,1,0,0:0:0
144,176,112410,6,0,B|120:248|160:304,1,135,8|2,0:0|0:0,0:0:0
196,332,112861,1,0,0:0:0
284,216,113087,1,2,0:0:0
196,104,113312,2,0,B|124:80|68:120,1,135,8|2,0:0|0:0,0:0:0
40,156,113763,1,0,0:0:0
156,244,113989,1,2,0:0:0
264,152,114215,6,0,B|289:107|276:52|228:32,1,135,8|8,0:0|0:0,0:0:0
192,28,114666,2,0,B|136:36|124:92,1,90,8|8,0:0|0:0,0:0:0
156,244,115117,1,0,0:0:0
264,152,115342,1,0,0:0:0
340,276,115568,2,0,B|336:320,1,45,8|8,0:0|0:0,0:0:0
228,276,115906,5,8,0:0:0
228,276,116019,2,0,B|213:319|156:336|114:309,1,135,8|2,0:0|0:0,0:0:0
80,280,116470,1,0,0:0:0
180,168,116696,1,2,0:0:0
324,164,116921,2,0,B|320:120|315:75,1,90,8|2,0:0|0:0,0:0:0
288,240,117372,2,0,B|336:260|384:224,1,90,0|2,0:0|0:0,0:0:0
480,200,117824,6,0,B|508:128|452:64,1,135,8|8,0:0|0:0,0:0:0
420,52,118275,1,8,0:0:0
324,164,118500,1,8,0:0:0
212,52,118726,2,0,B|252:60|299:68,1,90
212,169,119177,2,0,B|168:176|124:184,1,90
324,164,119628,6,0,B|351:227|316:297,1,135,8|2,0:0|0:0,0:0:0
283,314,120079,2,0,B|240:312|189:310,1,90,0|2,0:0|0:0,0:0:0
96,232,120530,1,8,0:0:0
128,112,120756,2,0,B|194:104|242:164|214:232,1,180,2|0,0:0|0:0,0:0:0
256,192,121433,12,0,123012,0:0:0
108,104,123237,5,4,0:0:0
152,212,123463,1,8,0:0:0
256,264,123688,1,8,0:0:0
360,212,123914,1,8,0:0:0
404,104,124139,1,8,0:0:0
256,56,124365,5,2,0:0:0
256,132,124590,2,0,B|257:195,1,49.5000015106202,0|2,0:0|0:0,0:0:0
256,264,125042,6,0,B|212:272|196:288|196:288|168:268|128:288,1,135,4|0,0:0|0:0,0:0:0
96,288,125493,2,0,B|72:244|81:200,1,90,12|4,0:0|0:0,0:0:0
184,116,125944,1,8,0:0:0
256,264,126169,2,0,B|240:356,2,90,4|12|0,0:0|0:0|0:0,0:0:0
152,240,126846,5,8,0:0:0
364,280,127072,1,0,0:0:0
276,176,127297,1,12,0:0:0
241,351,127523,1,4,0:0:0
241,351,127636,1,0,0:0:0
241,351,127748,1,8,0:0:0
364,280,127974,5,4,0:0:0
364,280,128087,1,0,0:0:0
364,280,128199,2,0,B|384:236|376:184,1,90,12|0,0:0|0:0,0:0:0
298,47,128651,2,0,B|258:103|276:177,1,135,8|0,0:0|0:0,0:0:0
276,176,129102,1,12,0:0:0
364,280,129327,1,4,0:0:0
416,156,129553,1,8,0:0:0
292,252,129778,6,0,B|264:256|240:268,1,45,4|0,0:0|0:0,0:0:0
180,284,130004,2,0,B|136:296|80:272,1,90,12|0,0:0|0:0,0:0:0
52,152,130455,2,0,B|124:172|181:134,1,135,8|2,0:0|0:0,0:0:0
220,112,130906,1,12,0:0:0
328,168,131132,2,0,B|372:152|440:156,1,90,2|8,0:0|0:0,0:0:0
384,240,131583,5,4,0:0:0
296,92,131808,1,4,0:0:0
128,128,132034,1,4,0:0:0
128,128,132147,1,4,0:0:0
128,128,132260,1,8,0:0:0
68,232,132485,5,2,0:0:0
172,208,132711,1,12,0:0:0
256,144,132936,1,0,0:0:0
256,144,133049,1,0,0:0:0
256,144,133162,1,8,0:0:0
444,152,133387,5,4,0:0:0
340,176,133613,1,12,0:0:0
256,240,133839,1,0,0:0:0
256,240,133951,1,0,0:0:0
256,240,134064,1,8,0:0:0
119,219,134290,5,2,0:0:0
204,152,134515,1,12,0:0:0
256,56,134741,1,0,0:0:0
256,56,134854,1,0,0:0:0
256,56,134966,1,8,0:0:0
393,165,135192,5,4,0:0:0
308,232,135418,1,12,0:0:0
256,328,135643,1,0,0:0:0
256,328,135756,1,0,0:0:0
256,328,135869,1,8,0:0:0
108,272,136094,5,2,0:0:0
108,272,136207,1,0,0:0:0
108,272,136320,2,0,B|152:252|200:256,1,90,12|2,0:0|0:0,0:0:0
340,172,136771,2,0,P|272:184|204:132,1,135,8|2,0:0|0:0,0:0:0
204,124,137222,2,0,P|208:74|212:24,1,90,12|2,0:0|0:0,0:0:0
8,152,137673,2,0,P|61:145|129:185,1,135,8|8,0:0|0:0,0:0:0
144,212,138124,2,0,P|136:304,1,90,4|8,0:0|0:0,0:0:0
284,232,138575,5,8,0:0:0
312,200,138688,1,8,0:0:0
328,164,138801,1,8,0:0:0
328,124,138914,1,8,0:0:0
312,96,139027,6,8,B|265:80,1,45
220,184,139252,2,8,B|240:168|248:144,1,45
154,80,139478,6,0,B|126:144|150:244,1,135,4|0,0:0|0:0,0:0:0
154,256,139929,1,12,0:0:0
312,336,140154,2,0,B|333:293|324:240,1,90,0|8,0:0|0:0,0:0:0
256,140,140605,1,2,0:0:0
388,196,140831,1,12,0:0:0
248,232,141057,1,2,0:0:0
424,268,141282,6,0,B|464:252|484:192|452:144,1,135,8|0,0:0|0:0,0:0:0
424,120,141733,1,12,0:0:0
304,44,141959,2,0,B|300:88|293:133,1,90,0|8,0:0|0:0,0:0:0
68,196,142410,1,2,0:0:0
164,148,142636,1,12,0:0:0
72,88,142861,1,2,0:0:0
160,256,143087,6,0,B|224:284|296:252,1,135,8|0,0:0|0:0,0:0:0
328,228,143538,1,12,0:0:0
296,76,143763,2,0,B|276:116|279:163,1,90,0|8,0:0|0:0,0:0:0
392,288,144215,1,2,0:0:0
392,288,144327,1,0,0:0:0
392,288,144440,2,0,B|412:248|408:200,1,90,12|2,0:0|0:0,0:0:0
212,152,144891,2,0,B|160:160|132:120|132:120|60:136,2,135,8|2|0,0:0|0:0|0:0,0:0:0
352,152,145793,5,8,0:0:0
160,232,146019,1,2,0:0:0
304,316,146245,1,4,0:0:0
208,68,146470,1,4,0:0:0
320,72,146696,6,0,B|388:52|454:79,1,135,4|0,0:0|0:0,0:0:0
476,116,147147,1,12,0:0:0
420,228,147372,2,0,B|374:238|330:222,1,90,0|8,0:0|0:0,0:0:0
180,188,147824,1,2,0:0:0
256,264,148049,1,12,0:0:0
84,236,148275,1,2,0:0:0
260,60,148500,6,0,B|284:124|253:194,1,135,8|0,0:0|0:0,0:0:0
224,224,148951,1,12,0:0:0
84,236,149177,2,0,B|68:188|88:144,1,90,0|8,0:0|0:0,0:0:0
208,120,149628,2,0,B|188:103|183:72,1,45,2|0,0:0|0:0,0:0:0
260,60,149854,2,0,B|280:56|304:68,1,45,12|0,0:0|0:0,0:0:0
284,140,150079,2,0,B|300:188|272:236,1,90,2|8,0:0|0:0,0:0:0
140,280,150530,5,2,0:0:0
140,280,150643,1,0,0:0:0
140,280,150756,2,0,B|184:272|232:304,1,90,12|2,0:0|0:0,0:0:0
296,328,151094,1,0,0:0:0
296,328,151207,2,0,B|340:328|396:292,1,90,8|2,0:0|0:0,0:0:0
440,260,151545,1,0,0:0:0
440,260,151658,2,0,B|456:212|444:164,1,90,12|2,0:0|0:0,0:0:0
328,88,152109,6,0,B|376:68,1,45,8|0,0:0|0:0,0:0:0
184,88,152448,2,0,B|136:68,1,45,8|4,0:0|0:0,0:0:0
256,152,152786,1,8,0:0:0
268,188,152899,1,8,0:0:0
296,220,153012,1,8,0:0:0
332,240,153124,1,8,0:0:0
372,248,153237,1,8,0:0:0
412,244,153350,1,8,0:0:0
448,224,153463,2,8,B|456:204|456:180,3,45
456,136,153914,5,4,0:0:0
328,88,154252,1,4,0:0:0
184,88,154590,1,4,0:0:0
184,88,154816,1,0,0:0:0
256,269,169252,6,0,B|292:237|388:289|440:265,1,180,2|0,0:0|0:0,0:0:0
432,268,170154,6,0,B|444:192|480:144,1,135
480,143,170605,2,0,B|452:92|380:96,1,90,0|0,0:0|0:0,0:0:0
216,132,171057,1,4,0:0:0
336,248,171508,1,0,0:0:0
80,268,171959,2,0,B|68:192|32:144,1,135
31,143,172410,2,0,B|60:92|132:96,1,90,0|0,0:0|0:0,0:0:0
296,132,172861,1,4,0:0:0
176,248,173312,6,0,B|224:308|308:300,1,135
294,300,173763,1,0,0:0:0
400,232,173989,1,2,0:0:0
292,172,174215,1,0,0:0:0
368,304,174440,5,2,0:0:0
480,280,174666,1,4,0:0:0
404,188,174891,1,2,0:0:0
148,284,175342,6,0,B|72:256|72:160|144:128,1,180,2|0,0:0|0:0,0:0:0
200,92,176019,1,2,0:0:0
236,256,176245,1,0,0:0:0
296,116,176470,1,4,0:0:0
360,200,176696,1,2,0:0:0
360,200,176808,1,0,0:0:0
360,200,176921,2,0,B|408:204|476:200,1,90,0|2,0:0|0:0,0:0:0
337,334,177372,6,0,B|264:328|236:256,1,135
236,256,177824,2,0,B|252:192|264:168,1,90
44,276,178275,1,4,0:0:0
44,276,178726,1,0,0:0:0
236,256,178951,1,0,0:0:0
181,171,179177,6,0,B|120:213|132:289,1,135
132,288,179628,2,0,B|177:335|200:350,1,90
380,96,180079,2,0,B|334:48|311:33,1,90,4|0,0:0|0:0,0:0:0
256,192,180530,1,0,0:0:0
256,192,180981,12,0,182335,0:0:0
256,92,182786,5,0,0:0:0
364,172,183011,1,0,0:0:0
324,300,183237,1,0,0:0:0
188,300,183463,1,0,0:0:0
148,172,183688,1,0,0:0:0
256,236,183914,1,8,0:0:0
364,172,184139,6,0,B|316:136,1,45,8|8,0:0|0:0,0:0:0
148,172,184365,2,0,B|196:136,1,45
256,236,184590,2,0,B|240:276|184:304|140:292,1,135,4|0,0:0|0:0,0:0:0
144,292,185042,1,12,0:0:0
52,232,185267,1,4,0:0:0
52,232,185380,1,0,0:0:0
52,232,185493,1,8,0:0:0
148,76,185718,5,4,0:0:0
148,172,185944,1,12,0:0:0
148,172,186057,2,0,B|96:172|68:136,1,90
18,101,186395,2,0,B|52:232,1,135,8|0,0:0|0:0,0:0:0
52,232,186846,1,12,0:0:0
196,284,187072,1,4,0:0:0
104,308,187297,1,8,0:0:0
212,192,187523,6,0,B|240:196|276:212,1,45,4|0,0:0|0:0,0:0:0
320,240,187749,2,0,B|332:288|304:340,1,90,12|0,0:0|0:0,0:0:0
203,369,188199,2,0,B|184:288|124:260,1,135,8|0,0:0|0:0,0:0:0
128,262,188651,1,12,0:0:0
272,240,188876,2,0,B|328:212|376:216,1,90,4|8,0:0|0:0,0:0:0
364,120,189327,6,0,B|342:101|307:83,1,45,4|0,0:0|0:0,0:0:0
257,68,189553,2,0,B|212:89|190:144,1,90,12|0,0:0|0:0,0:0:0
128,260,190004,2,0,B|109:179|49:151,1,135,8|2,0:0|0:0,0:0:0
53,153,190456,1,12,0:0:0
197,131,190681,2,0,B|253:103|301:107,1,90,2|8,0:0|0:0,0:0:0
400,168,191132,1,4,0:0:0
276,256,191357,1,4,0:0:0
196,132,191583,1,4,0:0:0
196,132,191696,1,4,0:0:0
196,132,191808,1,8,0:0:0
276,256,192034,5,2,0:0:0
148,272,192260,2,0,B|148:204|184:176,1,90,12|0,0:0|0:0,0:0:0
172,187,192598,1,0,0:0:0
172,187,192711,1,8,0:0:0
48,168,192936,1,4,0:0:0
152,102,193162,2,0,B|184:140|172:187,1,90,12|0,0:0|0:0,0:0:0
172,187,193500,1,0,0:0:0
172,187,193613,1,8,0:0:0
400,220,193839,5,2,0:0:0
304,152,194064,2,0,B|272:190|284:237,1,90,12|0,0:0|0:0,0:0:0
284,237,194402,1,0,0:0:0
284,237,194515,1,8,0:0:0
180,306,194741,1,4,0:0:0
308,322,194966,2,0,B|308:254|272:226,1,90,12|0,0:0|0:0,0:0:0
284,237,195305,1,0,0:0:0
284,237,195418,1,8,0:0:0
308,108,195643,6,0,B|336:112|372:128,1,45,2|0,0:0|0:0,0:0:0
416,156,195869,2,0,B|428:204|400:256,1,90,12|2,0:0|0:0,0:0:0
308,321,196320,2,0,B|260:245|168:257,1,135,8|2,0:0|0:0,0:0:0
196,255,196771,2,0,B|216:209|256:153,1,90,12|2,0:0|0:0,0:0:0
308,64,197222,5,8,0:0:0
100,192,197560,1,8,0:0:0
308,320,197899,2,8,B|352:304,1,45
464,354,198124,2,8,B|428:328,1,45
420,204,198350,2,8,B|408:248,1,45
324,224,198575,1,8,0:0:0
300,204,198688,1,8,0:0:0
288,176,198801,1,8,0:0:0
288,144,198914,1,8,0:0:0
304,116,199027,6,0,B|312:64|268:20|216:28,1,135,4|0,0:0|0:0,0:0:0
226,27,199478,1,12,0:0:0
104,144,199703,2,0,B|168:136|200:116,1,90,0|8,0:0|0:0,0:0:0
112,52,200154,1,2,0:0:0
16,168,200380,1,12,0:0:0
112,52,200605,1,2,0:0:0
252,184,200831,2,0,B|194:214|157:216,1,90,8|0,0:0|0:0,0:0:0
212,104,201282,5,12,0:0:0
336,224,201508,1,0,0:0:0
296,104,201733,1,8,0:0:0
260,244,201959,1,2,0:0:0
412,184,202184,1,12,0:0:0
296,104,202410,1,2,0:0:0
356,264,202636,6,0,B|364:344|280:384,1,135,8|0,0:0|0:0,0:0:0
295,375,203087,1,12,0:0:0
248,272,203312,2,0,B|260:216|276:172,1,90,0|8,0:0|0:0,0:0:0
356,264,203763,1,2,0:0:0
160,212,203989,1,12,0:0:0
356,264,204215,1,2,0:0:0
224,352,204440,5,12,0:0:0
332,152,204778,1,4,0:0:0
136,288,205117,1,4,0:0:0
356,264,205342,5,8,0:0:0
156,120,205568,1,2,0:0:0
332,152,205793,1,12,0:0:0
180,232,206019,2,0,B|232:260,1,45,4|4,0:0|0:0,0:0:0
296,300,206245,6,0,B|336:240|448:248,1,135,4|0,0:0|0:0,0:0:0
414,247,206696,1,12,0:0:0
392,352,206921,1,0,0:0:0
392,352,207034,1,0,0:0:0
392,352,207147,1,8,0:0:0
316,196,207372,1,2,0:0:0
212,324,207598,1,12,0:0:0
336,280,207824,1,2,0:0:0
224,196,208049,6,0,B|136:196|100:260,1,135,8|0,0:0|0:0,0:0:0
106,249,208500,2,0,B|47:207|27:159,2,90,12|0|8,0:0|0:0|0:0,0:0:0
200,296,209177,1,2,0:0:0
240,96,209402,1,12,0:0:0
176,184,209628,2,0,B|220:212|272:200,1,90,2|8,0:0|0:0,0:0:0
344,132,210079,5,2,0:0:0
344,132,210192,1,0,0:0:0
344,132,210305,1,12,0:0:0
308,280,210530,1,2,0:0:0
344,132,210756,1,8,0:0:0
404,312,210981,1,2,0:0:0
236,180,211207,2,0,B|188:156|140:164,1,90,12|2,0:0|0:0,0:0:0
44,192,211658,5,8,0:0:0
256,352,211996,1,8,0:0:0
468,192,212335,2,8,B|452:148,1,45
502,36,212560,2,8,B|476:72,1,45
352,80,212786,2,8,B|396:92,1,45
372,176,213011,1,8,0:0:0
352,200,213124,1,8,0:0:0
324,212,213237,1,8,0:0:0
292,212,213350,1,8,0:0:0
264,196,213463,6,0,B|216:176|152:188|124:224,1,135,4|0,0:0|0:0,0:0:0
136,212,213914,2,0,B|157:293|181:313,1,90,12|0,0:0|0:0,0:0:0
372,176,214365,2,0,B|351:95|327:75,1,90,8|2,0:0|0:0,0:0:0
224,124,214816,1,12,0:0:0
268,248,215042,1,2,0:0:0
136,212,215267,2,0,B|96:148|16:148,1,135,8|0,0:0|0:0,0:0:0
23,148,215718,2,0,B|48:104|96:88,1,90,12|0,0:0|0:0,0:0:0
224,124,216169,5,8,0:0:0
136,212,216395,1,2,0:0:0
268,248,216621,1,12,0:0:0
176,332,216846,1,2,0:0:0
176,332,216959,1,0,0:0:0
176,332,217072,2,0,B|208:376|288:384|332:344,1,135,8|0,0:0|0:0,0:0:0
298,363,217523,1,12,0:0:0
268,248,217748,2,0,B|256:200|256:156,1,90,0|8,0:0|0:0,0:0:0
356,188,218199,5,2,0:0:0
168,212,218425,1,12,0:0:0
352,288,218651,1,2,0:0:0
192,312,218876,2,0,B|136:344|92:296|92:296|64:328,2,135,8|2|0,0:0|0:0|0:0,0:0:0
268,248,219778,5,8,0:0:0
240,72,220004,1,2,0:0:0
96,164,220230,2,0,B|124:212|184:212,1,90,4|4,0:0|0:0,0:0:0
168,211,220568,1,4,0:0:0
168,211,220681,2,0,B|192:160|256:136|312:160,1,135,4|0,0:0|0:0,0:0:0
279,151,221132,1,12,0:0:0
334,310,221357,2,0,B|290:274|266:246,1,90,0|8,0:0|0:0,0:0:0
444,176,221808,2,0,B|390:194|358:212,2,90,2|12|2,0:0|0:0|0:0,0:0:0
280,152,222485,6,0,B|256:100|192:76|136:100,1,135,8|0,0:0|0:0,0:0:0
169,91,222936,1,12,0:0:0
116,248,223162,2,0,B|160:212|184:184,1,90,0|8,0:0|0:0,0:0:0
240,80,223613,1,2,0:0:0
272,304,223839,1,12,0:0:0
396,136,224064,2,0,B|352:172|328:200,1,90,2|8,0:0|0:0,0:0:0
272,304,224515,5,2,0:0:0
180,204,224741,1,8,0:0:0
240,80,224966,1,2,0:0:0
180,204,225192,1,8,0:0:0
68,128,225418,1,2,0:0:0
180,204,225643,1,8,0:0:0
84,284,225869,2,0,B|120:336|200:332|232:312,1,135,2|0,0:0|0:0,0:0:0
205,322,226320,2,0,B|252:284|316:276,1,90,2|4,0:0|0:0,0:0:0
404,336,226771,5,8,0:0:0
436,320,226884,1,8,0:0:0
456,288,226996,2,8,B|424:264|420:248,1,45
376,192,227222,2,8,B|375:199|343:223,1,45
264,204,227448,2,8,B|232:180|228:164,1,45
184,108,227673,2,8,B|183:115|151:139,1,45
76,160,227899,22,0,B|40:132|8:136|8:136|24:104|8:76,2,135,2|2|2,0:0|0:0|0:0,0:0:0
