osu file format v14

[General]
AudioFilename: Three Magic (DiGiTAL WiNG TRANCE Remix)-Halozy.mp3
AudioLeadIn: 0
PreviewTime: 85694
Countdown: 0
SampleSet: Normal
StackLeniency: 0.7
Mode: 1
LetterboxInBreaks: 0
WidescreenStoryboard: 0

[Editor]
DistanceSpacing: 0.8
BeatDivisor: 4
GridSize: 32
TimelineZoom: 2

[Metadata]
Title:Three Magic (DiGiTAL WiNG TRANCE Remix)
TitleUnicode:Three Magic (DiGiTAL WiNG TRANCE Remix)
Artist:3L
ArtistUnicode:3L
Creator:[Izayoi Sakura]
Version:Magic Taiko Oni
Source:東方星蓮船 ~ Undefined Fantastic Object.
Tags:Halozy
BeatmapID:672418
BeatmapSetID:299765

[Difficulty]
HPDrainRate:5
CircleSize:5
OverallDifficulty:5
ApproachRate:7
SliderMultiplier:1.4
SliderTickRate:4

[Events]
//Background and Video events
0,0,"BG.jpg",0,0
//Break Periods
//Storyboard Layer 0 (Background)
//Storyboard Layer 1 (Fail)
//Storyboard Layer 2 (Pass)
//Storyboard Layer 3 (Foreground)
//Storyboard Layer 4 (Overlay)
//Storyboard Sound Samples

[TimingPoints]
25,428.571428571429,4,1,0,60,1,0
42194,-83.3333333333333,4,1,0,60,0,0
56979,-100,4,1,0,60,0,0
85479,-76.9230769230769,4,1,0,60,0,0
85694,-100,4,1,0,60,0,1
111408,-100,4,1,0,60,0,0
111515,-83.3333333333333,4,1,0,60,0,0
126194,-83.3333333333333,4,1,0,60,0,0
142265,-100,4,1,0,60,0,1
142265,-76.9230769230769,4,1,0,60,0,1
169694,-100,4,1,0,60,0,0
169694,-100,4,1,0,60,0,0
208694,-100,4,1,0,60,0,0
210194,-100,4,1,0,60,0,0
212551,-83.3333333333333,4,1,0,60,0,0
224551,-100,4,1,0,60,0,0
225194,-100,4,1,0,60,0,0
226265,-76.9230769230769,4,1,0,60,0,1
226265,-100,4,1,0,60,0,1
251979,-100,4,1,0,60,0,0
253694,-76.9230769230769,4,1,0,60,0,1
278979,-100,4,1,0,60,0,1
279408,-100,4,1,0,60,0,0
286051,-83.3333333333333,4,1,0,60,0,0
308551,-100,4,1,0,60,0,0

[HitObjects]
256,192,1739,5,0,0:0:0:0:
256,192,2167,1,0,0:0:0:0:
256,192,2596,1,0,0:0:0:0:
256,192,3025,1,0,0:0:0:0:
256,192,3453,1,0,0:0:0:0:
256,192,3882,1,0,0:0:0:0:
256,192,4203,1,0,0:0:0:0:
256,192,4310,1,0,0:0:0:0:
256,192,4525,1,0,0:0:0:0:
256,192,4739,1,0,0:0:0:0:
256,192,5060,1,0,0:0:0:0:
256,192,5167,1,0,0:0:0:0:
256,192,5382,1,0,0:0:0:0:
256,192,5596,1,0,0:0:0:0:
256,192,5810,1,0,0:0:0:0:
256,192,5917,1,0,0:0:0:0:
256,192,6025,1,0,0:0:0:0:
256,192,6239,1,0,0:0:0:0:
256,192,6453,1,0,0:0:0:0:
256,192,6775,1,0,0:0:0:0:
256,192,6882,1,0,0:0:0:0:
256,192,7096,1,0,0:0:0:0:
256,192,7310,1,0,0:0:0:0:
256,192,7417,1,0,0:0:0:0:
256,192,7632,1,0,0:0:0:0:
256,192,7739,1,0,0:0:0:0:
256,192,7953,1,0,0:0:0:0:
256,192,8167,1,0,0:0:0:0:
256,192,8382,1,0,0:0:0:0:
256,192,8489,1,0,0:0:0:0:
256,192,8596,1,0,0:0:0:0:
256,192,8810,1,0,0:0:0:0:
256,192,9025,1,8,0:0:0:0:
256,192,9239,1,0,0:0:0:0:
256,192,9346,1,0,0:0:0:0:
256,192,9453,1,0,0:0:0:0:
256,192,9667,1,0,0:0:0:0:
256,192,9882,1,8,0:0:0:0:
256,192,10203,1,0,0:0:0:0:
256,192,10310,1,0,0:0:0:0:
256,192,10525,1,0,0:0:0:0:
256,192,10739,1,8,0:0:0:0:
256,192,10953,1,0,0:0:0:0:
256,192,11060,1,0,0:0:0:0:
256,192,11275,1,0,0:0:0:0:
256,192,11382,1,0,0:0:0:0:
256,192,11596,1,8,0:0:0:0:
256,192,11810,1,0,0:0:0:0:
256,192,11917,1,0,0:0:0:0:
256,192,12025,1,0,0:0:0:0:
256,192,12239,1,0,0:0:0:0:
256,192,12453,1,8,0:0:0:0:
256,192,12667,1,0,0:0:0:0:
256,192,12775,1,0,0:0:0:0:
256,192,12882,1,0,0:0:0:0:
256,192,13096,1,0,0:0:0:0:
256,192,13203,1,0,0:0:0:0:
256,192,13310,1,8,0:0:0:0:
256,192,13525,1,0,0:0:0:0:
256,192,13632,1,0,0:0:0:0:
256,192,13739,1,0,0:0:0:0:
256,192,13953,1,0,0:0:0:0:
256,192,14060,1,0,0:0:0:0:
256,192,14167,1,8,0:0:0:0:
256,192,14275,1,0,0:0:0:0:
256,192,14489,1,0,0:0:0:0:
256,192,14596,1,0,0:0:0:0:
256,192,14810,1,0,0:0:0:0:
256,192,14917,1,0,0:0:0:0:
256,192,15025,1,8,0:0:0:0:
256,192,15239,1,0,0:0:0:0:
256,192,15453,1,4,0:0:0:0:
256,192,15775,1,0,0:0:0:0:
256,192,15882,1,8,0:0:0:0:
256,192,16096,1,0,0:0:0:0:
256,192,16310,1,0,0:0:0:0:
256,192,16525,1,0,0:0:0:0:
256,192,16632,1,0,0:0:0:0:
256,192,16739,1,8,0:0:0:0:
256,192,16953,1,0,0:0:0:0:
256,192,17060,1,0,0:0:0:0:
256,192,17167,1,0,0:0:0:0:
256,192,17382,1,0,0:0:0:0:
256,192,17596,1,8,0:0:0:0:
256,192,17810,1,0,0:0:0:0:
256,192,18025,1,0,0:0:0:0:
256,192,18132,1,8,0:0:0:0:
256,192,18239,1,0,0:0:0:0:
256,192,18346,1,0,0:0:0:0:
256,192,18453,1,8,0:0:0:0:
256,192,18667,1,0,0:0:0:0:
256,192,18775,1,0,0:0:0:0:
256,192,18882,1,0,0:0:0:0:
256,192,19096,1,0,0:0:0:0:
256,192,19310,1,8,0:0:0:0:
256,192,19417,1,0,0:0:0:0:
256,192,19632,1,0,0:0:0:0:
256,192,19739,1,0,0:0:0:0:
256,192,19953,1,0,0:0:0:0:
256,192,20167,1,8,0:0:0:0:
256,192,20382,1,0,0:0:0:0:
256,192,20489,1,0,0:0:0:0:
256,192,20596,1,0,0:0:0:0:
256,192,20703,1,0,0:0:0:0:
256,192,20810,1,0,0:0:0:0:
256,192,21025,1,8,0:0:0:0:
256,192,21239,1,0,0:0:0:0:
256,192,21453,1,0,0:0:0:0:
256,192,21667,1,0,0:0:0:0:
256,192,21739,1,0,0:0:0:0:
256,192,21810,1,0,0:0:0:0:
256,192,21882,1,0,0:0:0:0:
256,192,21989,1,0,0:0:0:0:
256,192,22096,1,0,0:0:0:0:
256,192,22203,1,0,0:0:0:0:
256,192,22310,1,0,0:0:0:0:
256,192,22525,1,0,0:0:0:0:
256,192,22739,1,8,0:0:0:0:
256,192,22953,1,0,0:0:0:0:
256,192,23167,1,0,0:0:0:0:
256,192,23382,1,0,0:0:0:0:
256,192,23596,1,8,0:0:0:0:
256,192,23810,1,0,0:0:0:0:
256,192,24025,1,0,0:0:0:0:
256,192,24239,1,0,0:0:0:0:
256,192,24453,1,8,0:0:0:0:
256,192,24667,1,0,0:0:0:0:
256,192,24882,1,0,0:0:0:0:
256,192,25096,1,0,0:0:0:0:
256,192,25203,1,0,0:0:0:0:
256,192,25310,1,8,0:0:0:0:
256,192,25525,1,0,0:0:0:0:
256,192,25739,1,0,0:0:0:0:
256,192,25953,1,0,0:0:0:0:
256,192,26167,1,8,0:0:0:0:
256,192,26275,1,0,0:0:0:0:
256,192,26382,1,0,0:0:0:0:
256,192,26489,1,0,0:0:0:0:
256,192,26596,1,0,0:0:0:0:
256,192,26703,1,0,0:0:0:0:
256,192,26810,1,0,0:0:0:0:
256,192,26917,1,0,0:0:0:0:
256,192,27025,1,8,0:0:0:0:
256,192,27132,1,0,0:0:0:0:
256,192,27239,1,0,0:0:0:0:
256,192,27310,1,0,0:0:0:0:
256,192,27382,1,0,0:0:0:0:
256,192,27453,1,0,0:0:0:0:
256,192,27525,1,0,0:0:0:0:
256,192,27596,1,0,0:0:0:0:
256,192,27667,1,0,0:0:0:0:
256,192,27775,1,0,0:0:0:0:
256,192,27882,1,8,0:0:0:0:
256,192,27989,1,0,0:0:0:0:
256,192,28096,1,0,0:0:0:0:
256,192,28203,1,0,0:0:0:0:
256,192,28310,1,0,0:0:0:0:
256,192,28417,1,0,0:0:0:0:
256,192,28525,1,0,0:0:0:0:
256,192,28632,1,0,0:0:0:0:
256,192,28739,1,8,0:0:0:0:
256,192,28810,1,8,0:0:0:0:
256,192,28882,1,8,0:0:0:0:
256,192,28953,1,8,0:0:0:0:
256,192,29025,1,8,0:0:0:0:
256,192,29096,1,8,0:0:0:0:
256,192,29167,1,8,0:0:0:0:
256,192,29382,1,8,0:0:0:0:
256,192,29596,1,0,0:0:0:0:
256,192,29810,1,8,0:0:0:0:
256,192,30025,1,0,0:0:0:0:
256,192,30239,1,8,0:0:0:0:
256,192,30453,1,0,0:0:0:0:
256,192,30667,1,8,0:0:0:0:
256,192,30775,1,0,0:0:0:0:
256,192,30882,1,0,0:0:0:0:
256,192,31096,1,8,0:0:0:0:
256,192,31310,1,0,0:0:0:0:
256,192,31525,1,8,0:0:0:0:
256,192,31632,1,8,0:0:0:0:
256,192,31846,1,8,0:0:0:0:
256,192,31953,1,8,0:0:0:0:
256,192,32167,1,0,0:0:0:0:
256,192,32382,1,8,0:0:0:0:
256,192,32489,1,8,0:0:0:0:
256,192,32596,1,0,0:0:0:0:
256,192,32810,1,8,0:0:0:0:
256,192,33025,1,0,0:0:0:0:
256,192,33239,1,8,0:0:0:0:
256,192,33346,1,0,0:0:0:0:
256,192,33453,1,0,0:0:0:0:
256,192,33667,1,8,0:0:0:0:
256,192,33882,1,0,0:0:0:0:
256,192,33989,1,0,0:0:0:0:
256,192,34096,1,8,0:0:0:0:
256,192,34310,1,0,0:0:0:0:
256,192,34525,1,8,0:0:0:0:
256,192,34632,1,8,0:0:0:0:
256,192,34739,1,0,0:0:0:0:
256,192,34953,1,8,0:0:0:0:
256,192,35167,1,0,0:0:0:0:
256,192,35382,1,8,0:0:0:0:
256,192,35596,1,0,0:0:0:0:
256,192,36025,1,0,0:0:0:0:
256,192,36239,1,0,0:0:0:0:
256,192,36346,1,0,0:0:0:0:
256,192,36453,1,8,0:0:0:0:
256,192,36667,1,0,0:0:0:0:
256,192,36882,1,8,0:0:0:0:
256,192,36989,1,0,0:0:0:0:
256,192,37203,1,0,0:0:0:0:
256,192,37310,1,8,0:0:0:0:
256,192,37525,1,0,0:0:0:0:
256,192,37739,1,0,0:0:0:0:
256,192,37846,1,0,0:0:0:0:
256,192,38060,1,0,0:0:0:0:
256,192,38167,1,8,0:0:0:0:
256,192,38382,1,0,0:0:0:0:
256,192,38596,1,8,0:0:0:0:
256,192,38703,1,0,0:0:0:0:
256,192,38810,1,8,0:0:0:0:
256,192,38917,1,0,0:0:0:0:
256,192,39025,1,8,0:0:0:0:
256,192,39239,1,0,0:0:0:0:
256,192,39346,1,8,0:0:0:0:
256,192,39453,1,0,0:0:0:0:
256,192,39667,1,0,0:0:0:0:
256,192,39882,1,8,0:0:0:0:
256,192,40096,1,0,0:0:0:0:
256,192,40310,1,8,0:0:0:0:
256,192,40525,1,0,0:0:0:0:
256,192,40739,1,8,0:0:0:0:
256,192,40810,1,8,0:0:0:0:
256,192,40882,1,8,0:0:0:0:
256,192,40953,1,8,0:0:0:0:
256,192,41167,1,0,0:0:0:0:
256,192,41382,1,0,0:0:0:0:
256,192,41596,1,8,0:0:0:0:
256,192,41667,1,8,0:0:0:0:
256,192,41739,1,8,0:0:0:0:
256,192,41810,1,8,0:0:0:0:
256,192,42025,1,0,0:0:0:0:
256,192,42453,1,8,0:0:0:0:
256,192,42560,1,0,0:0:0:0:
256,192,42667,1,8,0:0:0:0:
256,192,42775,1,0,0:0:0:0:
256,192,42882,1,8,0:0:0:0:
256,192,42989,1,0,0:0:0:0:
256,192,43096,1,0,0:0:0:0:
256,192,43203,1,0,0:0:0:0:
256,192,43310,1,8,0:0:0:0:
256,192,43525,1,0,0:0:0:0:
256,192,43632,1,0,0:0:0:0:
256,192,43739,1,0,0:0:0:0:
256,192,43953,1,0,0:0:0:0:
256,192,44060,1,0,0:0:0:0:
256,192,44167,1,8,0:0:0:0:
256,192,44382,1,0,0:0:0:0:
256,192,44489,1,0,0:0:0:0:
256,192,44596,1,8,0:0:0:0:
256,192,44703,1,0,0:0:0:0:
256,192,44810,1,8,0:0:0:0:
256,192,44917,1,0,0:0:0:0:
256,192,45025,1,8,0:0:0:0:
256,192,45239,1,0,0:0:0:0:
256,192,45453,1,0,0:0:0:0:
256,192,45560,1,0,0:0:0:0:
256,192,45667,1,8,0:0:0:0:
256,192,45882,1,8,0:0:0:0:
256,192,46096,1,0,0:0:0:0:
256,192,46310,1,8,0:0:0:0:
256,192,46417,1,0,0:0:0:0:
256,192,46632,1,0,0:0:0:0:
256,192,46739,1,8,0:0:0:0:
256,192,46953,1,0,0:0:0:0:
256,192,47060,1,0,0:0:0:0:
256,192,47167,1,8,0:0:0:0:
256,192,47275,1,8,0:0:0:0:
256,192,47382,1,0,0:0:0:0:
256,192,47596,1,8,0:0:0:0:
256,192,47703,1,0,0:0:0:0:
256,192,47810,1,0,0:0:0:0:
256,192,48025,1,8,0:0:0:0:
256,192,48132,1,0,0:0:0:0:
256,192,48239,1,0,0:0:0:0:
256,192,48346,1,8,0:0:0:0:
256,192,48453,1,8,0:0:0:0:
256,192,48667,1,8,0:0:0:0:
256,192,48882,1,0,0:0:0:0:
256,192,49096,1,8,0:0:0:0:
256,192,49203,1,0,0:0:0:0:
256,192,49310,1,8,0:0:0:0:
256,192,49525,1,8,0:0:0:0:
256,192,49739,1,0,0:0:0:0:
256,192,49953,1,0,0:0:0:0:
256,192,50060,1,0,0:0:0:0:
256,192,50167,1,8,0:0:0:0:
256,192,50382,1,0,0:0:0:0:
256,192,50596,1,0,0:0:0:0:
256,192,50703,1,0,0:0:0:0:
256,192,50917,1,0,0:0:0:0:
256,192,51025,1,8,0:0:0:0:
256,192,51132,1,0,0:0:0:0:
256,192,51239,1,0,0:0:0:0:
256,192,51453,1,0,0:0:0:0:
256,192,51667,1,8,0:0:0:0:
256,192,51775,1,8,0:0:0:0:
256,192,51882,1,0,0:0:0:0:
256,192,52096,1,8,0:0:0:0:
256,192,52310,1,8,0:0:0:0:
256,192,52417,1,0,0:0:0:0:
256,192,52525,1,8,0:0:0:0:
256,192,52632,1,0,0:0:0:0:
256,192,52739,1,8,0:0:0:0:
256,192,52846,1,8,0:0:0:0:
256,192,52953,1,0,0:0:0:0:
256,192,53060,1,0,0:0:0:0:
256,192,53167,1,8,0:0:0:0:
256,192,53382,1,0,0:0:0:0:
256,192,53489,1,0,0:0:0:0:
256,192,53596,1,8,0:0:0:0:
256,192,53703,1,0,0:0:0:0:
256,192,53810,1,0,0:0:0:0:
256,192,53917,1,0,0:0:0:0:
256,192,54025,1,8,0:0:0:0:
256,192,54132,1,0,0:0:0:0:
256,192,54239,1,0,0:0:0:0:
256,192,54346,1,0,0:0:0:0:
256,192,54453,1,8,0:0:0:0:
256,192,54560,1,0,0:0:0:0:
256,192,54667,1,8,0:0:0:0:
256,192,54775,1,0,0:0:0:0:
256,192,54882,1,8,0:0:0:0:
256,192,55096,12,0,56596,0:0:0:0:
256,190,57667,5,0,0:0:0:0:
256,190,57882,1,8,0:0:0:0:
256,190,58096,1,0,0:0:0:0:
161,99,58310,2,0,L|446:95,1,280
256,190,59382,1,0,0:0:0:0:
256,190,59596,1,8,0:0:0:0:
256,190,59703,1,0,0:0:0:0:
65,96,60025,2,0,L|358:93,1,280
256,190,61096,1,0,0:0:0:0:
256,190,61239,1,0,0:0:0:0:
256,190,61310,1,8,0:0:0:0:
256,190,61417,1,8,0:0:0:0:
123,87,61739,2,0,L|423:86,1,280
256,190,62810,1,0,0:0:0:0:
256,190,62971,1,0,0:0:0:0:
256,190,63025,1,8,0:0:0:0:
256,190,63132,1,0,0:0:0:0:
256,190,63453,1,8,0:0:0:0:
256,190,63775,1,8,0:0:0:0:
256,190,64096,1,8,0:0:0:0:
256,190,64525,1,8,0:0:0:0:
256,190,64739,1,0,0:0:0:0:
256,190,64953,1,8,0:0:0:0:
256,190,65060,1,0,0:0:0:0:
256,190,65382,1,0,0:0:0:0:
256,190,65596,1,0,0:0:0:0:
256,190,65810,1,0,0:0:0:0:
256,190,65917,1,8,0:0:0:0:
256,190,66239,1,8,0:0:0:0:
256,190,66453,1,0,0:0:0:0:
256,190,66667,1,8,0:0:0:0:
256,190,66775,1,0,0:0:0:0:
256,190,67096,1,0,0:0:0:0:
256,190,67310,1,8,0:0:0:0:
256,190,67525,1,0,0:0:0:0:
256,190,67632,1,8,0:0:0:0:
256,190,67953,1,8,0:0:0:0:
256,190,68167,1,0,0:0:0:0:
256,190,68382,1,0,0:0:0:0:
256,190,68489,1,8,0:0:0:0:
256,190,68810,1,0,0:0:0:0:
256,190,68917,1,0,0:0:0:0:
256,190,69025,1,0,0:0:0:0:
256,190,69239,1,8,0:0:0:0:
256,190,69453,1,0,0:0:0:0:
256,190,69775,1,0,0:0:0:0:
256,190,70096,1,0,0:0:0:0:
256,190,70310,1,8,0:0:0:0:
256,190,71167,1,8,0:0:0:0:
256,190,71596,1,0,0:0:0:0:
256,190,72025,1,4,0:0:0:0:
256,190,72453,1,8,0:0:0:0:
256,190,72667,1,0,0:0:0:0:
256,190,73096,1,0,0:0:0:0:
256,190,73525,1,8,0:0:0:0:
256,190,73739,1,0,0:0:0:0:
256,190,74167,1,0,0:0:0:0:
256,190,74382,1,8,0:0:0:0:
256,190,74810,1,0,0:0:0:0:
256,190,75025,1,8,0:0:0:0:
256,190,75239,1,0,0:0:0:0:
256,190,75453,1,0,0:0:0:0:
256,190,75882,1,8,0:0:0:0:
256,190,76096,1,0,0:0:0:0:
256,190,76525,1,0,0:0:0:0:
256,190,76739,1,8,0:0:0:0:
256,190,76953,1,0,0:0:0:0:
256,190,77167,1,8,0:0:0:0:
256,192,77382,1,0,0:0:0:0:
256,190,77489,1,8,0:0:0:0:
256,192,77703,1,0,0:0:0:0:
256,190,77810,1,8,0:0:0:0:
256,190,78025,1,8,0:0:0:0:
256,190,78132,1,8,0:0:0:0:
256,190,78239,1,0,0:0:0:0:
256,190,78453,1,8,0:0:0:0:
256,190,78667,1,0,0:0:0:0:
256,190,78882,1,0,0:0:0:0:
256,190,78989,1,0,0:0:0:0:
256,190,79096,1,0,0:0:0:0:
256,190,79203,1,0,0:0:0:0:
256,190,79310,1,8,0:0:0:0:
256,192,79417,1,0,0:0:0:0:
256,190,79525,1,8,0:0:0:0:
256,190,79632,1,0,0:0:0:0:
256,190,79739,1,0,0:0:0:0:
256,192,79846,1,0,0:0:0:0:
256,190,79953,1,8,0:0:0:0:
256,190,80060,1,0,0:0:0:0:
256,192,80167,1,0,0:0:0:0:
256,192,80275,1,0,0:0:0:0:
256,190,80382,1,8,0:0:0:0:
256,190,80489,1,0,0:0:0:0:
256,190,80596,1,8,0:0:0:0:
256,192,80703,1,0,0:0:0:0:
256,190,80810,1,0,0:0:0:0:
256,190,80917,1,0,0:0:0:0:
256,190,81025,1,8,0:0:0:0:
256,192,81132,1,0,0:0:0:0:
256,190,81239,1,8,0:0:0:0:
256,192,81346,1,0,0:0:0:0:
256,190,81453,1,0,0:0:0:0:
256,190,81560,1,0,0:0:0:0:
256,190,81667,1,8,0:0:0:0:
256,190,81775,1,0,0:0:0:0:
256,190,81882,1,8,0:0:0:0:
256,192,81989,1,0,0:0:0:0:
256,190,82096,1,8,0:0:0:0:
256,192,82203,1,0,0:0:0:0:
256,190,82310,1,0,0:0:0:0:
256,192,82382,1,0,0:0:0:0:
256,190,82453,1,0,0:0:0:0:
256,192,82525,1,0,0:0:0:0:
256,190,82596,1,0,0:0:0:0:
256,192,82667,1,0,0:0:0:0:
256,190,82739,1,0,0:0:0:0:
256,192,82810,1,0,0:0:0:0:
256,190,82882,1,0,0:0:0:0:
256,192,82953,1,0,0:0:0:0:
256,192,83025,1,0,0:0:0:0:
256,190,83096,1,0,0:0:0:0:
256,192,83167,1,0,0:0:0:0:
256,192,83239,1,0,0:0:0:0:
256,192,83310,1,0,0:0:0:0:
256,192,83382,1,0,0:0:0:0:
256,192,83453,1,0,0:0:0:0:
256,192,83525,1,0,0:0:0:0:
256,190,83596,1,0,0:0:0:0:
256,192,83667,1,0,0:0:0:0:
256,192,83739,1,0,0:0:0:0:
256,192,83810,1,0,0:0:0:0:
256,192,83882,1,0,0:0:0:0:
256,192,83953,1,0,0:0:0:0:
255,190,84025,1,0,0:0:0:0:
256,190,84346,1,4,0:0:0:0:
256,190,84667,1,4,0:0:0:0:
256,190,84882,1,4,0:0:0:0:
255,190,85310,1,8,0:0:0:0:
255,190,85739,1,0,0:0:0:0:
256,190,85953,1,8,0:0:0:0:
256,190,86060,1,8,0:0:0:0:
256,190,86167,1,0,0:0:0:0:
256,190,86382,1,8,0:0:0:0:
256,190,86489,1,0,0:0:0:0:
256,190,86596,1,0,0:0:0:0:
255,190,86810,1,8,0:0:0:0:
255,190,87025,1,0,0:0:0:0:
255,190,87239,1,8,0:0:0:0:
255,190,87453,1,0,0:0:0:0:
255,190,87560,1,8,0:0:0:0:
256,190,87667,1,8,0:0:0:0:
256,190,87882,1,0,0:0:0:0:
256,190,88096,1,8,0:0:0:0:
256,190,88203,1,8,0:0:0:0:
256,192,88310,1,0,0:0:0:0:
256,190,88417,1,0,0:0:0:0:
255,190,88525,1,8,0:0:0:0:
255,190,88632,1,8,0:0:0:0:
255,190,88739,1,0,0:0:0:0:
255,190,88953,1,8,0:0:0:0:
255,190,89167,1,0,0:0:0:0:
255,190,89382,1,8,0:0:0:0:
256,190,89489,1,8,0:0:0:0:
256,190,89596,1,0,0:0:0:0:
256,192,89703,1,0,0:0:0:0:
256,190,89810,1,8,0:0:0:0:
256,190,89917,1,0,0:0:0:0:
256,190,90132,1,0,0:0:0:0:
256,190,90239,1,8,0:0:0:0:
256,192,90346,1,8,0:0:0:0:
255,190,90453,1,0,0:0:0:0:
255,190,90560,1,8,0:0:0:0:
255,190,90667,1,8,0:0:0:0:
255,190,90775,1,8,0:0:0:0:
255,190,90882,1,0,0:0:0:0:
256,190,90989,1,0,0:0:0:0:
255,190,91096,1,8,0:0:0:0:
255,190,91203,1,8,0:0:0:0:
256,190,91310,1,0,0:0:0:0:
256,190,91525,1,8,0:0:0:0:
256,190,91632,1,8,0:0:0:0:
256,190,91739,1,0,0:0:0:0:
256,190,91953,1,8,0:0:0:0:
255,190,92167,1,0,0:0:0:0:
255,190,92275,1,0,0:0:0:0:
255,190,92382,1,8,0:0:0:0:
256,192,92489,1,8,0:0:0:0:
255,190,92596,1,0,0:0:0:0:
255,190,92810,1,8,0:0:0:0:
255,190,93025,1,0,0:0:0:0:
256,190,93132,1,8,0:0:0:0:
256,190,93239,1,8,0:0:0:0:
256,190,93346,1,8,0:0:0:0:
256,190,93453,1,0,0:0:0:0:
255,190,93560,1,0,0:0:0:0:
256,190,93667,1,8,0:0:0:0:
256,190,93882,1,0,0:0:0:0:
255,190,93989,1,8,0:0:0:0:
255,190,94096,1,8,0:0:0:0:
256,192,94203,1,0,0:0:0:0:
255,190,94310,1,0,0:0:0:0:
255,190,94417,1,8,0:0:0:0:
255,190,94525,1,8,0:0:0:0:
255,190,94739,1,0,0:0:0:0:
255,190,94846,1,8,0:0:0:0:
256,192,94953,1,0,0:0:0:0:
256,190,95060,1,8,0:0:0:0:
256,190,95167,1,0,0:0:0:0:
256,190,95275,1,8,0:0:0:0:
256,190,95382,1,8,0:0:0:0:
256,192,95489,1,0,0:0:0:0:
256,190,95596,1,0,0:0:0:0:
255,190,95810,1,8,0:0:0:0:
255,190,95917,1,8,0:0:0:0:
255,190,96025,1,0,0:0:0:0:
256,192,96132,1,0,0:0:0:0:
255,190,96239,1,8,0:0:0:0:
255,190,96346,1,8,0:0:0:0:
255,190,96453,1,0,0:0:0:0:
255,190,96667,1,0,0:0:0:0:
256,190,96775,1,8,0:0:0:0:
256,190,96882,1,0,0:0:0:0:
256,190,96989,1,8,0:0:0:0:
256,190,97096,1,8,0:0:0:0:
256,190,97203,1,8,0:0:0:0:
256,190,97310,1,0,0:0:0:0:
256,192,97417,1,0,0:0:0:0:
255,190,97525,1,8,0:0:0:0:
256,192,97632,1,8,0:0:0:0:
255,190,97739,1,0,0:0:0:0:
255,190,97846,1,8,0:0:0:0:
255,190,97953,1,8,0:0:0:0:
255,190,98060,1,8,0:0:0:0:
255,190,98167,1,0,0:0:0:0:
255,190,98275,1,8,0:0:0:0:
255,190,98489,1,8,0:0:0:0:
256,190,98596,1,0,0:0:0:0:
256,190,98810,1,8,0:0:0:0:
256,190,99025,1,0,0:0:0:0:
256,190,99132,1,8,0:0:0:0:
255,190,99239,1,0,0:0:0:0:
255,190,99346,1,8,0:0:0:0:
255,190,99453,1,0,0:0:0:0:
255,190,99667,1,8,0:0:0:0:
255,190,99882,1,0,0:0:0:0:
255,190,100096,1,8,0:0:0:0:
256,190,100310,1,0,0:0:0:0:
256,190,100417,1,8,0:0:0:0:
256,190,100525,1,8,0:0:0:0:
256,190,100632,1,8,0:0:0:0:
256,190,100739,1,0,0:0:0:0:
256,190,100953,1,8,0:0:0:0:
255,190,101060,1,0,0:0:0:0:
255,190,101167,1,0,0:0:0:0:
255,190,101275,1,8,0:0:0:0:
255,190,101382,1,0,0:0:0:0:
255,190,101596,1,0,0:0:0:0:
256,190,101703,1,0,0:0:0:0:
255,190,101810,1,8,0:0:0:0:
256,190,101917,1,0,0:0:0:0:
256,190,102025,1,0,0:0:0:0:
256,190,102132,1,0,0:0:0:0:
256,190,102239,1,8,0:0:0:0:
256,190,102346,1,8,0:0:0:0:
256,190,102453,1,0,0:0:0:0:
255,190,102560,1,0,0:0:0:0:
256,190,102667,1,8,0:0:0:0:
255,190,102882,1,0,0:0:0:0:
255,190,102989,1,8,0:0:0:0:
255,190,103203,1,8,0:0:0:0:
255,190,103310,1,0,0:0:0:0:
255,190,103525,1,8,0:0:0:0:
256,190,103739,1,0,0:0:0:0:
256,190,103846,1,0,0:0:0:0:
256,190,103953,1,8,0:0:0:0:
256,190,104060,1,8,0:0:0:0:
256,190,104167,1,0,0:0:0:0:
256,190,104275,1,8,0:0:0:0:
256,192,104382,1,8,0:0:0:0:
256,190,104489,1,8,0:0:0:0:
255,190,104596,1,0,0:0:0:0:
255,190,104703,1,0,0:0:0:0:
255,190,104810,1,8,0:0:0:0:
255,190,104917,1,0,0:0:0:0:
255,190,105025,1,0,0:0:0:0:
256,190,105132,1,8,0:0:0:0:
255,190,105239,1,0,0:0:0:0:
255,190,105346,1,8,0:0:0:0:
256,190,105453,1,0,0:0:0:0:
256,190,105560,1,8,0:0:0:0:
256,190,105667,1,8,0:0:0:0:
256,190,105775,1,8,0:0:0:0:
256,190,105882,1,0,0:0:0:0:
256,190,105989,1,8,0:0:0:0:
256,190,106096,1,0,0:0:0:0:
256,190,106203,1,8,0:0:0:0:
255,190,106310,1,0,0:0:0:0:
255,190,106525,1,8,0:0:0:0:
255,190,106632,1,0,0:0:0:0:
255,190,106846,1,8,0:0:0:0:
255,190,106953,1,8,0:0:0:0:
256,190,107167,1,0,0:0:0:0:
256,190,107275,1,0,0:0:0:0:
256,190,107382,1,8,0:0:0:0:
256,192,107489,1,0,0:0:0:0:
256,190,107596,1,0,0:0:0:0:
256,192,107703,1,8,0:0:0:0:
256,190,107810,1,8,0:0:0:0:
256,190,107917,1,8,0:0:0:0:
255,190,108025,1,0,0:0:0:0:
255,190,108239,1,8,0:0:0:0:
255,190,108346,1,8,0:0:0:0:
255,190,108453,1,0,0:0:0:0:
256,192,108560,1,0,0:0:0:0:
255,190,108667,1,8,0:0:0:0:
256,190,108882,1,0,0:0:0:0:
256,190,108989,1,8,0:0:0:0:
256,190,109096,1,8,0:0:0:0:
256,190,109203,1,0,0:0:0:0:
256,190,109310,1,0,0:0:0:0:
256,192,109417,1,0,0:0:0:0:
256,190,109525,1,8,0:0:0:0:
256,192,109632,1,8,0:0:0:0:
255,190,109739,1,0,0:0:0:0:
255,190,109846,1,8,0:0:0:0:
255,190,109953,1,8,0:0:0:0:
255,190,110060,1,0,0:0:0:0:
255,190,110167,1,0,0:0:0:0:
255,190,110275,1,8,0:0:0:0:
255,190,110382,1,0,0:0:0:0:
255,190,110489,1,8,0:0:0:0:
256,190,110596,1,0,0:0:0:0:
256,190,110703,1,0,0:0:0:0:
256,190,110810,1,8,0:0:0:0:
256,190,110917,1,8,0:0:0:0:
256,190,111025,1,0,0:0:0:0:
255,190,111132,1,0,0:0:0:0:
256,190,111239,1,8,0:0:0:0:
256,190,111346,1,8,0:0:0:0:
255,190,111453,1,0,0:0:0:0:
256,192,111667,12,0,112739,0:0:0:0:
256,190,113167,5,0,0:0:0:0:
256,192,113382,1,0,0:0:0:0:
256,190,113489,1,0,0:0:0:0:
256,190,113596,1,8,0:0:0:0:
256,190,113810,1,0,0:0:0:0:
256,190,114025,1,0,0:0:0:0:
256,190,114239,1,0,0:0:0:0:
256,190,114453,1,8,0:0:0:0:
256,190,114667,1,0,0:0:0:0:
256,192,114775,1,0,0:0:0:0:
256,192,114882,1,0,0:0:0:0:
256,190,115096,1,0,0:0:0:0:
256,190,115310,1,8,0:0:0:0:
256,190,115525,1,0,0:0:0:0:
256,190,115632,1,8,0:0:0:0:
256,190,115739,1,0,0:0:0:0:
256,190,115953,1,0,0:0:0:0:
256,192,116167,1,8,0:0:0:0:
256,192,116382,1,0,0:0:0:0:
256,190,116489,1,8,0:0:0:0:
256,190,116596,1,0,0:0:0:0:
256,190,116703,1,0,0:0:0:0:
256,190,116917,1,0,0:0:0:0:
256,190,117025,1,8,0:0:0:0:
256,190,117132,1,0,0:0:0:0:
256,190,117239,1,8,0:0:0:0:
256,192,117453,1,0,0:0:0:0:
256,192,117667,1,8,0:0:0:0:
256,190,117882,1,8,0:0:0:0:
256,192,117989,1,0,0:0:0:0:
256,190,118203,1,0,0:0:0:0:
256,190,118310,1,0,0:0:0:0:
256,190,118417,1,8,0:0:0:0:
256,190,118525,1,0,0:0:0:0:
256,192,118739,1,8,0:0:0:0:
256,192,118846,1,0,0:0:0:0:
256,192,118953,1,0,0:0:0:0:
256,190,119167,1,0,0:0:0:0:
256,190,119382,1,8,0:0:0:0:
256,190,119489,1,0,0:0:0:0:
256,190,119596,1,8,0:0:0:0:
256,190,119810,1,8,0:0:0:0:
256,192,120025,1,0,0:0:0:0:
256,192,120132,1,8,0:0:0:0:
256,190,120346,1,8,0:0:0:0:
256,190,120453,1,0,0:0:0:0:
256,190,120667,1,0,0:0:0:0:
256,190,120882,1,0,0:0:0:0:
256,190,121096,1,0,0:0:0:0:
256,192,121310,1,8,0:0:0:0:
256,192,121525,1,8,0:0:0:0:
256,192,121632,1,8,0:0:0:0:
256,190,121846,1,8,0:0:0:0:
256,190,121953,1,0,0:0:0:0:
256,190,122167,1,8,0:0:0:0:
256,190,122382,1,0,0:0:0:0:
256,190,122596,1,0,0:0:0:0:
256,192,122810,1,0,0:0:0:0:
256,192,122917,1,0,0:0:0:0:
256,190,123025,1,8,0:0:0:0:
256,190,123239,1,8,0:0:0:0:
256,190,123453,1,0,0:0:0:0:
256,190,123560,1,0,0:0:0:0:
256,190,123667,1,0,0:0:0:0:
256,190,123882,1,8,0:0:0:0:
256,190,124096,1,0,0:0:0:0:
256,190,124310,1,0,0:0:0:0:
256,190,124525,1,0,0:0:0:0:
256,190,124632,1,0,0:0:0:0:
256,190,124846,1,8,0:0:0:0:
256,190,124953,1,8,0:0:0:0:
256,190,125167,1,0,0:0:0:0:
256,190,125275,1,0,0:0:0:0:
256,190,125382,1,0,0:0:0:0:
256,192,125489,1,0,0:0:0:0:
256,190,125596,1,0,0:0:0:0:
256,190,125703,1,0,0:0:0:0:
256,190,125810,1,0,0:0:0:0:
256,190,125917,1,0,0:0:0:0:
256,190,126025,1,0,0:0:0:0:
256,192,126239,1,0,0:0:0:0:
256,190,126453,1,0,0:0:0:0:
256,192,126560,1,8,0:0:0:0:
256,190,126667,1,0,0:0:0:0:
256,190,126882,1,0,0:0:0:0:
256,190,127096,1,0,0:0:0:0:
256,190,127203,1,8,0:0:0:0:
256,190,127310,1,8,0:0:0:0:
256,190,127525,1,0,0:0:0:0:
256,190,127739,1,0,0:0:0:0:
256,190,127846,1,8,0:0:0:0:
256,190,127953,1,0,0:0:0:0:
256,192,128060,1,0,0:0:0:0:
256,190,128167,1,8,0:0:0:0:
256,190,128382,1,0,0:0:0:0:
256,190,128596,1,0,0:0:0:0:
256,190,128810,1,8,0:0:0:0:
256,190,128917,1,0,0:0:0:0:
256,190,129025,1,8,0:0:0:0:
256,190,129239,1,0,0:0:0:0:
256,190,129346,1,0,0:0:0:0:
256,190,129453,1,0,0:0:0:0:
256,190,129667,1,0,0:0:0:0:
256,190,129882,1,8,0:0:0:0:
256,190,130096,1,0,0:0:0:0:
256,190,130310,1,0,0:0:0:0:
256,190,130417,1,8,0:0:0:0:
256,190,130525,1,0,0:0:0:0:
256,190,130632,1,0,0:0:0:0:
256,190,130739,1,8,0:0:0:0:
256,190,130953,1,0,0:0:0:0:
256,190,131167,1,0,0:0:0:0:
256,190,131275,1,0,0:0:0:0:
256,190,131382,1,8,0:0:0:0:
256,190,131489,1,8,0:0:0:0:
256,190,131596,1,0,0:0:0:0:
256,190,131810,1,0,0:0:0:0:
256,190,132025,1,8,0:0:0:0:
256,190,132239,1,0,0:0:0:0:
256,190,132346,1,0,0:0:0:0:
256,190,132453,1,8,0:0:0:0:
256,190,132667,1,0,0:0:0:0:
256,190,132775,1,8,0:0:0:0:
256,190,132989,1,0,0:0:0:0:
256,190,133096,1,0,0:0:0:0:
256,190,133203,1,0,0:0:0:0:
256,190,133310,1,8,0:0:0:0:
256,190,133525,1,0,0:0:0:0:
256,190,133739,1,0,0:0:0:0:
256,190,133846,1,8,0:0:0:0:
256,190,134060,1,0,0:0:0:0:
256,190,134167,1,8,0:0:0:0:
256,190,134382,1,8,0:0:0:0:
256,190,134596,1,0,0:0:0:0:
256,190,134810,1,0,0:0:0:0:
256,190,135025,1,8,0:0:0:0:
256,190,135239,1,0,0:0:0:0:
256,190,135453,1,0,0:0:0:0:
256,190,135560,1,8,0:0:0:0:
256,190,135667,1,0,0:0:0:0:
256,190,135882,1,8,0:0:0:0:
256,190,136096,1,8,0:0:0:0:
256,190,136203,1,0,0:0:0:0:
256,190,136310,1,0,0:0:0:0:
256,190,136525,1,0,0:0:0:0:
256,190,136739,1,8,0:0:0:0:
256,190,136846,1,0,0:0:0:0:
256,190,136953,1,0,0:0:0:0:
256,190,137167,1,0,0:0:0:0:
256,190,137275,1,8,0:0:0:0:
256,190,137489,1,0,0:0:0:0:
256,190,137596,1,8,0:0:0:0:
256,192,137703,1,0,0:0:0:0:
256,190,137810,1,8,0:0:0:0:
256,192,137917,1,0,0:0:0:0:
256,190,138025,1,0,0:0:0:0:
256,192,138132,1,0,0:0:0:0:
256,190,138239,1,8,0:0:0:0:
256,192,138346,1,0,0:0:0:0:
256,190,138453,1,8,0:0:0:0:
256,192,138560,1,0,0:0:0:0:
256,190,138667,1,0,0:0:0:0:
256,192,138775,1,0,0:0:0:0:
256,192,138882,1,8,0:0:0:0:
256,192,138989,12,0,140596,0:0:0:0:
258,189,141667,5,0,0:0:0:0:
258,189,141882,1,0,0:0:0:0:
258,189,142096,1,8,0:0:0:0:
258,189,142310,1,4,0:0:0:0:
258,189,142525,1,8,0:0:0:0:
258,189,142632,1,8,0:0:0:0:
258,189,142739,1,0,0:0:0:0:
258,189,142953,1,0,0:0:0:0:
258,189,143060,1,8,0:0:0:0:
258,189,143167,1,0,0:0:0:0:
258,189,143382,1,8,0:0:0:0:
258,189,143489,1,0,0:0:0:0:
258,189,143596,1,0,0:0:0:0:
258,189,143810,1,8,0:0:0:0:
258,189,143917,1,8,0:0:0:0:
258,189,144025,1,0,0:0:0:0:
258,189,144132,1,8,0:0:0:0:
258,189,144239,1,8,0:0:0:0:
258,189,144453,1,0,0:0:0:0:
258,189,144560,1,8,0:0:0:0:
258,189,144775,1,8,0:0:0:0:
258,189,144882,1,0,0:0:0:0:
258,189,145096,1,8,0:0:0:0:
258,189,145310,1,0,0:0:0:0:
258,189,145417,1,8,0:0:0:0:
258,189,145632,1,8,0:0:0:0:
258,189,145739,1,0,0:0:0:0:
258,189,145953,1,8,0:0:0:0:
258,189,146167,1,0,0:0:0:0:
258,189,146275,1,8,0:0:0:0:
258,189,146382,1,8,0:0:0:0:
258,189,146489,1,0,0:0:0:0:
258,189,146596,1,0,0:0:0:0:
258,189,146810,1,8,0:0:0:0:
258,189,146917,1,8,0:0:0:0:
258,189,147025,1,0,0:0:0:0:
258,189,147132,1,8,0:0:0:0:
258,189,147346,1,8,0:0:0:0:
258,189,147453,1,0,0:0:0:0:
258,189,147667,1,0,0:0:0:0:
258,189,147775,1,8,0:0:0:0:
258,189,147882,1,0,0:0:0:0:
256,192,147989,1,0,0:0:0:0:
258,189,148096,1,8,0:0:0:0:
258,189,148310,1,0,0:0:0:0:
258,189,148525,1,8,0:0:0:0:
256,192,148632,1,0,0:0:0:0:
258,189,148739,1,0,0:0:0:0:
258,189,148953,1,8,0:0:0:0:
258,189,149060,1,0,0:0:0:0:
256,192,149275,1,0,0:0:0:0:
258,189,149382,1,8,0:0:0:0:
258,189,149596,1,0,0:0:0:0:
258,189,149810,1,0,0:0:0:0:
258,189,149917,1,8,0:0:0:0:
258,189,150025,1,0,0:0:0:0:
258,189,150132,1,8,0:0:0:0:
258,189,150239,1,0,0:0:0:0:
258,189,150453,1,0,0:0:0:0:
258,189,150560,1,8,0:0:0:0:
258,189,150667,1,8,0:0:0:0:
258,189,150775,1,8,0:0:0:0:
258,189,150882,1,0,0:0:0:0:
258,189,151096,1,8,0:0:0:0:
256,192,151203,1,0,0:0:0:0:
258,189,151310,1,0,0:0:0:0:
258,189,151525,1,8,0:0:0:0:
258,189,151632,1,8,0:0:0:0:
258,189,151739,1,0,0:0:0:0:
258,189,151953,1,8,0:0:0:0:
258,189,152167,1,0,0:0:0:0:
258,189,152275,1,8,0:0:0:0:
258,189,152382,1,8,0:0:0:0:
258,189,152489,1,0,0:0:0:0:
258,189,152596,1,0,0:0:0:0:
258,189,152810,1,8,0:0:0:0:
258,189,152917,1,0,0:0:0:0:
258,189,153025,1,0,0:0:0:0:
258,189,153132,1,8,0:0:0:0:
258,189,153239,1,8,0:0:0:0:
258,189,153453,1,0,0:0:0:0:
258,189,153560,1,8,0:0:0:0:
258,189,153775,1,8,0:0:0:0:
258,189,153882,1,0,0:0:0:0:
258,189,154096,1,8,0:0:0:0:
258,189,154203,1,8,0:0:0:0:
258,189,154310,1,0,0:0:0:0:
258,189,154417,1,8,0:0:0:0:
258,189,154525,1,0,0:0:0:0:
258,189,154632,1,8,0:0:0:0:
258,189,154739,1,0,0:0:0:0:
256,192,154846,1,0,0:0:0:0:
258,189,154953,1,8,0:0:0:0:
258,189,155060,1,8,0:0:0:0:
258,189,155167,1,0,0:0:0:0:
258,189,155382,1,8,0:0:0:0:
256,192,155489,1,0,0:0:0:0:
258,189,155596,1,8,0:0:0:0:
256,192,155703,1,0,0:0:0:0:
258,189,155810,1,8,0:0:0:0:
258,189,156025,1,0,0:0:0:0:
258,189,156239,1,8,0:0:0:0:
258,189,156453,1,0,0:0:0:0:
258,189,156667,1,8,0:0:0:0:
258,189,156882,1,0,0:0:0:0:
258,189,157096,1,8,0:0:0:0:
258,189,157203,1,8,0:0:0:0:
258,189,157310,1,0,0:0:0:0:
258,189,157525,1,0,0:0:0:0:
258,189,157632,1,8,0:0:0:0:
258,189,157739,1,0,0:0:0:0:
258,189,157846,1,8,0:0:0:0:
258,189,158060,1,8,0:0:0:0:
258,189,158167,1,0,0:0:0:0:
256,192,158275,1,0,0:0:0:0:
258,189,158382,1,8,0:0:0:0:
258,189,158489,1,8,0:0:0:0:
258,189,158596,1,0,0:0:0:0:
258,189,158810,1,8,0:0:0:0:
258,189,159025,1,0,0:0:0:0:
258,189,159239,1,8,0:0:0:0:
258,189,159453,1,0,0:0:0:0:
258,189,159667,1,8,0:0:0:0:
258,189,159775,1,8,0:0:0:0:
258,189,159882,1,0,0:0:0:0:
258,189,159989,1,0,0:0:0:0:
258,189,160096,1,8,0:0:0:0:
258,189,160310,1,0,0:0:0:0:
258,189,160525,1,0,0:0:0:0:
258,189,160632,1,8,0:0:0:0:
258,189,160739,1,0,0:0:0:0:
258,189,160846,1,0,0:0:0:0:
258,189,160953,1,8,0:0:0:0:
258,189,161167,1,0,0:0:0:0:
258,189,161382,1,8,0:0:0:0:
258,189,161489,1,8,0:0:0:0:
258,189,161596,1,0,0:0:0:0:
258,189,161810,1,8,0:0:0:0:
258,189,161917,1,8,0:0:0:0:
258,189,162025,1,0,0:0:0:0:
258,189,162132,1,8,0:0:0:0:
258,189,162239,1,0,0:0:0:0:
258,189,162346,1,8,0:0:0:0:
258,189,162453,1,0,0:0:0:0:
258,189,162560,1,0,0:0:0:0:
258,189,162667,1,8,0:0:0:0:
258,189,162882,1,0,0:0:0:0:
258,189,162989,1,8,0:0:0:0:
258,189,163096,1,8,0:0:0:0:
258,189,163310,1,0,0:0:0:0:
258,189,163417,1,8,0:0:0:0:
258,189,163632,1,8,0:0:0:0:
258,189,163739,1,0,0:0:0:0:
258,189,163846,1,8,0:0:0:0:
258,189,164060,1,8,0:0:0:0:
258,189,164167,1,0,0:0:0:0:
258,189,164382,1,8,0:0:0:0:
258,189,164489,1,8,0:0:0:0:
258,189,164596,1,0,0:0:0:0:
258,189,164810,1,8,0:0:0:0:
258,189,164917,1,8,0:0:0:0:
258,189,165025,1,0,0:0:0:0:
258,189,165132,1,8,0:0:0:0:
258,189,165239,1,0,0:0:0:0:
258,189,165453,1,0,0:0:0:0:
258,189,165667,1,0,0:0:0:0:
258,189,165775,1,8,0:0:0:0:
258,189,165882,1,0,0:0:0:0:
258,189,165989,1,8,0:0:0:0:
258,189,166096,1,8,0:0:0:0:
258,189,166310,1,0,0:0:0:0:
258,189,166525,1,0,0:0:0:0:
258,189,166632,1,8,0:0:0:0:
258,189,166739,1,0,0:0:0:0:
256,192,166846,1,0,0:0:0:0:
258,189,166953,1,0,0:0:0:0:
256,192,167060,1,0,0:0:0:0:
258,189,167167,1,8,0:0:0:0:
258,189,167275,1,0,0:0:0:0:
258,189,167382,1,8,0:0:0:0:
258,189,167489,1,0,0:0:0:0:
258,189,167596,1,0,0:0:0:0:
258,189,167703,1,8,0:0:0:0:
258,189,167810,1,0,0:0:0:0:
256,192,167917,1,0,0:0:0:0:
258,189,168025,1,0,0:0:0:0:
256,192,168096,1,0,0:0:0:0:
258,189,168167,1,0,0:0:0:0:
256,192,168239,1,0,0:0:0:0:
256,192,168310,1,0,0:0:0:0:
256,192,168382,1,0,0:0:0:0:
258,189,168453,1,0,0:0:0:0:
256,192,168525,1,0,0:0:0:0:
258,189,168596,1,0,0:0:0:0:
258,189,168667,1,0,0:0:0:0:
256,192,168739,1,0,0:0:0:0:
256,192,168810,1,0,0:0:0:0:
258,189,168882,1,0,0:0:0:0:
258,189,168953,1,0,0:0:0:0:
258,189,169025,1,0,0:0:0:0:
258,189,169096,1,0,0:0:0:0:
256,192,169167,1,0,0:0:0:0:
258,189,169239,1,0,0:0:0:0:
258,189,169310,1,0,0:0:0:0:
258,189,169417,1,0,0:0:0:0:
258,189,169525,1,0,0:0:0:0:
258,189,169632,1,0,0:0:0:0:
256,192,169739,1,0,0:0:0:0:
258,189,170060,1,0,0:0:0:0:
258,189,170382,1,0,0:0:0:0:
258,189,170596,1,0,0:0:0:0:
258,189,171025,1,0,0:0:0:0:
258,189,171239,1,0,0:0:0:0:
258,189,171453,1,8,0:0:0:0:
258,189,171667,1,0,0:0:0:0:
258,189,171882,1,0,0:0:0:0:
258,189,172096,1,0,0:0:0:0:
258,189,172310,1,8,0:0:0:0:
258,189,172739,1,0,0:0:0:0:
258,189,172953,1,0,0:0:0:0:
258,189,173167,1,8,0:0:0:0:
258,189,173596,1,0,0:0:0:0:
258,189,173810,1,0,0:0:0:0:
258,189,174025,1,8,0:0:0:0:
258,189,174239,1,0,0:0:0:0:
258,189,174453,1,8,0:0:0:0:
258,189,174667,1,0,0:0:0:0:
258,189,174882,1,8,0:0:0:0:
258,189,175310,1,0,0:0:0:0:
258,189,175525,1,0,0:0:0:0:
258,189,175739,1,8,0:0:0:0:
258,189,175953,1,0,0:0:0:0:
258,189,176167,1,0,0:0:0:0:
258,189,176382,1,8,0:0:0:0:
258,189,176810,1,0,0:0:0:0:
258,189,177025,1,8,0:0:0:0:
258,189,177239,1,0,0:0:0:0:
258,189,177453,1,8,0:0:0:0:
258,189,177882,1,8,0:0:0:0:
51,78,178310,2,0,B|320:77|340:77|111:78,1,350
258,189,179596,1,0,0:0:0:0:
258,189,180025,1,8,0:0:0:0:
258,189,180239,1,0,0:0:0:0:
258,189,180453,1,8,0:0:0:0:
258,189,180667,1,0,0:0:0:0:
258,189,180882,1,0,0:0:0:0:
258,189,181203,1,0,0:0:0:0:
256,192,181525,1,8,0:0:0:0:
256,192,181739,12,0,183882,0:0:0:0:
255,192,184310,5,0,0:0:0:0:
255,192,184739,1,0,0:0:0:0:
49,69,185167,2,0,L|428:67,1,350
255,192,186453,1,0,0:0:0:0:
255,192,186882,1,8,0:0:0:0:
255,192,187525,1,0,0:0:0:0:
255,192,187953,1,0,0:0:0:0:
255,192,188167,1,8,0:0:0:0:
255,192,188382,1,0,0:0:0:0:
255,192,188489,1,0,0:0:0:0:
255,192,188596,1,8,0:0:0:0:
255,192,188810,1,0,0:0:0:0:
256,191,189025,1,0,0:0:0:0:
255,192,189239,1,8,0:0:0:0:
255,192,189453,1,0,0:0:0:0:
255,192,189667,1,0,0:0:0:0:
255,192,190096,1,8,0:0:0:0:
256,191,190525,1,0,0:0:0:0:
255,192,190739,1,0,0:0:0:0:
255,192,190846,1,0,0:0:0:0:
255,192,190953,1,8,0:0:0:0:
255,192,191167,1,0,0:0:0:0:
255,192,191382,1,8,0:0:0:0:
71,68,191810,2,0,B|397:70|393:70|128:68,1,420
256,191,193310,1,0,0:0:0:0:
256,191,193525,1,0,0:0:0:0:
256,191,193739,1,8,0:0:0:0:
256,191,194167,1,0,0:0:0:0:
256,191,194382,1,0,0:0:0:0:
256,191,194596,1,8,0:0:0:0:
256,191,194810,1,0,0:0:0:0:
256,191,195025,1,0,0:0:0:0:
256,192,195453,12,0,197596,0:0:0:0:
257,193,198025,5,0,0:0:0:0:
257,193,198096,1,0,0:0:0:0:
257,193,198167,1,0,0:0:0:0:
257,193,198239,1,0,0:0:0:0:
257,193,198292,1,0,0:0:0:0:
257,193,198346,1,0,0:0:0:0:
257,193,198453,1,0,0:0:0:0:
257,193,198560,1,0,0:0:0:0:
257,193,198667,1,0,0:0:0:0:
257,193,198775,1,0,0:0:0:0:
257,193,198882,1,8,0:0:0:0:
257,193,199310,1,0,0:0:0:0:
257,193,199739,1,0,0:0:0:0:
257,193,200167,1,0,0:0:0:0:
257,193,200596,1,0,0:0:0:0:
257,193,201025,1,0,0:0:0:0:
257,193,201453,1,0,0:0:0:0:
257,193,201882,1,0,0:0:0:0:
257,193,202096,1,8,0:0:0:0:
257,193,202310,1,0,0:0:0:0:
257,193,202739,1,0,0:0:0:0:
257,193,202953,1,8,0:0:0:0:
257,193,203167,1,0,0:0:0:0:
257,193,203382,1,8,0:0:0:0:
257,193,203596,1,0,0:0:0:0:
257,193,203810,1,8,0:0:0:0:
257,193,203917,1,8,0:0:0:0:
257,193,204025,1,0,0:0:0:0:
257,193,204239,1,8,0:0:0:0:
257,193,204453,1,0,0:0:0:0:
257,193,204667,1,8,0:0:0:0:
257,193,204882,1,0,0:0:0:0:
257,193,204989,1,8,0:0:0:0:
257,193,205203,1,8,0:0:0:0:
257,193,205310,1,0,0:0:0:0:
257,193,205525,1,8,0:0:0:0:
257,193,205632,1,8,0:0:0:0:
257,193,205739,1,0,0:0:0:0:
257,193,205953,1,8,0:0:0:0:
257,193,206167,1,0,0:0:0:0:
257,193,206275,1,8,0:0:0:0:
257,193,206489,1,0,0:0:0:0:
257,193,206596,1,0,0:0:0:0:
257,193,206810,1,8,0:0:0:0:
257,193,207025,1,0,0:0:0:0:
257,193,207132,1,0,0:0:0:0:
257,193,207239,1,8,0:0:0:0:
257,193,207453,1,0,0:0:0:0:
257,193,207667,1,8,0:0:0:0:
257,193,207882,1,0,0:0:0:0:
257,193,207989,1,8,0:0:0:0:
257,193,208096,1,0,0:0:0:0:
257,193,208310,1,0,0:0:0:0:
257,193,208739,1,0,0:0:0:0:
257,193,208846,1,8,0:0:0:0:
257,193,208953,1,0,0:0:0:0:
257,193,209167,1,0,0:0:0:0:
257,193,209596,1,0,0:0:0:0:
257,193,209703,1,8,0:0:0:0:
257,193,209810,1,8,0:0:0:0:
257,193,210025,1,0,0:0:0:0:
257,193,210239,1,8,0:0:0:0:
257,193,210346,1,8,0:0:0:0:
257,193,210453,1,0,0:0:0:0:
257,193,210667,1,0,0:0:0:0:
257,193,210775,1,0,0:0:0:0:
257,193,210882,1,0,0:0:0:0:
257,193,211096,1,8,0:0:0:0:
257,193,211203,1,8,0:0:0:0:
257,193,211310,1,0,0:0:0:0:
257,193,211525,1,0,0:0:0:0:
257,193,211632,1,0,0:0:0:0:
257,193,211739,1,0,0:0:0:0:
257,193,211953,1,0,0:0:0:0:
257,193,212167,1,0,0:0:0:0:
257,193,212382,1,8,0:0:0:0:
257,193,212596,1,4,0:0:0:0:
257,193,213025,1,4,0:0:0:0:
257,193,213453,1,4,0:0:0:0:
257,193,213882,1,4,0:0:0:0:
257,193,214310,1,4,0:0:0:0:
257,193,214739,1,4,0:0:0:0:
257,193,215167,1,4,0:0:0:0:
257,193,215596,1,4,0:0:0:0:
257,193,215810,1,4,0:0:0:0:
257,193,216025,1,4,0:0:0:0:
257,193,216453,1,0,0:0:0:0:
257,193,216775,1,8,0:0:0:0:
257,193,216882,1,0,0:0:0:0:
257,193,217096,1,8,0:0:0:0:
257,193,217310,1,0,0:0:0:0:
257,193,217525,1,8,0:0:0:0:
257,193,217739,1,4,0:0:0:0:
257,193,218060,1,8,0:0:0:0:
257,193,218167,1,0,0:0:0:0:
257,193,218382,1,8,0:0:0:0:
257,193,218596,1,4,0:0:0:0:
257,193,218810,1,8,0:0:0:0:
257,193,218917,1,0,0:0:0:0:
257,193,219025,1,0,0:0:0:0:
257,193,219239,1,8,0:0:0:0:
257,193,219453,1,0,0:0:0:0:
257,193,219560,1,8,0:0:0:0:
257,193,219667,1,0,0:0:0:0:
257,193,219775,1,0,0:0:0:0:
257,193,219882,1,0,0:0:0:0:
256,192,219989,1,0,0:0:0:0:
257,193,220096,1,8,0:0:0:0:
256,192,220203,1,0,0:0:0:0:
257,193,220310,1,0,0:0:0:0:
257,193,220417,1,8,0:0:0:0:
257,193,220525,1,8,0:0:0:0:
257,193,220632,1,0,0:0:0:0:
257,193,220739,1,0,0:0:0:0:
256,192,220846,1,0,0:0:0:0:
257,193,220953,1,8,0:0:0:0:
257,193,221060,1,0,0:0:0:0:
257,193,221167,1,0,0:0:0:0:
256,192,221275,1,0,0:0:0:0:
257,193,221382,1,8,0:0:0:0:
257,193,221489,1,0,0:0:0:0:
257,193,221596,1,0,0:0:0:0:
257,193,221703,1,8,0:0:0:0:
257,193,221810,1,8,0:0:0:0:
257,193,221917,1,0,0:0:0:0:
257,193,222025,1,0,0:0:0:0:
256,192,222132,1,0,0:0:0:0:
257,193,222239,1,0,0:0:0:0:
257,193,222346,1,0,0:0:0:0:
257,193,222453,1,0,0:0:0:0:
257,193,222560,1,0,0:0:0:0:
257,193,222667,1,0,0:0:0:0:
64,64,222882,2,0,B|489:69|507:70|128:64,1,587.999982055665
256,192,224596,12,0,225239,0:0:0:0:
258,192,225453,5,0,0:0:0:0:
258,192,225560,1,0,0:0:0:0:
258,192,225775,1,0,0:0:0:0:
258,192,225882,1,0,0:0:0:0:
258,192,226096,1,8,0:0:0:0:
258,192,226310,1,4,0:0:0:0:
258,192,226632,1,8,0:0:0:0:
258,192,226739,1,0,0:0:0:0:
258,192,226953,1,8,0:0:0:0:
258,192,227167,1,0,0:0:0:0:
258,192,227382,1,8,0:0:0:0:
258,192,227489,1,8,0:0:0:0:
258,192,227596,1,0,0:0:0:0:
258,192,227810,1,8,0:0:0:0:
256,192,227917,1,0,0:0:0:0:
258,192,228025,1,0,0:0:0:0:
258,192,228239,1,8,0:0:0:0:
258,192,228453,1,0,0:0:0:0:
258,192,228560,1,0,0:0:0:0:
258,192,228667,1,8,0:0:0:0:
258,192,228775,1,8,0:0:0:0:
258,192,228882,1,0,0:0:0:0:
258,192,229096,1,8,0:0:0:0:
258,192,229203,1,0,0:0:0:0:
258,192,229310,1,0,0:0:0:0:
258,192,229417,1,8,0:0:0:0:
258,192,229525,1,8,0:0:0:0:
258,192,229739,1,0,0:0:0:0:
256,192,229846,1,0,0:0:0:0:
258,192,229953,1,8,0:0:0:0:
258,192,230060,1,8,0:0:0:0:
258,192,230167,1,0,0:0:0:0:
258,192,230275,1,0,0:0:0:0:
258,192,230382,1,8,0:0:0:0:
258,192,230596,1,0,0:0:0:0:
258,192,230703,1,8,0:0:0:0:
258,192,230810,1,0,0:0:0:0:
258,192,230917,1,8,0:0:0:0:
258,192,231025,1,0,0:0:0:0:
258,192,231239,1,8,0:0:0:0:
258,192,231346,1,8,0:0:0:0:
258,192,231453,1,0,0:0:0:0:
258,192,231560,1,0,0:0:0:0:
258,192,231667,1,8,0:0:0:0:
258,192,231775,1,8,0:0:0:0:
258,192,231882,1,0,0:0:0:0:
258,192,232096,1,8,0:0:0:0:
258,192,232310,1,0,0:0:0:0:
258,192,232417,1,8,0:0:0:0:
258,192,232632,1,8,0:0:0:0:
258,192,232739,1,0,0:0:0:0:
258,192,232953,1,8,0:0:0:0:
258,192,233060,1,0,0:0:0:0:
258,192,233167,1,0,0:0:0:0:
258,192,233275,1,8,0:0:0:0:
258,192,233489,1,8,0:0:0:0:
258,192,233596,1,0,0:0:0:0:
258,192,233810,1,8,0:0:0:0:
258,192,233917,1,8,0:0:0:0:
258,192,234025,1,0,0:0:0:0:
258,192,234239,1,8,0:0:0:0:
258,192,234453,1,0,0:0:0:0:
258,192,234667,1,8,0:0:0:0:
258,192,234775,1,0,0:0:0:0:
258,192,234882,1,0,0:0:0:0:
258,192,235096,1,8,0:0:0:0:
258,192,235310,1,0,0:0:0:0:
258,192,235525,1,8,0:0:0:0:
258,192,235632,1,8,0:0:0:0:
258,192,235739,1,0,0:0:0:0:
258,192,235953,1,8,0:0:0:0:
258,192,236167,1,0,0:0:0:0:
258,192,236382,1,8,0:0:0:0:
258,192,236489,1,0,0:0:0:0:
258,192,236596,1,0,0:0:0:0:
258,192,236810,1,8,0:0:0:0:
258,192,236917,1,0,0:0:0:0:
258,192,237025,1,8,0:0:0:0:
258,192,237132,1,8,0:0:0:0:
258,192,237239,1,0,0:0:0:0:
258,192,237346,1,8,0:0:0:0:
258,192,237453,1,0,0:0:0:0:
258,192,237667,1,8,0:0:0:0:
258,192,237775,1,0,0:0:0:0:
258,192,237989,1,8,0:0:0:0:
258,192,238096,1,8,0:0:0:0:
258,192,238203,1,0,0:0:0:0:
258,192,238310,1,0,0:0:0:0:
258,192,238417,1,8,0:0:0:0:
258,192,238525,1,8,0:0:0:0:
258,192,238632,1,0,0:0:0:0:
258,192,238739,1,0,0:0:0:0:
258,192,238846,1,8,0:0:0:0:
258,192,238953,1,0,0:0:0:0:
256,192,239060,1,8,0:0:0:0:
258,192,239167,1,0,0:0:0:0:
258,192,239596,1,0,0:0:0:0:
258,192,239703,1,8,0:0:0:0:
258,192,239810,1,8,0:0:0:0:
258,192,239917,1,0,0:0:0:0:
258,192,240025,1,0,0:0:0:0:
258,192,240239,1,8,0:0:0:0:
258,192,240453,1,0,0:0:0:0:
258,192,240667,1,8,0:0:0:0:
258,192,240882,1,0,0:0:0:0:
258,192,240989,1,8,0:0:0:0:
258,192,241096,1,8,0:0:0:0:
258,192,241310,1,0,0:0:0:0:
258,192,241417,1,8,0:0:0:0:
258,192,241525,1,0,0:0:0:0:
258,192,241632,1,8,0:0:0:0:
258,192,241739,1,0,0:0:0:0:
258,192,241953,1,8,0:0:0:0:
258,192,242167,1,0,0:0:0:0:
258,192,242275,1,8,0:0:0:0:
258,192,242382,1,8,0:0:0:0:
258,192,242596,1,0,0:0:0:0:
258,192,242703,1,8,0:0:0:0:
258,192,242810,1,8,0:0:0:0:
258,192,242917,1,0,0:0:0:0:
258,192,243025,1,0,0:0:0:0:
258,192,243132,1,8,0:0:0:0:
258,192,243239,1,0,0:0:0:0:
258,192,243346,1,8,0:0:0:0:
258,192,243453,1,0,0:0:0:0:
256,192,243667,1,0,0:0:0:0:
258,192,243775,1,8,0:0:0:0:
258,192,243882,1,0,0:0:0:0:
258,192,243989,1,8,0:0:0:0:
258,192,244096,1,8,0:0:0:0:
258,192,244310,1,0,0:0:0:0:
258,192,244417,1,0,0:0:0:0:
258,192,244525,1,8,0:0:0:0:
258,192,244632,1,8,0:0:0:0:
258,192,244739,1,0,0:0:0:0:
258,192,244953,1,8,0:0:0:0:
258,192,245167,1,0,0:0:0:0:
258,192,245275,1,8,0:0:0:0:
258,192,245489,1,8,0:0:0:0:
258,192,245596,1,0,0:0:0:0:
258,192,245810,1,8,0:0:0:0:
258,192,245917,1,8,0:0:0:0:
258,192,246025,1,0,0:0:0:0:
258,192,246132,1,8,0:0:0:0:
258,192,246346,1,8,0:0:0:0:
258,192,246453,1,0,0:0:0:0:
258,192,246560,1,0,0:0:0:0:
258,192,246667,1,8,0:0:0:0:
258,192,246882,1,0,0:0:0:0:
258,192,246989,1,8,0:0:0:0:
258,192,247203,1,8,0:0:0:0:
258,192,247310,1,0,0:0:0:0:
258,192,247525,1,8,0:0:0:0:
258,192,247739,1,0,0:0:0:0:
258,192,247846,1,8,0:0:0:0:
258,192,247953,1,8,0:0:0:0:
256,192,248060,1,0,0:0:0:0:
258,192,248167,1,0,0:0:0:0:
258,192,248382,1,8,0:0:0:0:
258,192,248596,1,0,0:0:0:0:
258,192,248810,1,8,0:0:0:0:
258,192,248917,1,8,0:0:0:0:
258,192,249025,1,0,0:0:0:0:
258,192,249132,1,8,0:0:0:0:
258,192,249239,1,0,0:0:0:0:
258,192,249346,1,8,0:0:0:0:
258,192,249453,1,0,0:0:0:0:
258,192,249667,1,8,0:0:0:0:
258,192,249882,1,0,0:0:0:0:
258,192,249989,1,0,0:0:0:0:
258,192,250096,1,8,0:0:0:0:
258,192,250203,1,8,0:0:0:0:
258,192,250310,1,0,0:0:0:0:
258,192,250525,1,8,0:0:0:0:
258,192,250632,1,8,0:0:0:0:
258,192,250739,1,0,0:0:0:0:
258,192,250846,1,0,0:0:0:0:
258,192,250953,1,8,0:0:0:0:
258,192,251060,1,0,0:0:0:0:
258,192,251167,1,0,0:0:0:0:
258,192,251275,1,8,0:0:0:0:
258,192,251382,1,0,0:0:0:0:
258,192,251489,1,8,0:0:0:0:
258,192,251596,1,0,0:0:0:0:
258,192,251703,1,8,0:0:0:0:
258,192,251810,1,0,0:0:0:0:
258,192,252025,1,0,0:0:0:0:
256,192,252096,1,0,0:0:0:0:
256,192,252167,1,0,0:0:0:0:
258,192,252239,1,0,0:0:0:0:
256,192,252310,1,0,0:0:0:0:
256,192,252382,1,0,0:0:0:0:
256,192,252453,1,0,0:0:0:0:
256,192,252525,1,0,0:0:0:0:
256,192,252596,1,0,0:0:0:0:
258,192,252667,1,8,0:0:0:0:
256,192,252775,1,0,0:0:0:0:
258,192,252882,1,0,0:0:0:0:
258,192,252953,1,0,0:0:0:0:
258,192,253025,1,0,0:0:0:0:
258,192,253096,1,0,0:0:0:0:
258,192,253167,1,0,0:0:0:0:
258,192,253239,1,0,0:0:0:0:
258,192,253310,1,8,0:0:0:0:
256,192,253382,1,0,0:0:0:0:
258,192,253453,1,0,0:0:0:0:
258,192,253525,1,8,0:0:0:0:
258,192,253596,1,0,0:0:0:0:
256,192,253667,1,8,0:0:0:0:
258,192,253739,1,0,0:0:0:0:
258,192,254167,1,0,0:0:0:0:
258,192,254382,1,8,0:0:0:0:
258,192,254596,1,0,0:0:0:0:
258,192,254810,1,8,0:0:0:0:
258,192,255025,1,0,0:0:0:0:
258,192,255132,1,0,0:0:0:0:
258,192,255239,1,8,0:0:0:0:
258,192,255453,1,0,0:0:0:0:
258,192,255667,1,8,0:0:0:0:
258,192,255775,1,0,0:0:0:0:
258,192,255882,1,0,0:0:0:0:
258,192,255989,1,8,0:0:0:0:
258,192,256096,1,8,0:0:0:0:
258,192,256203,1,8,0:0:0:0:
258,192,256310,1,0,0:0:0:0:
258,192,256525,1,8,0:0:0:0:
258,192,256739,1,0,0:0:0:0:
258,192,256846,1,8,0:0:0:0:
258,192,256953,1,8,0:0:0:0:
258,192,257167,1,0,0:0:0:0:
258,192,257275,1,8,0:0:0:0:
258,192,257489,1,8,0:0:0:0:
258,192,257596,1,0,0:0:0:0:
258,192,257810,1,8,0:0:0:0:
258,192,257917,1,8,0:0:0:0:
258,192,258025,1,0,0:0:0:0:
258,192,258132,1,8,0:0:0:0:
258,192,258346,1,8,0:0:0:0:
258,192,258453,1,0,0:0:0:0:
258,192,258560,1,8,0:0:0:0:
258,192,258667,1,8,0:0:0:0:
258,192,258775,1,0,0:0:0:0:
258,192,258882,1,0,0:0:0:0:
258,192,258989,1,8,0:0:0:0:
258,192,259096,1,8,0:0:0:0:
258,192,259203,1,8,0:0:0:0:
258,192,259310,1,0,0:0:0:0:
258,192,259525,1,8,0:0:0:0:
258,192,259739,1,0,0:0:0:0:
258,192,259846,1,8,0:0:0:0:
258,192,259953,1,8,0:0:0:0:
256,192,260060,1,0,0:0:0:0:
258,192,260167,1,0,0:0:0:0:
258,192,260275,1,0,0:0:0:0:
258,192,260382,1,8,0:0:0:0:
258,192,260596,1,0,0:0:0:0:
258,192,260810,1,8,0:0:0:0:
258,192,261025,1,0,0:0:0:0:
258,192,261132,1,0,0:0:0:0:
258,192,261239,1,8,0:0:0:0:
258,192,261453,1,0,0:0:0:0:
258,192,261560,1,0,0:0:0:0:
258,192,261775,1,8,0:0:0:0:
258,192,261882,1,0,0:0:0:0:
258,192,262096,1,8,0:0:0:0:
258,192,262203,1,8,0:0:0:0:
258,192,262310,1,0,0:0:0:0:
258,192,262525,1,8,0:0:0:0:
258,192,262739,1,0,0:0:0:0:
258,192,262846,1,8,0:0:0:0:
258,192,262953,1,8,0:0:0:0:
258,192,263167,1,0,0:0:0:0:
258,192,263382,1,8,0:0:0:0:
258,192,263489,1,0,0:0:0:0:
258,192,263596,1,0,0:0:0:0:
256,192,263703,1,0,0:0:0:0:
258,192,263810,1,8,0:0:0:0:
258,192,264025,1,0,0:0:0:0:
258,192,264239,1,8,0:0:0:0:
258,192,264453,1,0,0:0:0:0:
258,192,264560,1,8,0:0:0:0:
258,192,264667,1,0,0:0:0:0:
258,192,264775,1,8,0:0:0:0:
258,192,264882,1,0,0:0:0:0:
258,192,264989,1,8,0:0:0:0:
258,192,265096,1,8,0:0:0:0:
258,192,265203,1,8,0:0:0:0:
258,192,265310,1,0,0:0:0:0:
258,192,265417,1,8,0:0:0:0:
258,192,265525,1,0,0:0:0:0:
258,192,265632,1,8,0:0:0:0:
258,192,265739,1,0,0:0:0:0:
258,192,265953,1,8,0:0:0:0:
258,192,266167,1,0,0:0:0:0:
258,192,266382,1,8,0:0:0:0:
258,192,266489,1,0,0:0:0:0:
258,192,266596,1,0,0:0:0:0:
258,192,266810,1,8,0:0:0:0:
258,192,267025,1,0,0:0:0:0:
258,192,267132,1,8,0:0:0:0:
258,192,267239,1,8,0:0:0:0:
258,192,267453,1,0,0:0:0:0:
258,192,267560,1,8,0:0:0:0:
258,192,267775,1,8,0:0:0:0:
258,192,267882,1,0,0:0:0:0:
258,192,268096,1,8,0:0:0:0:
258,192,268310,1,0,0:0:0:0:
258,192,268417,1,8,0:0:0:0:
258,192,268632,1,8,0:0:0:0:
258,192,268739,1,0,0:0:0:0:
258,192,268953,1,8,0:0:0:0:
258,192,269060,1,0,0:0:0:0:
258,192,269167,1,0,0:0:0:0:
258,192,269275,1,8,0:0:0:0:
258,192,269382,1,0,0:0:0:0:
258,192,269596,1,0,0:0:0:0:
258,192,269703,1,8,0:0:0:0:
258,192,269810,1,8,0:0:0:0:
256,192,269917,1,8,0:0:0:0:
258,192,270025,1,0,0:0:0:0:
256,192,270132,1,0,0:0:0:0:
258,192,270239,1,8,0:0:0:0:
258,192,270346,1,8,0:0:0:0:
258,192,270453,1,0,0:0:0:0:
258,192,270667,1,8,0:0:0:0:
258,192,270775,1,0,0:0:0:0:
258,192,270882,1,0,0:0:0:0:
258,192,271096,1,0,0:0:0:0:
258,192,271310,1,0,0:0:0:0:
258,192,271417,1,8,0:0:0:0:
258,192,271525,1,8,0:0:0:0:
258,192,271632,1,0,0:0:0:0:
258,192,271739,1,0,0:0:0:0:
258,192,271846,1,8,0:0:0:0:
258,192,271953,1,8,0:0:0:0:
258,192,272060,1,8,0:0:0:0:
258,192,272167,1,0,0:0:0:0:
258,192,272382,1,8,0:0:0:0:
258,192,272596,1,0,0:0:0:0:
258,192,272703,1,8,0:0:0:0:
258,192,272917,1,8,0:0:0:0:
258,192,273025,1,0,0:0:0:0:
258,192,273239,1,8,0:0:0:0:
258,192,273453,1,0,0:0:0:0:
258,192,273667,1,8,0:0:0:0:
258,192,273882,1,0,0:0:0:0:
258,192,273989,1,8,0:0:0:0:
258,192,274096,1,8,0:0:0:0:
258,192,274203,1,0,0:0:0:0:
258,192,274310,1,0,0:0:0:0:
258,192,274417,1,8,0:0:0:0:
258,192,274525,1,0,0:0:0:0:
258,192,274739,1,0,0:0:0:0:
258,192,274953,1,8,0:0:0:0:
258,192,275060,1,8,0:0:0:0:
258,192,275167,1,0,0:0:0:0:
258,192,275275,1,8,0:0:0:0:
258,192,275382,1,0,0:0:0:0:
258,192,275489,1,8,0:0:0:0:
258,192,275596,1,0,0:0:0:0:
258,192,275810,1,8,0:0:0:0:
258,192,276025,1,0,0:0:0:0:
258,192,276132,1,0,0:0:0:0:
258,192,276239,1,8,0:0:0:0:
258,192,276453,1,0,0:0:0:0:
258,192,276667,1,8,0:0:0:0:
258,192,276775,1,8,0:0:0:0:
258,192,276882,1,0,0:0:0:0:
258,192,277096,1,8,0:0:0:0:
258,192,277203,1,0,0:0:0:0:
258,192,277310,1,0,0:0:0:0:
258,192,277417,1,8,0:0:0:0:
258,192,277525,1,0,0:0:0:0:
258,192,277632,1,8,0:0:0:0:
258,192,277739,1,0,0:0:0:0:
258,192,277846,1,0,0:0:0:0:
258,192,277953,1,8,0:0:0:0:
71,69,278167,2,0,B|487:69|505:69|315:71,1,454.999979171754
258,192,279453,1,4,0:0:0:0:
258,192,281167,1,0,0:0:0:0:
258,192,281596,1,8,0:0:0:0:
258,192,282025,1,0,0:0:0:0:
258,192,282239,1,0,0:0:0:0:
258,192,282453,1,8,0:0:0:0:
258,192,282882,1,0,0:0:0:0:
258,192,283096,1,0,0:0:0:0:
258,192,283310,1,8,0:0:0:0:
258,192,283525,1,0,0:0:0:0:
258,192,283739,1,0,0:0:0:0:
256,192,283953,1,0,0:0:0:0:
258,192,284167,1,8,0:0:0:0:
256,192,284382,1,0,0:0:0:0:
258,192,284596,1,0,0:0:0:0:
258,192,284810,1,0,0:0:0:0:
258,192,284917,1,0,0:0:0:0:
258,192,285025,1,8,0:0:0:0:
258,192,285239,1,0,0:0:0:0:
258,192,285453,1,0,0:0:0:0:
258,192,285560,1,0,0:0:0:0:
258,192,285667,1,0,0:0:0:0:
256,192,285775,1,0,0:0:0:0:
258,192,285882,1,8,0:0:0:0:
258,192,286096,1,0,0:0:0:0:
258,192,286310,1,0,0:0:0:0:
258,192,286417,1,0,0:0:0:0:
258,192,286632,1,0,0:0:0:0:
258,192,286739,1,8,0:0:0:0:
258,192,286953,1,0,0:0:0:0:
258,192,287167,1,0,0:0:0:0:
258,192,287275,1,0,0:0:0:0:
258,192,287382,1,0,0:0:0:0:
258,192,287489,1,0,0:0:0:0:
258,192,287596,1,8,0:0:0:0:
258,192,287810,1,0,0:0:0:0:
258,192,288025,1,0,0:0:0:0:
258,192,288132,1,0,0:0:0:0:
258,192,288239,1,0,0:0:0:0:
258,192,288453,1,8,0:0:0:0:
258,192,288667,1,0,0:0:0:0:
258,192,288882,1,0,0:0:0:0:
258,192,288989,1,8,0:0:0:0:
258,192,289096,1,0,0:0:0:0:
258,192,289310,1,8,0:0:0:0:
258,192,289525,1,0,0:0:0:0:
258,192,289739,1,0,0:0:0:0:
258,192,289846,1,8,0:0:0:0:
258,192,290060,1,0,0:0:0:0:
258,192,290167,1,8,0:0:0:0:
258,192,290382,1,0,0:0:0:0:
258,192,290596,1,0,0:0:0:0:
258,192,290703,1,0,0:0:0:0:
258,192,290810,1,0,0:0:0:0:
258,192,291025,1,8,0:0:0:0:
258,192,291132,1,0,0:0:0:0:
258,192,291346,1,0,0:0:0:0:
258,192,291453,1,0,0:0:0:0:
258,192,291667,1,0,0:0:0:0:
263,190,291882,1,8,0:0:0:0:
258,192,292096,1,0,0:0:0:0:
258,192,292310,1,0,0:0:0:0:
258,192,292417,1,0,0:0:0:0:
258,192,292525,1,8,0:0:0:0:
258,192,292632,1,0,0:0:0:0:
263,190,292739,1,8,0:0:0:0:
258,192,292846,1,0,0:0:0:0:
258,192,292953,1,0,0:0:0:0:
258,192,293167,1,0,0:0:0:0:
258,190,293275,1,8,0:0:0:0:
258,192,293489,1,0,0:0:0:0:
263,190,293596,1,8,0:0:0:0:
258,192,293810,1,8,0:0:0:0:
258,192,294025,1,0,0:0:0:0:
257,194,294239,1,0,0:0:0:0:
258,192,294346,1,0,0:0:0:0:
258,192,294560,1,0,0:0:0:0:
258,192,294775,1,0,0:0:0:0:
258,192,294882,1,4,0:0:0:0:
258,192,295310,1,8,0:0:0:0:
258,192,295525,1,0,0:0:0:0:
258,192,295632,1,0,0:0:0:0:
258,192,295739,1,0,0:0:0:0:
258,192,295953,1,0,0:0:0:0:
258,192,296060,1,0,0:0:0:0:
258,192,296167,1,8,0:0:0:0:
258,192,296382,1,0,0:0:0:0:
258,192,296489,1,8,0:0:0:0:
258,192,296596,1,0,0:0:0:0:
258,192,296810,1,0,0:0:0:0:
258,192,297025,1,8,0:0:0:0:
258,192,297132,1,0,0:0:0:0:
258,192,297346,1,0,0:0:0:0:
258,192,297453,1,0,0:0:0:0:
258,192,297667,1,0,0:0:0:0:
258,192,297775,1,0,0:0:0:0:
258,192,297882,1,8,0:0:0:0:
258,192,297989,1,0,0:0:0:0:
258,192,298203,1,8,0:0:0:0:
258,192,298310,1,0,0:0:0:0:
258,192,298525,1,0,0:0:0:0:
258,192,298632,1,0,0:0:0:0:
258,192,298739,1,8,0:0:0:0:
258,192,298953,1,0,0:0:0:0:
258,192,299167,1,0,0:0:0:0:
258,192,299275,1,0,0:0:0:0:
258,192,299382,1,8,0:0:0:0:
258,192,299489,1,0,0:0:0:0:
258,192,299596,1,8,0:0:0:0:
258,192,299703,1,0,0:0:0:0:
258,192,299810,1,0,0:0:0:0:
258,192,300025,1,0,0:0:0:0:
258,192,300132,1,8,0:0:0:0:
258,192,300239,1,0,0:0:0:0:
258,192,300453,1,8,0:0:0:0:
258,192,300667,1,0,0:0:0:0:
258,192,300775,1,8,0:0:0:0:
258,192,300882,1,0,0:0:0:0:
258,192,300989,1,0,0:0:0:0:
258,192,301203,1,0,0:0:0:0:
258,192,301310,1,8,0:0:0:0:
258,192,301525,1,8,0:0:0:0:
258,192,301739,1,0,0:0:0:0:
258,192,301953,1,0,0:0:0:0:
258,192,302060,1,0,0:0:0:0:
258,192,302167,1,8,0:0:0:0:
258,192,302275,1,0,0:0:0:0:
258,192,302489,1,0,0:0:0:0:
258,192,302596,1,0,0:0:0:0:
258,192,302810,1,8,0:0:0:0:
258,192,302917,1,0,0:0:0:0:
258,192,303025,1,8,0:0:0:0:
258,192,303132,1,0,0:0:0:0:
258,192,303346,1,0,0:0:0:0:
258,192,303453,1,0,0:0:0:0:
258,192,303560,1,8,0:0:0:0:
258,192,303667,1,0,0:0:0:0:
258,192,303882,1,8,0:0:0:0:
258,192,304096,1,8,0:0:0:0:
258,192,304310,1,0,0:0:0:0:
258,192,304417,1,0,0:0:0:0:
258,192,304525,1,8,0:0:0:0:
258,192,304632,1,0,0:0:0:0:
258,192,304739,1,8,0:0:0:0:
258,192,304953,1,8,0:0:0:0:
258,192,305060,1,8,0:0:0:0:
258,192,305167,1,0,0:0:0:0:
256,192,305275,1,0,0:0:0:0:
258,192,305382,1,8,0:0:0:0:
258,192,305489,1,0,0:0:0:0:
258,192,305596,1,0,0:0:0:0:
258,192,305703,1,0,0:0:0:0:
258,192,305810,1,8,0:0:0:0:
258,192,305917,1,0,0:0:0:0:
258,192,306025,1,0,0:0:0:0:
256,192,306132,1,0,0:0:0:0:
258,192,306239,1,8,0:0:0:0:
258,192,306310,1,8,0:0:0:0:
258,192,306382,1,8,0:0:0:0:
258,192,306453,1,8,0:0:0:0:
258,192,306560,1,8,0:0:0:0:
258,192,306667,1,8,0:0:0:0:
256,192,306775,1,8,0:0:0:0:
258,192,306882,1,0,0:0:0:0:
256,192,307096,12,0,308382,0:0:0:0:
256,191,308596,5,4,0:0:0:0:
