osu file format v9

[General]
AudioFilename: the glow of a firefly.mp3
AudioLeadIn: 1500
PreviewTime: 88210
Countdown: 0
SampleSet: Soft
StackLeniency: 0.6
Mode: 0
LetterboxInBreaks: 0

[Editor]
Bookmarks: 30028,44574,117301,131847,144574,175483,190028,262756
DistanceSpacing: 0
BeatDivisor: 4
GridSize: 8

[Metadata]
Title:The Glow of a Firefly
Artist:3L
Creator:Saten ruiko
Version:qinche
Source:Touhou
Tags:Disoy qinche littlecar3370 TW-KUMA01

[Difficulty]
HPDrainRate:6
CircleSize:5
OverallDifficulty:6
ApproachRate:7
SliderMultiplier:1.4
SliderTickRate:1

[Events]
//Background and Video events
0,0,"BG.jpg"
//Break Periods
2,30228,43674
2,117501,130947
2,175683,189128
2,204774,205492
2,206592,207310
//Storyboard Layer 0 (Background)
//Storyboard Layer 1 (Fail)
//Storyboard Layer 2 (Pass)
//Storyboard Layer 3 (Foreground)
Sprite,Foreground,Centre,"SB\BG Effect2.jpg",320,240 F,0,15426,15483,0,0.6 F,0,15483,15938,0.6,0 F,0,16335,16392,0,0.6 F,0,16392,16847,0.6,0 F,0,17244,17301,0,0.6 F,0,17301,17756,0.6,0 F,0,18153,18210,0,0.6 F,0,18210,18665,0.6,0 F,0,19063,19119,0,0.6 F,0,19119,19574,0.6,0 F,0,19972,20028,0,0.6 F,0,20028,20483,0.6,0 F,0,20881,20938,0,0.6 F,0,20938,21392,0.6,0 F,0,21790,21847,0,0.6 F,0,21847,22301,0.6,0 F,0,22699,22756,0,0.6 F,0,22756,23210,0.6,0 F,0,23608,23665,0,0.6 F,0,23665,24119,0.6,0 F,0,24517,24574,0,0.6 F,0,24574,25028,0.6,0 F,0,25426,25483,0,0.6 F,0,25483,25938,0.6,0 F,0,26335,26392,0,0.6 F,0,26392,26847,0.6,0 F,0,27244,27301,0,0.6 F,0,27301,27756,0.6,0 F,0,28210,29972,0,1 F,0,29972,30028,1,0 F,0,211790,211847,0,1 F,0,211847,212244,1,0 F,0,212244,212301,0,1 F,0,212301,212699,1,0 F,0,212699,212756,0,1 F,0,212756,213153,1,0 F,0,213153,213210,0,1 F,0,213210,213608,1,0 F,0,213608,213665,0,1 F,0,213665,214063,1,0 F,0,214063,214119,0,1 F,0,214119,214517,1,0 F,0,214517,214574,0,1 F,0,214574,214972,1,0 F,0,214972,215028,0,1 F,0,215028,215426,1,0 F,0,215426,215483,0,1 F,0,215483,215881,1,0 F,0,215881,215938,0,1 F,0,215938,216335,1,0 F,0,216335,216392,0,1 F,0,216392,216790,1,0 F,0,216790,216847,0,1 F,0,216847,217244,1,0
Sprite,Foreground,Centre,"SB\BG Effect.jpg",320,240 F,0,30085,44574,0.6 F,0,44574,46392,0.6,0 F,0,117358,146392,0.6 F,0,146392,146449,0.6,0 F,0,175540,204574,0.6
Sprite,Foreground,Centre,"SB\Black.jpg",320,240 F,0,30938,31847,0,0.7 F,0,31847,57301,0.7 F,0,57301,59119,0.7,0 F,0,173665,175028,0,1 F,0,175028,175483,1 F,0,175483,175540,1,0 F,0,200938,202756,0,1 F,0,202756,204574,1,0.7 F,0,204574,217301,0.7 F,0,217301,218210,0.7,0
Sprite,Foreground,Centre,"SB\Yellow Light.png",320,240 F,0,30085,57301,1 R,0,30085,59119,-10,-11.13632 F,0,57301,58210,1,0
Sprite,Foreground,Centre,"SB\BG Effect3.png",320,240 F,0,204119,205028,0,1 F,0,205028,219119,1
Sprite,Foreground,Centre,"SB\White Effect.png",320,240 F,0,28210,29972,0,0.6 S,0,28210,30028,1,1.286975 F,0,29972,30028,0.6,0 F,0,30028,37415,0 F,0,37415,57301,0 F,0,57301,59063,0,0.6 F,0,59063,59119,0.6,0 F,0,73210,73665,0,0.6 S,0,73210,73665,1,1.286975 F,0,73665,73722,0.6,0.7 S,0,73665,73722,1.286975,2.29822 F,0,73722,74574,0.7,0 S,0,73722,74574,2.29822,1.286975 F,0,86392,88210,0,1 F,0,88210,88267,1,0 F,0,115483,117301,0,1 F,0,117301,117358,1,0 F,0,144574,146392,0,0.7 F,0,146392,146449,0.7,0 F,0,160028,160881,0,0.7 S,0,160028,160881,0.959295,1.276735 F,0,160881,160938,0.7,1 S,0,160881,160938,1.276735,2.003775 F,0,160938,162301,1,0 S,0,160938,162301,2.003775,1.286975 F,0,217301,219119,0,1 F,0,219119,219176,1,0 F,0,231847,233608,0,0.7 F,0,233608,233665,0.7,1
Sprite,Foreground,Centre,"SB\White.jpg",320,240 F,0,29119,29972,0,0.3 F,0,29972,30028,0.3,1 F,0,30028,30938,1,0 F,0,58210,59063,0,0.4 F,0,59063,59119,0.4,1 F,0,59119,60483,1,0 F,0,87301,88153,0,0.4 F,0,88153,88210,0.4,1 F,0,88210,89574,1,0 F,0,116392,117244,0,0.3 F,0,117244,117301,0.3,1 F,0,117301,118665,1,0 F,0,145483,146335,0,0.3 F,0,146335,146392,0.3,1 F,0,146392,147756,1,0 F,0,175483,176847,1,0 F,0,218210,219063,0,0.6 F,0,219063,219119,0.6,1 F,0,219119,220483,1,0 F,0,232756,233608,0,0.6 F,0,233608,233665,0.6,1 F,0,233665,235028,1,0
Sprite,Foreground,Centre,"SB\wave.png",320,240 M,0,88210,117301,573,353,77,353 F,0,88210,117301,1 F,0,117301,117358,1,0 M,0,219119,233665,571,353,273,353 F,0,219119,233665,1 F,0,233665,233722,1,0
Sprite,Foreground,Centre,"SB\01.png",320,240 F,0,256,938,0,1 M,0,256,15256,284,335,336,335 F,0,938,14574,1 F,0,14574,15256,1,0 F,0,14574,15256,1,0 F,0,88210,89574,0,1 M,0,88210,102528,282,335,333,335 F,0,89574,101847,1 F,0,101847,102528,1,0
Sprite,Foreground,Centre,"SB\02.png",320,240 F,0,7983,8665,0,1 M,0,7983,15256,393,389,353,390 F,0,8665,14574,1 F,0,14574,15256,1,0 F,0,95256,95938,0,1 M,0,95256,102528,418,389,393,389 F,0,95938,101847,1 F,0,101847,102528,1,0
Sprite,Foreground,Centre,"SB\03.png",320,240 F,0,15256,15938,0,1 M,0,15256,29801,250,335,317,335 F,0,15938,29119,1 F,0,29119,29801,1,0 F,0,102528,103210,0,1 M,0,102528,117074,250,335,306,335 F,0,103210,116392,1 F,0,116392,117074,1,0
Sprite,Foreground,Centre,"SB\04.png",320,240 F,0,22528,23210,0,1 M,0,22528,29801,384,390,349,390 F,0,23210,29119,1 F,0,29119,29801,1,0 F,0,109801,110483,0,1 M,0,109801,117074,384,390,347,390 F,0,110483,116392,1 F,0,116392,117074,1,0
Sprite,Foreground,Centre,"SB\05.png",320,240 F,0,59347,60028,0,1 M,0,59347,73438,267,335,311,335 F,0,60028,72756,1 F,0,72756,,1 F,0,72756,73438,1,0
Sprite,Foreground,Centre,"SB\06.png",320,240 F,0,66619,67301,0,1 M,0,66619,73438,366,388,335,388 F,0,67301,72756,1 F,0,72756,73438,1,0
Sprite,Foreground,Centre,"SB\07.png",320,240 F,0,73892,74574,0,1 M,0,73892,87528,251,335,317,335 F,0,74574,86847,1 F,0,86847,87528,1,0
Sprite,Foreground,Centre,"SB\08.png",320,240 F,0,81165,81847,0,1 M,0,81165,87528,425,389,385,389 F,0,81847,86847,1 F,0,86847,87528,1,0
Sprite,Foreground,Centre,"SB\09.png",320,240 F,0,146619,147074,0,1 M,0,146619,160710,216,339,320,339 F,0,147074,160028,1 F,0,160028,160710,1,0
Sprite,Foreground,Centre,"SB\10 lyric.png",320,240 F,0,153892,154574,0,1 M,0,153892,160710,409,395,380,395 F,0,154574,160028,1 F,0,160028,160710,1,0
Sprite,Foreground,Centre,"SB\11.png",320,240 F,0,161165,161847,0,1 M,0,161165,174574,268,340,334,340 F,0,161847,173665,1 F,0,173665,174574,1,0
Sprite,Foreground,Centre,"SB\12.png",320,240 F,0,168438,169119,0,1 M,0,168438,174574,384,395,356,395 F,0,169119,173665,1 F,0,173665,174574,1,0
Sprite,Foreground,Centre,"SB\Ring.png",320,240 F,0,202756,202813,0,1 S,0,202756,204119,0.1,2.135876 F,0,202813,204119,1,0
Sprite,Foreground,Centre,"SB\13.png",320,240 F,0,203892,204574,0,1 M,0,203892,218210,252,340,317,340 F,0,204574,217301,1 F,0,217301,218210,1,0
Sprite,Foreground,Centre,"SB\14.png",320,240 F,0,211619,212301,0,1 M,0,211619,218210,408,395,362,395 F,0,212301,217301,1 F,0,217301,218210,1,0
Sprite,Foreground,Centre,"SB\15.png",320,240 F,0,219347,220483,0,1 M,0,219347,233210,259,331,312,331 F,0,220483,231847,1 F,0,231847,233210,1,0
Sprite,Foreground,Centre,"SB\16.png",320,240 F,0,226165,226847,0,1 M,0,226165,233210,415,386,373,386 F,0,226847,231847,1 F,0,231847,233210,1,0
Animation,Foreground,Centre,"SB\Title\t.png",320,240,21,60,LoopForever F,0,36165,37415,1 S,0,36165,37415,1.122989
Sprite,Foreground,Centre,"SB\Title\t20.png",320,240 F,0,37415,42756,1 S,0,37415,44574,1.122989 F,0,42756,44574,1,0
Sprite,Foreground,Centre,"SB\Riguru.png",320,240 S,0,31847,,0.6173665 M,0,31847,32528,703,97,481,132 M,0,32528,33210,481,132,470,146 M,0,33210,33665,470,146,452,134 M,0,33665,34347,452,134,558,213 P,0,33665,35483,H M,0,34347,35483,558,213,571,196 M,0,35483,36392,571,196,359,249 M,0,36392,37301,359,249,97,223 M,0,37301,,97,223 M,0,37301,39119,97,223,77,225 M,0,39119,39574,77,225,174,323 P,0,39119,42756,H M,0,39574,40028,174,323,303,288 M,0,40028,40938,303,288,445,141 M,0,40938,41847,445,141,716,-16
//Storyboard Sound Samples
//Background Colour Transformations
3,100,163,162,255

[TimingPoints]
938,454.545454545455,4,2,1,60,1,0
15483,-100,4,2,1,70,0,0
28607,-100,4,2,1,30,0,0
29636,-100,4,2,1,70,0,0
44574,-100,4,2,1,55,0,0
87191,-100,4,2,1,80,0,0
87479,-100,4,2,1,50,0,0
88210,-100,4,2,1,70,0,1
117301,-100,4,2,1,90,0,0
131847,-100,4,2,1,50,0,0
146392,-125,4,2,1,50,0,0
146847,-100,4,2,1,50,0,0
190028,-100,4,2,1,55,0,0
204574,-125,4,2,1,40,0,0
210028,-125,4,2,1,44,0,0
210483,-125,4,2,1,50,0,0
211847,-100,4,2,1,65,0,0
219119,-76.9230769230769,4,2,1,70,0,1
232756,-76.9230769230769,4,2,1,60,0,1
233665,-76.9230769230769,4,2,1,40,0,0

[Colours]
Combo1 : 244,230,159
Combo2 : 152,206,79
Combo3 : 207,233,222
Combo4 : 137,60,46

[HitObjects]
40,80,483,1,0
120,104,710,1,0
160,176,938,2,0,B|224:224|296:176,1,140,2|0
224,128,1619,1,0
304,96,1847,2,0,B|384:72|440:136,1,140,2|0
96,256,2756,6,0,B|56:152|56:152,1,105,2|0
50,133,3210,1,0
136,96,3438,1,0
168,176,3665,2,0,B|176:216|272:224|288:184,1,140,2|0
352,120,4347,5,0
368,112,4460,1,0
384,104,4574,2,0,B|424:160,1,70,2|0
352,224,5028,2,0,B|392:280,1,70,0|0
280,184,5483,1,2
272,320,5710,1,0
352,224,5938,1,0
232,256,6165,1,0
120,216,6392,2,0,B|72:160|72:88,2,140,2|2|2
208,216,7528,1,0
288,184,7756,2,0,B|320:208|368:192,1,70
392,272,8210,6,0,B|464:232|432:152,1,140,2|0
352,120,8892,1,0
256,120,9119,2,0,B|104:120,1,140,2|0
72,40,9801,5,0
72,40,9915,1,0
72,40,10028,2,0,B|144:16|216:40,1,140,2|0
144,104,10710,1,0
72,168,10938,2,0,B|144:192|216:168,2,140,2|0|2
104,256,12074,1,0
200,232,12301,1,0
240,312,12528,1,0
328,272,12756,1,2
376,352,12983,1,0
464,304,13210,2,0,B|488:264|488:200,1,105,0|0
488,176,13665,2,0,B|384:144|272:176|272:176,2,210,0|0|4
280,88,15483,6,0,B|232:136|152:136,1,140,10|0
96,80,16165,1,0
176,64,16392,2,0,B|240:104|240:184,1,140,2|0
272,256,17074,1,0
336,312,17301,2,0,B|392:296|432:256,1,105,10|0
426,261,17756,1,0
448,184,17983,1,0
392,120,18210,2,0,B|312:80|280:176|192:144,1,210,2|0
128,80,19119,6,0,B|64:136|128:200,1,140,10|0
208,232,19801,1,0
224,144,20028,1,2
312,128,20256,1,0
352,208,20483,1,0
288,272,20710,1,0
352,208,20938,2,0,B|408:160|408:80,1,140,10|0
320,64,21619,1,0
320,64,21733,1,0
320,64,21847,2,0,B|248:80,1,70,2|0
168,48,22301,6,0,B|152:96|112:120|56:120,2,140,0|10|0
232,112,23438,1,0
288,184,23665,2,0,B|288:232|336:272|384:264,2,140,2|0|10
376,176,24801,1,0
336,96,25028,1,0
248,112,25256,1,0
240,200,25483,2,0,B|112:256,1,140,2|0
80,176,26165,1,0
80,176,26278,1,0
80,176,26392,6,0,B|144:152,1,70,10|0
352,176,26847,2,0,B|280:152,1,70,2|0
80,296,27301,2,0,B|152:264,1,70,2|0
352,296,27756,2,0,B|280:264,1,70,2|0
216,200,28210,2,0,B|205:76|261:78|282:8|224:-34|161:3|180:79|234:48,2,280,10|0|4
112,152,44574,5,6
120,72,44801,1,0
184,24,45028,1,0
264,32,45256,1,2
272,48,45369,1,0
280,64,45483,2,0,B|296:96|288:136,1,70,0|2
352,192,45938,2,0,B|424:192,1,70,0|0
424,272,46392,6,0,B|424:360|336:360,1,140,2|2
272,312,47074,1,2
256,304,47188,1,0
176,272,47415,1,0
160,272,47528,1,2
88,208,47756,2,0,B|160:208,1,70
248,208,48210,5,2
328,168,48438,1,0
344,80,48665,1,0
296,8,48892,1,2
280,16,49006,1,0
264,24,49119,2,0,B|240:104|152:72,1,140
72,56,49801,1,0
72,136,50028,6,0,B|136:136|152:200|152:200,1,105,2|0
152,208,50483,1,0
152,288,50710,2,0,B|224:264|224:264,1,70,2|0
296,240,51165,1,2
376,216,51392,1,0
456,192,51619,1,0
376,216,51847,6,0,B|344:152|344:152,2,70,6|0|0
296,240,52528,1,2
296,240,52642,1,0
296,240,52756,2,0,B|328:304|328:304,1,70,0|2
240,328,53210,2,0,B|176:360|104:328,2,140,0|2|0
240,240,54347,2,0,B|312:224|384:240,1,140,2|2
464,240,55028,2,0,B|464:160|464:160,1,70
464,152,55369,1,0
464,136,55483,2,0,B|400:120|320:136,1,140,2|0
232,144,56165,5,2
240,128,56278,1,0
248,112,56392,1,0
256,96,56506,1,0
176,64,56733,1,0
160,64,56847,1,0
88,104,57074,1,0
88,184,57301,2,0,B|16:304,1,140,2|0
104,288,57983,2,0,B|128:360|216:376,1,140,2|2
256,304,58665,2,0,B|344:304|360:224,1,140,0|4
240,48,59574,6,0,B|200:88|216:144,1,105,2|0
224,160,60028,1,0
304,200,60256,1,0
368,144,60483,1,0
304,80,60710,2,0,B|328:48|368:64,1,70,2|0
368,144,61165,1,0
304,200,61392,2,0,B|264:200|240:168,1,70
168,128,61847,2,0,B|112:184|136:256,2,140,2|0|0
208,200,62983,5,0
216,216,63097,1,0
224,232,63210,2,0,B|288:208,1,70,2|0
376,192,63665,2,0,B|392:248|456:256,1,105,0|0
451,255,64119,1,0
408,320,64347,2,0,B|464:272|464:192,1,140,2|0
376,192,65028,6,0,B|376:116|320:68,1,140,0|2
232,80,65710,1,0
184,152,65938,1,0
216,232,66165,1,0
216,232,66278,1,0
216,232,66392,2,0,B|224:272|216:304,1,70
304,256,66847,2,0,B|336:320|424:320,1,140,2|0
392,232,67528,5,0
424,152,67756,1,0
400,64,67983,1,2
400,64,68097,2,0,B|360:32|288:32,1,105,0|0
212,48,68665,2,0,B|180:64|140:64,1,70,0|0
80,128,69119,2,0,B|104:152|144:152,1,70,2|0
160,152,69460,1,0
176,152,69574,1,0
264,144,69801,2,0,B|288:184|248:248|200:248,1,140,0|0
296,344,70483,6,0,B|272:304|312:240|360:240,1,140,2|0
440,280,71165,2,0,B|488:240|464:184,1,105
464,168,71619,2,0,B|320:184|320:184|320:184|320:184,1,140,2|0
240,144,72301,2,0,B|96:160|96:160,3,140,0|2|0|4
384,104,74119,6,0,B|408:136|384:168,1,70,2|0
296,168,74574,2,0,B|240:216|280:296,1,140
184,280,75256,2,0,B|128:264|120:200,1,105,2|0
120,184,75710,1,0
168,112,75938,2,0,B|240:72|304:112|304:112,1,140,0|2
352,184,76619,1,0
352,184,76733,1,0
352,184,76847,1,0
304,256,77074,2,0,B|352:304|432:304,1,140,0|0
432,216,77756,6,0,B|480:176|480:120,1,105,2|0
464,112,78210,2,0,B|400:144,1,70
352,80,78665,1,0
272,112,78892,2,0,B|192:112|152:48,1,140,2|0
68,76,79574,6,0,B|48:104|64:144,1,70
120,208,80028,1,2
200,128,80256,1,0
128,120,80483,1,0
192,216,80710,2,0,B|248:256|328:240,1,140
304,160,81392,6,0,B|448:160,2,140,2|0|0
304,72,82528,2,0,B|224:72|224:168,1,140,2|0
136,168,83210,2,0,B|136:224|184:256,1,105
200,256,83665,2,0,B|289:256,1,70,2|0
320,184,84119,1,0
400,136,84347,1,0
400,152,84460,1,0
400,168,84574,2,0,B|400:248|400:248,1,70
320,184,85028,2,0,B|320:40,2,140,2|0|0
232,184,86165,2,0,B|232:256,2,70,2|0|0
152,136,86847,2,0,B|200:72|296:152|352:104,1,210,0|0
296,40,87756,5,0
200,56,87983,1,0
128,120,88210,2,0,B|80:176|80:248,1,140,14|8
176,248,88892,1,0
232,328,89119,2,0,B|280:272|280:200,1,140,0|8
280,112,89801,1,0
280,112,89915,1,0
280,112,90028,2,0,B|360:112,1,70,10|0
440,144,90483,1,8
472,232,90710,1,0
424,312,90938,2,0,B|392:248|304:248,1,140,2|8
240,312,91619,1,0
144,312,91847,6,0,B|96:248|144:184,1,140,10|8
240,184,92528,1,0
304,80,92756,1,2
312,200,92983,1,0
232,112,93210,1,8
352,136,93438,1,0
448,112,93665,2,0,B|464:184,1,70,10|0
272,224,94119,2,0,B|256:152,1,70,8|0
352,136,94574,2,0,B|368:208,2,70,2|0|8
264,80,95256,1,0
264,80,95483,6,0,B|200:120|128:80,1,140,10|8
200,24,96165,1,0
200,24,96392,2,0,B|200:168|200:168,1,140,2|8
272,224,97074,1,0
280,240,97188,1,0
288,256,97301,2,0,B|360:256,1,70,10|0
360,176,97756,2,0,B|432:176,1,70,8|0
432,96,98210,2,0,B|496:128|496:216,2,140,0|8|10
368,160,99347,5,0
272,152,99574,1,10
336,80,99801,1,0
240,64,100028,1,2
168,136,100256,1,0
96,208,100483,2,0,B|176:208|176:208,1,70,10|0
168,288,100938,2,0,B|256:360|344:192|432:288,1,280,10|2
256,192,102301,1,0
216,72,102756,6,0,B|152:112|80:72,1,140,14|8
83,73,103438,1,0
80,160,103665,2,0,B|104:232|192:232,1,140,2|8
256,168,104347,1,0
336,208,104574,2,0,B|392:160,2,70,10|0|8
256,256,105256,1,0
160,240,105483,2,0,B|72:216|136:128|56:72,1,210,2|0
144,72,106392,6,0,B|232:72,1,70,10|0
256,152,106847,1,8
304,72,107074,1,0
352,152,107301,2,0,B|408:104,1,70,2|0
256,152,107756,2,0,B|200:200,1,70,8|0
200,208,108097,1,0
196,220,108210,6,0,B|196:296,1,70,10|0
280,328,108665,2,0,B|280:248,1,70,8|0
364,208,109119,1,2
364,120,109347,1,0
276,72,109574,2,0,B|276:160|276:160,1,70,8|0
184,120,110028,6,0,B|96:64,1,105,10|0
95,63,110483,2,0,B|55:79|55:127,1,70,8|0
56,208,110938,2,0,B|136:208|184:256,1,140,2|8
240,184,111619,1,0
256,184,111733,1,0
272,184,111847,2,0,B|304:208|344:208,1,70,10|0
424,208,112301,1,8
424,208,112528,1,0
488,144,112756,2,0,B|488:64|424:16,2,140,2|8|10
424,208,113892,1,0
288,248,114119,5,10
336,168,114347,1,0
200,216,114574,5,2
160,296,114801,1,0
72,264,115028,2,0,B|72:320,2,35,10|0|0
120,192,115483,6,0,B|152:208,3,35,10|0|0|0
160,184,115938,2,0,B|200:168,3,35,2|0|0|0
224,176,116392,2,0,B|256:144,3,35,2|0|2|0
264,176,116847,2,0,B|304:192,3,35,2|2|2|2
264,176,117301,1,6
256,192,131847,5,4
256,192,133665,6,0,B|256:48,1,140,2|0
176,136,134574,2,0,B|176:280,1,140,0|0
336,276,135483,2,0,B|336:132,1,140,2|0
256,48,136392,2,0,B|256:192,1,140,0|0
152,184,137301,6,0,B|72:208,1,70,2|0
192,264,137756,2,0,B|152:344,1,70,0|2
320,264,138210,2,0,B|352:328,1,70,0|2
360,184,138665,2,0,B|440:208,1,70,0|0
256,184,139119,6,0,B|328:152|336:72,1,140,2|0
240,56,139801,1,0
224,64,139915,1,0
208,72,140028,2,0,B|178:78|138:70,1,70,2|0
96,152,140483,2,0,B|136:144|168:160,1,70
256,184,140938,2,0,B|312:224|320:336,1,140,2|0
216,328,141619,1,0
200,320,141733,1,0
184,304,141847,2,0,B|216:280|216:240,1,70,2|0
120,224,142301,2,0,B|96:152,1,70
184,120,142756,6,0,B|256:120,2,70,2|0|0
336,200,143438,1,0
320,200,143551,1,0
304,200,143665,2,0,B|216:200,2,70,2|0|0
256,118,144347,1,0
256,32,144574,5,2
256,40,144688,1,2
256,48,144801,2,0,B|256:120,1,70,2|2
168,120,145256,6,0,B|168:200,1,70,2|2
168,200,145597,1,0
256,192,145824,5,0
256,200,145938,1,2
344,192,146165,5,0
344,200,146279,1,0
344,208,146392,2,0,B|344:280,1,56,4|0
344,352,146847,2,0,B|272:328|248:256,2,140,2|0|0
344,264,147983,2,0,B|368:192|440:168,1,140,2|0
376,112,148665,2,0,B|344:88|312:112,1,70
248,176,149119,2,0,B|168:176|128:112,1,140,2|0
48,64,149801,1,0
48,64,149915,1,0
48,64,150028,2,0,B|48:152,1,70
48,216,150483,6,0,B|160:216,1,105,2|0
153,216,150938,1,0
152,304,151165,2,0,B|208:264,1,70
280,216,151619,2,0,B|320:264|368:168|416:224,1,140,2|0
464,288,152301,2,0,B|504:216|456:144,1,140,0|2
400,96,152983,1,0
336,152,153210,1,0
400,208,153438,2,0,B|400:288,1,70
320,312,153892,5,0
320,296,154006,1,0
320,280,154119,2,0,B|320:136,2,140,2|0|0
232,280,155256,2,0,B|152:248|152:168,1,140,2|0
136,176,155824,1,0
120,176,155938,2,0,B|32:177,1,70
120,96,156392,2,0,B|192:96,1,70,2|0
240,168,156847,1,0
240,168,157074,2,0,B|304:232|376:112|432:192,1,210,0|2
352,240,157983,2,0,B|352:152,1,70
280,64,158438,6,0,B|280:136,1,70,0|0
192,136,158892,2,0,B|144:160|144:224|192:248,1,140,2|0
216,328,159574,1,0
280,272,159801,2,0,B|360:272,1,70,0|2
352,296,160142,1,0
432,272,160369,1,0
432,248,160483,1,2
376,176,160710,1,2
288,176,160938,1,4
176,48,161392,6,0,B|120:88,1,70,2|0
120,168,161847,2,0,B|176:144|216:160|232:216,1,140
296,168,162528,2,0,B|400:168,1,105,2|0
416,168,162983,1,0
428,256,163210,2,0,B|284:256,1,140,0|2
216,312,163892,2,0,B|168:256,1,70
112,192,164347,2,0,B|48:128|112:72,1,140
200,72,165028,6,0,B|272:104|336:72,2,140,2|0|0
200,160,166165,1,2
200,176,166278,1,0
200,192,166392,2,0,B|208:232|240:248,1,70,0|0
320,200,166847,2,0,B|336:160|376:160,1,70
360,72,167301,1,2
440,120,167528,1,0
448,208,167756,1,2
392,280,167983,2,0,B|368:312|328:312,1,70,0|0
216,120,168665,6,0,B|200:168|128:168|128:168|88:168,1,140,2|0
80,168,169233,1,0
128,96,169460,1,0
128,80,169574,2,0,B|128:8,2,70,0|2|0
80,168,170256,1,0
80,168,170483,2,0,B|120:240|80:304,1,140,2|2
432,304,171392,5,0
432,304,171619,2,0,B|393:242|433:170,1,140,2|0
464,96,172301,2,0,B|440:168|360:184,1,140,0|2
288,248,172983,2,0,B|360:248,1,70
280,184,173438,2,0,B|201:199|180:280|180:280,1,140
144,360,174119,2,0,B|64:264|144:168,1,210,2|0
142,169,174915,1,0
142,169,175028,1,2
216,112,175256,1,2
304,144,175483,1,4
96,136,190028,5,6
112,120,190142,1,0
208,120,190369,1,0
224,136,190483,1,2
160,208,190710,1,0
248,232,190938,1,2
264,232,191051,2,0,B|368:232,1,105
408,152,191619,1,0
464,224,191847,5,2
464,248,191960,1,0
464,272,192074,1,0
464,296,192188,2,0,B|360:296,1,105
272,344,192756,2,0,B|208:312,1,70,2|0
192,304,193097,1,0
176,296,193210,1,2
240,240,193438,5,0
152,208,193665,2,0,B|117:208,2,35,2|0|0
240,240,194119,1,2
216,152,194347,2,0,B|216:80,1,70,0|2
216,64,194688,1,0
216,48,194801,1,0
304,104,195028,1,2
392,144,195256,1,0
320,192,195483,5,2
320,208,195597,1,0
320,224,195710,1,0
320,240,195824,1,0
320,256,195938,2,0,B|392:256,1,70,2|0
320,312,196392,1,2
304,312,196506,1,0
208,312,196733,1,0
208,312,196847,2,0,B|208:232|208:224,1,70,2|0
136,184,197301,6,0,B|184:184|192:152,1,70,6|0
191,152,197642,1,0
191,152,197756,1,2
248,80,197983,1,0
248,96,198097,1,0
248,112,198210,2,0,B|264:144|312:144,1,70,2|0
320,144,198551,1,0
336,144,198665,1,2
340,56,198892,6,0,B|412:56,1,70,0|2
408,72,199233,1,0
456,144,199460,1,0
440,160,199574,1,2
376,224,199801,1,0
392,240,199915,1,0
424,328,200142,1,0
424,328,200256,1,0
400,328,200369,1,0
400,328,200483,1,2
312,280,200710,1,0
208,280,200938,5,2
208,280,201051,2,0,B|104:280,1,105,0|2
80,200,201619,1,0
80,200,201733,2,0,B|184:200,1,105
256,144,202301,1,2
328,200,202528,1,2
312,280,202756,5,2
312,280,202869,2,0,B|416:280,1,105,0|2
432,200,203438,1,0
432,200,203551,2,0,B|320:200,1,105
256,144,204119,1,2
256,56,204347,1,2
256,144,204574,1,6
256,136,206392,5,2
256,128,208210,5,2
256,120,209119,5,2
256,200,209347,1,0
256,280,209574,1,2
256,200,209801,1,0
256,120,210028,2,0,B|328:120,1,56,2|0
256,200,210483,2,0,B|200:200,1,56
256,280,210938,1,2
256,200,211165,1,0
256,280,211392,1,0
256,56,211847,5,2
256,184,212301,1,0
152,296,212756,1,0
352,296,213210,1,0
352,192,213438,1,0
352,176,213551,1,0
352,160,213665,6,0,B|448:160,1,70,2|0
352,88,214119,2,0,B|280:88,1,70
208,152,214574,2,0,B|208:240|112:240,1,140
112,136,215256,1,0
120,112,215369,1,0
136,96,215483,5,2
216,56,215710,1,0
304,80,215938,1,2
352,160,216165,1,0
336,248,216392,1,2
248,296,216619,1,0
152,264,216847,2,0,B|120:248|112:208,1,70,2|0
192,160,217301,2,0,B|216:136,3,35,2|0|0|0
240,152,217756,2,0,B|280:144,3,35,2|0|0|0
288,160,218210,2,0,B|320:184,3,35,2|0|2|0
336,168,218665,2,0,B|360:168,7,17.5,0|0|0|0|0|0|2|0
368,144,219119,6,0,B|424:104|424:16,1,136.49999755919,14|0
408,24,219574,2,0,B|304:24,1,90.9999983727932,8|0
216,24,220028,2,0,B|112:24|112:152,1,181.999996745586,0|8
200,112,220710,1,0
200,200,220938,2,0,B|280:200|296:120,1,136.49999755919,10|0
295,121,221392,2,0,B|389:120,1,90.9999983727932,8|0
480,128,221847,2,0,B|456:216|304:152|280:272|360:312|432:288|416:224|376:216|344:232,1,272.99999511838,2|0
272,232,222756,6,0,B|168:232,1,90.9999983727932,10|0
128,312,223210,2,0,B|80:232,1,90.9999983727932,8|0
128,160,223665,2,0,B|24:160,1,90.9999983727932,2|0
176,80,224119,2,0,B|224:160,1,90.9999983727932,8|0
304,104,224574,2,0,B|336:192|304:288,2,181.999996745586,10|8|2
216,152,225710,2,0,B|232:200|216:248,2,90.9999983727932,0|8|0
120,200,226392,6,0,B|264:200,1,136.49999755919,8|0
256,200,226847,2,0,B|312:192|312:136,1,90.9999983727932,8|0
312,48,227301,2,0,B|312:160|424:160,1,181.999996745586,2|8
392,72,227983,1,0
392,72,228097,1,0
392,72,228210,2,0,B|392:168,1,90.9999983727932,10|0
312,256,228665,2,0,B|312:160,1,90.9999983727932,8|0
224,72,229119,2,0,B|224:256,2,181.999996745586,0|10|10
168,136,230256,5,0
264,136,230483,1,10
128,200,230710,1,0
304,200,230938,1,2
88,264,231165,1,0
344,264,231392,2,0,B|448:312,1,90.9999983727932,10|0
256,192,231847,12,4,233665
