osu file format v9

[General]
AudioFilename: the glow of a firefly.mp3
AudioLeadIn: 1500
PreviewTime: 88210
Countdown: 0
SampleSet: Soft
StackLeniency: 0.7
Mode: 0
LetterboxInBreaks: 0

[Editor]
Bookmarks: 59574,175483
DistanceSpacing: 1.2
BeatDivisor: 4
GridSize: 8

[Metadata]
Title:The Glow of a Firefly
Artist:3L
Creator:Saten ruiko
Version:Hard
Source:Touhou
Tags:Disoy qinche littlecar3370 TW-KUMA01

[Difficulty]
HPDrainRate:6
CircleSize:4
OverallDifficulty:6
ApproachRate:7
SliderMultiplier:1.4
SliderTickRate:1

[Events]
//Background and Video events
0,0,"BG.jpg"
//Break Periods
2,117501,130947
2,175683,189128
//Storyboard Layer 0 (Background)
//Storyboard Layer 1 (Fail)
//Storyboard Layer 2 (Pass)
//Storyboard Layer 3 (Foreground)
Sprite,Foreground,Centre,"SB\BG Effect2.jpg",320,240 F,0,15426,15483,0,0.6 F,0,15483,15938,0.6,0 F,0,16335,16392,0,0.6 F,0,16392,16847,0.6,0 F,0,17244,17301,0,0.6 F,0,17301,17756,0.6,0 F,0,18153,18210,0,0.6 F,0,18210,18665,0.6,0 F,0,19063,19119,0,0.6 F,0,19119,19574,0.6,0 F,0,19972,20028,0,0.6 F,0,20028,20483,0.6,0 F,0,20881,20938,0,0.6 F,0,20938,21392,0.6,0 F,0,21790,21847,0,0.6 F,0,21847,22301,0.6,0 F,0,22699,22756,0,0.6 F,0,22756,23210,0.6,0 F,0,23608,23665,0,0.6 F,0,23665,24119,0.6,0 F,0,24517,24574,0,0.6 F,0,24574,25028,0.6,0 F,0,25426,25483,0,0.6 F,0,25483,25938,0.6,0 F,0,26335,26392,0,0.6 F,0,26392,26847,0.6,0 F,0,27244,27301,0,0.6 F,0,27301,27756,0.6,0 F,0,28210,29972,0,1 F,0,29972,30028,1,0 F,0,211790,211847,0,1 F,0,211847,212244,1,0 F,0,212244,212301,0,1 F,0,212301,212699,1,0 F,0,212699,212756,0,1 F,0,212756,213153,1,0 F,0,213153,213210,0,1 F,0,213210,213608,1,0 F,0,213608,213665,0,1 F,0,213665,214063,1,0 F,0,214063,214119,0,1 F,0,214119,214517,1,0 F,0,214517,214574,0,1 F,0,214574,214972,1,0 F,0,214972,215028,0,1 F,0,215028,215426,1,0 F,0,215426,215483,0,1 F,0,215483,215881,1,0 F,0,215881,215938,0,1 F,0,215938,216335,1,0 F,0,216335,216392,0,1 F,0,216392,216790,1,0 F,0,216790,216847,0,1 F,0,216847,217244,1,0
Sprite,Foreground,Centre,"SB\BG Effect.jpg",320,240 F,0,30085,44574,0.6 F,0,44574,46392,0.6,0 F,0,117358,146392,0.6 F,0,146392,146449,0.6,0 F,0,175540,204574,0.6
Sprite,Foreground,Centre,"SB\Black.jpg",320,240 F,0,30938,31847,0,0.7 F,0,31847,57301,0.7 F,0,57301,59119,0.7,0 F,0,173665,175028,0,1 F,0,175028,175483,1 F,0,175483,175540,1,0 F,0,200938,202756,0,1 F,0,202756,204574,1,0.7 F,0,204574,217301,0.7 F,0,217301,218210,0.7,0
Sprite,Foreground,Centre,"SB\Yellow Light.png",320,240 F,0,30085,57301,1 R,0,30085,59119,-10,-11.13632 F,0,57301,58210,1,0
Sprite,Foreground,Centre,"SB\BG Effect3.png",320,240 F,0,204119,205028,0,1 F,0,205028,219119,1
Sprite,Foreground,Centre,"SB\White Effect.png",320,240 F,0,28210,29972,0,0.6 S,0,28210,30028,1,1.286975 F,0,29972,30028,0.6,0 F,0,30028,37415,0 F,0,37415,57301,0 F,0,57301,59063,0,0.6 F,0,59063,59119,0.6,0 F,0,73210,73665,0,0.6 S,0,73210,73665,1,1.286975 F,0,73665,73722,0.6,0.7 S,0,73665,73722,1.286975,2.29822 F,0,73722,74574,0.7,0 S,0,73722,74574,2.29822,1.286975 F,0,86392,88210,0,1 F,0,88210,88267,1,0 F,0,115483,117301,0,1 F,0,117301,117358,1,0 F,0,144574,146392,0,0.7 F,0,146392,146449,0.7,0 F,0,160028,160881,0,0.7 S,0,160028,160881,0.959295,1.276735 F,0,160881,160938,0.7,1 S,0,160881,160938,1.276735,2.003775 F,0,160938,162301,1,0 S,0,160938,162301,2.003775,1.286975 F,0,217301,219119,0,1 F,0,219119,219176,1,0 F,0,231847,233608,0,0.7 F,0,233608,233665,0.7,1
Sprite,Foreground,Centre,"SB\White.jpg",320,240 F,0,29119,29972,0,0.3 F,0,29972,30028,0.3,1 F,0,30028,30938,1,0 F,0,58210,59063,0,0.4 F,0,59063,59119,0.4,1 F,0,59119,60483,1,0 F,0,87301,88153,0,0.4 F,0,88153,88210,0.4,1 F,0,88210,89574,1,0 F,0,116392,117244,0,0.3 F,0,117244,117301,0.3,1 F,0,117301,118665,1,0 F,0,145483,146335,0,0.3 F,0,146335,146392,0.3,1 F,0,146392,147756,1,0 F,0,175483,176847,1,0 F,0,218210,219063,0,0.6 F,0,219063,219119,0.6,1 F,0,219119,220483,1,0 F,0,232756,233608,0,0.6 F,0,233608,233665,0.6,1 F,0,233665,235028,1,0
Sprite,Foreground,Centre,"SB\wave.png",320,240 M,0,88210,117301,573,353,77,353 F,0,88210,117301,1 F,0,117301,117358,1,0 M,0,219119,233665,571,353,273,353 F,0,219119,233665,1 F,0,233665,233722,1,0
Sprite,Foreground,Centre,"SB\01.png",320,240 F,0,256,938,0,1 M,0,256,15256,284,335,336,335 F,0,938,14574,1 F,0,14574,15256,1,0 F,0,14574,15256,1,0 F,0,88210,89574,0,1 M,0,88210,102528,282,335,333,335 F,0,89574,101847,1 F,0,101847,102528,1,0
Sprite,Foreground,Centre,"SB\02.png",320,240 F,0,7983,8665,0,1 M,0,7983,15256,393,389,353,390 F,0,8665,14574,1 F,0,14574,15256,1,0 F,0,95256,95938,0,1 M,0,95256,102528,418,389,393,389 F,0,95938,101847,1 F,0,101847,102528,1,0
Sprite,Foreground,Centre,"SB\03.png",320,240 F,0,15256,15938,0,1 M,0,15256,29801,250,335,317,335 F,0,15938,29119,1 F,0,29119,29801,1,0 F,0,102528,103210,0,1 M,0,102528,117074,250,335,306,335 F,0,103210,116392,1 F,0,116392,117074,1,0
Sprite,Foreground,Centre,"SB\04.png",320,240 F,0,22528,23210,0,1 M,0,22528,29801,384,390,349,390 F,0,23210,29119,1 F,0,29119,29801,1,0 F,0,109801,110483,0,1 M,0,109801,117074,384,390,347,390 F,0,110483,116392,1 F,0,116392,117074,1,0
Sprite,Foreground,Centre,"SB\05.png",320,240 F,0,59347,60028,0,1 M,0,59347,73438,267,335,311,335 F,0,60028,72756,1 F,0,72756,,1 F,0,72756,73438,1,0
Sprite,Foreground,Centre,"SB\06.png",320,240 F,0,66619,67301,0,1 M,0,66619,73438,366,388,335,388 F,0,67301,72756,1 F,0,72756,73438,1,0
Sprite,Foreground,Centre,"SB\07.png",320,240 F,0,73892,74574,0,1 M,0,73892,87528,251,335,317,335 F,0,74574,86847,1 F,0,86847,87528,1,0
Sprite,Foreground,Centre,"SB\08.png",320,240 F,0,81165,81847,0,1 M,0,81165,87528,425,389,385,389 F,0,81847,86847,1 F,0,86847,87528,1,0
Sprite,Foreground,Centre,"SB\09.png",320,240 F,0,146619,147074,0,1 M,0,146619,160710,216,339,320,339 F,0,147074,160028,1 F,0,160028,160710,1,0
Sprite,Foreground,Centre,"SB\10 lyric.png",320,240 F,0,153892,154574,0,1 M,0,153892,160710,409,395,380,395 F,0,154574,160028,1 F,0,160028,160710,1,0
Sprite,Foreground,Centre,"SB\11.png",320,240 F,0,161165,161847,0,1 M,0,161165,174574,268,340,334,340 F,0,161847,173665,1 F,0,173665,174574,1,0
Sprite,Foreground,Centre,"SB\12.png",320,240 F,0,168438,169119,0,1 M,0,168438,174574,384,395,356,395 F,0,169119,173665,1 F,0,173665,174574,1,0
Sprite,Foreground,Centre,"SB\Ring.png",320,240 F,0,202756,202813,0,1 S,0,202756,204119,0.1,2.135876 F,0,202813,204119,1,0
Sprite,Foreground,Centre,"SB\13.png",320,240 F,0,203892,204574,0,1 M,0,203892,218210,252,340,317,340 F,0,204574,217301,1 F,0,217301,218210,1,0
Sprite,Foreground,Centre,"SB\14.png",320,240 F,0,211619,212301,0,1 M,0,211619,218210,408,395,362,395 F,0,212301,217301,1 F,0,217301,218210,1,0
Sprite,Foreground,Centre,"SB\15.png",320,240 F,0,219347,220483,0,1 M,0,219347,233210,259,331,312,331 F,0,220483,231847,1 F,0,231847,233210,1,0
Sprite,Foreground,Centre,"SB\16.png",320,240 F,0,226165,226847,0,1 M,0,226165,233210,415,386,373,386 F,0,226847,231847,1 F,0,231847,233210,1,0
Animation,Foreground,Centre,"SB\Title\t.png",320,240,21,60,LoopForever F,0,36165,37415,1 S,0,36165,37415,1.122989
Sprite,Foreground,Centre,"SB\Title\t20.png",320,240 F,0,37415,42756,1 S,0,37415,44574,1.122989 F,0,42756,44574,1,0
Sprite,Foreground,Centre,"SB\Riguru.png",320,240 S,0,31847,,0.6173665 M,0,31847,32528,703,97,481,132 M,0,32528,33210,481,132,470,146 M,0,33210,33665,470,146,452,134 M,0,33665,34347,452,134,558,213 P,0,33665,35483,H M,0,34347,35483,558,213,571,196 M,0,35483,36392,571,196,359,249 M,0,36392,37301,359,249,97,223 M,0,37301,,97,223 M,0,37301,39119,97,223,77,225 M,0,39119,39574,77,225,174,323 P,0,39119,42756,H M,0,39574,40028,174,323,303,288 M,0,40028,40938,303,288,445,141 M,0,40938,41847,445,141,716,-16
//Storyboard Sound Samples
//Background Colour Transformations
3,100,163,162,255

[TimingPoints]
938,454.545454545455,4,2,1,52,1,0
15483,-100,4,2,1,80,0,0
57301,-100,4,1,0,41,0,0
59119,-100,4,2,1,41,0,0
86619,-100,4,1,0,35,0,0
88210,-100,4,2,1,65,0,1
115483,-100,4,2,1,41,0,0
144574,-100,4,1,0,41,0,0
146392,-100,4,2,1,60,0,0
173892,-100,4,1,0,41,0,0
174347,-100,4,1,0,49,0,0
175028,-100,4,1,0,59,0,0
175483,-100,4,2,0,71,0,0
217415,-100,4,1,0,41,0,0
217983,-100,4,1,0,51,0,0
218438,-100,4,1,0,60,0,0
218892,-100,4,1,0,70,0,0
219119,-100,4,2,1,47,0,0

[Colours]
Combo1 : 244,230,159
Combo2 : 152,206,79
Combo3 : 207,233,222
Combo4 : 137,60,46

[HitObjects]
96,112,483,1,0
96,112,710,1,0
96,112,938,2,0,B|160:152|240:136,1,140,6|0
296,192,1619,1,0
360,136,1847,2,0,B|400:200|392:296,1,140,2|0
232,272,2756,6,0,B|160:240|64:264,1,140,2|0
64,180,3437,1,0
96,104,3665,2,0,B|139:121|235:105,1,140,2|0
400,56,4574,6,0,B|376:120|408:216,1,140,2|0
336,248,5256,1,0
256,232,5483,2,0,B|160:232,1,70,2|0
240,144,5938,2,0,B|312:144,1,70,0|0
368,80,6392,5,2
496,192,6847,1,0
392,320,7301,1,2
312,296,7528,1,0
240,336,7756,2,0,B|168:336|96:280,1,140,0|2
72,120,8665,5,0
136,64,8892,1,0
200,120,9119,2,0,B|256:152|352:144,1,140,2|0
296,312,10028,5,2
232,264,10256,1,0
152,272,10483,1,0
96,208,10710,1,0
96,208,10938,2,0,B|104:112|176:80|248:72,1,210,2|0
296,128,11847,5,2
368,168,12074,1,0
320,240,12301,2,0,B|320:304|336:320,2,70,0|0|2
240,264,12983,1,0
160,232,13210,2,0,B|112:208|88:168,1,70
256,192,13665,12,2,15028
216,144,15483,5,4
216,144,15938,2,0,B|136:144,1,70,8|0
72,192,16392,1,2
184,312,16847,5,8
264,344,17074,1,0
328,296,17301,2,0,B|336:232|360:160,1,140,2|8
296,104,17983,1,0
232,56,18210,2,0,B|152:84|136:160,1,140,2|8
224,296,19119,5,2
224,296,19574,2,0,B|192:192|208:128,1,140,8|2
256,80,20256,1,0
336,104,20483,1,8
256,80,20710,1,0
208,152,20938,2,0,B|80:264,2,140,2|8|2
232,232,22074,1,0
304,272,22301,1,8
432,160,22756,5,0
432,160,23210,1,8
368,104,23438,1,0
296,144,23665,2,0,B|248:192|144:184,1,140,2|8
80,328,24574,5,0
80,328,25028,1,8
152,280,25256,1,0
224,328,25483,2,0,B|320:344|368:320,1,140,2|8
384,152,26392,6,0,B|336:88,1,70
264,128,26847,1,8
170,96,27074,2,0,B|128:152,1,70
64,208,27528,1,0
128,264,27756,2,0,B|184:320|272:328,1,140,8|0
376,208,28665,5,8
336,136,28892,2,0,B|304:88|272:72,1,70
208,104,29347,1,0
256,176,29574,2,0,B|208:232|128:232,1,140,8|4
264,336,30483,5,8
344,304,30710,1,0
336,224,30938,2,0,B|360:184|400:144,1,70
344,96,31392,2,0,B|312:144|288:152,1,70,8|0
224,112,31847,1,0
224,112,32301,1,8
224,112,32528,2,0,B|149:118|64:176,1,140
80,240,33210,1,8
240,296,33665,6,0,B|320:328|384:296,1,140,0|8
424,224,34347,1,0
344,192,34574,2,0,B|304:160|272:152,2,70,0|0|8
424,224,35256,1,0
472,160,35483,1,0
432,88,35710,1,0
352,112,35938,2,0,B|288:80|184:88,1,140,8|0
72,176,36847,5,8
72,176,37301,2,0,B|96:240|192:264,1,140,0|8
256,224,37983,1,0
328,272,38210,2,0,B|424:272,1,70
456,208,38665,1,8
408,136,38892,1,0
408,136,39006,1,0
408,136,39119,2,0,B|360:72|264:48,1,140,0|8
136,120,40028,5,0
200,168,40256,2,0,B|200:264,1,70,0|8
128,280,40710,1,0
200,328,40938,1,0
272,288,41165,1,0
344,328,41392,2,0,B|400:264|408:176,1,140,8|0
256,128,42301,1,8
112,216,42756,6,0,B|152:280|232:304,1,140,0|8
280,240,43438,1,0
360,248,43665,2,0,B|384:184|376:104,1,140,0|8
224,48,44574,5,0
224,48,45028,2,0,B|136:80|104:144,1,140,8|0
176,184,45710,1,0
144,264,45938,1,8
176,184,46165,1,0
256,200,46392,2,0,B|344:232,2,70,0|0|8
312,136,47074,1,0
472,176,47528,5,0
424,248,47756,2,0,B|360:328|280:336,1,140,8|0
232,304,48438,1,0
208,224,48665,2,0,B|136:216|88:136,1,140,8|0
248,72,49574,5,8
408,112,50028,1,0
384,192,50256,1,0
304,208,50483,2,0,B|248:256|240:280,2,70,8|0|0
240,152,51165,1,0
256,72,51392,1,8
336,48,51619,1,0
400,96,51847,2,0,B|448:152|464:232,1,140,0|8
392,264,52528,5,0
320,304,52756,2,0,B|240:304|184:256,1,140,0|8
112,224,53438,1,0
144,144,53665,2,0,B|184:80|256:48,1,140,0|8
320,88,54347,1,0
360,160,54574,1,0
432,144,54801,1,0
360,160,55028,2,0,B|320:232,1,70,8|0
256,264,55483,5,0
176,232,55710,1,0
96,224,55938,2,0,B|40:176|32:96,1,140,8|0
192,56,56847,1,8
352,96,57301,6,0,B|400:96,4,35
296,160,57983,2,0,B|232:160,4,35
352,224,58665,1,0
200,288,59119,1,4
104,152,59574,6,0,B|144:96|232:80,1,140,2|0
384,136,60483,2,2,B|328:184|248:192,1,140,10|0
176,224,61165,1,0
184,304,61392,1,10
256,344,61619,1,2
336,312,61847,2,0,B|408:272|416:184,1,140,2|8
352,144,62528,2,0,B|312:88|232:56,1,140
168,96,63210,5,8
168,96,63665,2,0,B|129:169|144:256,1,140,2|8
216,200,64347,2,0,B|224:256|192:336,1,140
112,352,65028,1,10
280,352,65483,5,2
352,312,65710,1,0
376,232,65938,1,8
328,160,66165,1,2
328,160,66278,2,0,B|376:56,1,105,0|0
300,48,66847,6,0,B|228:64|180:124,1,140,8|0
264,264,67756,1,8
184,240,67984,2,0,B|172:308|120:368,1,140,0|0
96,288,68665,5,8
144,128,69119,1,0
312,120,69574,1,8
256,192,69801,12,0,70938
256,116,71165,5,2
196,176,71392,1,2
256,232,71619,1,2
256,232,72074,2,2,B|276:288|376:312,1,140
388,228,72756,2,0,B|392:108,2,105,2|0|2
316,188,73665,1,4
180,88,74119,6,0,B|96:116|96:212,1,140,8|0
172,232,74801,1,0
232,172,75028,2,0,B|284:228|252:332,1,140,8|0
328,340,75710,2,0,B|384:288|488:320,1,140
428,236,76392,1,0
456,156,76619,1,0
384,112,76847,2,0,B|320:68,2,70,8|0|0
220,80,77756,5,8
52,76,78210,1,2
136,120,78438,1,0
104,208,78665,2,0,B|104:276|184:344,1,140,8|0
212,248,79347,2,0,B|284:260|368:212,1,140
420,180,80028,1,2
500,148,80256,1,0
424,112,80483,1,10
348,76,80710,2,0,B|292:48|212:96,1,140
264,164,81392,6,8,B|264:304,1,140,8|2
188,268,82074,1,2
148,192,82301,2,0,B|148:40,1,140,8|0
228,84,82983,1,2
304,44,83210,2,2,B|396:44,1,70,10|0
416,116,83665,2,0,B|456:192|448:276,1,140,0|8
368,224,84347,1,0
284,240,84574,2,0,B|218:266|128:240,1,140,0|8
92,84,85483,5,0
164,44,85710,2,0,B|256:48,1,70,0|8
292,108,86165,1,0
368,72,86392,1,0
396,152,86619,6,0,B|452:188,4,35,0|0|0|0|0
348,220,87301,2,0,B|312:256,4,35,0|0|0|0|0
264,204,87983,1,0
196,252,88210,6,8,B|116:260|64:172,1,140,4|8
84,108,88892,1,0
156,68,89119,1,0
324,72,89574,1,8
248,220,90028,6,0,B|222:280|254:356,1,140,0|8
320,300,90710,1,0
336,216,90938,2,0,B|352:156|316:56,1,140,0|8
156,104,91847,6,0,B|140:152|152:188,1,70
232,156,92301,2,0,B|236:200|224:240,1,70,8|0
144,240,92756,1,0
192,308,92983,1,0
276,308,93210,1,8
324,240,93438,1,0
324,240,93665,2,0,B|338:176|320:88,2,140,0|8|0
408,244,94801,1,0
456,176,95028,1,8
316,84,95483,6,0,B|272:60|200:120|156:64,1,140,0|8
96,92,96165,1,0
120,172,96392,2,0,B|176:208|160:264|196:304,1,140,0|8
356,296,97301,5,0
376,216,97528,1,0
304,172,97756,2,0,B|313:127|292:76,1,70,8|0
220,76,98210,2,0,B|180:144|200:240,1,140,0|8
348,284,99119,6,0,B|432:284,1,70
320,228,99574,2,0,B|252:208,1,70,8|0
348,168,100028,2,0,B|388:108,1,70
304,120,100483,2,0,B|304:28,1,70,8|0
256,192,100938,12,0,102301
248,88,102756,6,0,B|96:88,1,140,4|8
48,148,103438,1,4
116,196,103665,2,0,B|268:196,1,140,0|8
336,220,104347,1,0
416,192,104574,1,0
416,192,105028,2,8,B|440:276,1,70,8|0
372,316,105483,2,0,B|312:356|224:344,1,140,0|8
140,208,106392,6,0,B|104:128|112:68,1,140,0|8
188,108,107074,2,0,B|260:120|328:88,1,140
408,104,107756,1,8
392,188,107983,1,0
320,232,108210,5,0
160,288,108665,1,8
92,136,109119,1,0
92,136,109347,2,0,B|176:136,1,70,0|8
324,96,110028,6,0,B|324:144|388:164|388:232,1,140,0|8
308,252,110710,1,0
236,208,110938,2,0,B|181:208|132:192|113:144,1,140,0|8
284,120,111847,6,0,B|338:119|388:136|406:183,1,140,0|8
332,220,112528,1,0
252,248,112756,2,0,B|180:272|108:244,1,140,0|8
16,108,113665,5,0
84,156,113892,1,0
164,136,114119,1,8
232,188,114347,1,0
308,156,114574,1,0
376,208,114801,1,0
460,216,115028,2,0,B|476:284|476:336,1,105,8|0
256,192,115483,12,4,117301
128,108,131847,5,4
184,44,132074,1,0
252,96,132301,2,0,B|324:124|400:96,1,140,8|0
452,156,132983,1,0
416,232,133210,2,0,B|336:268|308:336,1,140,8|0
240,280,133892,1,0
160,252,134119,2,0,B|68:252,1,70,8|0
260,64,135028,5,8
340,44,135256,1,0
364,124,135483,2,0,B|417:175|436:268,2,140,0|8|0
284,144,136619,1,0
204,124,136847,2,0,B|144:200|144:276,1,140,8|0
308,296,137756,5,8
372,240,137983,1,0
324,172,138210,2,0,B|364:104,2,70,0|0|8
192,68,139119,6,0,B|120:100|104:200,1,140,0|8
192,184,139801,1,0
260,132,140028,2,0,B|292:164|292:268,1,140,0|8
460,272,140938,5,0
372,128,141392,1,8
296,92,141619,1,0
132,132,142074,1,0
92,204,142301,1,8
152,260,142528,1,0
196,188,142756,2,0,B|272:184,2,70,0|0|8
232,112,143438,2,0,B|296:76,2,70
164,60,144119,1,8
184,228,144574,6,0,B|228:204,4,35
120,284,145256,2,0,B|80:264,4,35
196,320,145938,2,0,B|184:368,2,35
268,276,146392,1,4
416,196,146847,6,0,B|438:129|416:44,1,140,8|0
344,96,147528,1,0
328,180,147756,2,0,B|296:256|208:292,1,140,8|0
160,216,148438,1,0
112,288,148665,2,0,B|72:304|16:288,1,70,8|0
80,216,149119,2,0,B|104:144|176:88,2,140,0|8|0
216,120,150483,6,0,B|296:116|376:92,2,140,8|0|8
144,168,151619,1,0
248,296,152074,1,0
328,296,152301,1,8
472,192,152756,2,0,B|396:192,1,70
336,140,153210,2,0,B|256:140,2,70,8|0|0
180,72,154119,6,0,B|136:132,1,70,8|0
196,188,154574,1,0
136,248,154801,1,0
208,292,155028,2,0,B|276:312,1,70,8|0
304,232,155483,2,0,B|376:256,1,70
428,192,155938,6,0,B|400:128|332:80,1,140,8|0
268,128,156619,1,0
196,84,156847,1,8
268,128,157074,2,0,B|232:192|224:272,1,140
308,244,157756,2,0,B|304:304|284:332,1,70,8|0
136,264,158438,5,0
68,216,158665,1,8
100,140,158892,1,0
100,140,159347,2,0,B|166:118|252:144,2,140,0|0|8
100,140,160483,1,8
256,76,160938,5,4
256,76,161392,2,0,B|216:144|224:224,1,140,8|0
304,184,162074,1,0
380,220,162301,1,8
340,292,162528,2,0,B|280:320|232:276|180:304,1,140
120,288,163210,1,8
64,132,163665,2,0,B|40:40,1,70
144,144,164119,2,0,B|175:214|248:248,1,140,8|0
368,136,165028,5,8
368,136,165483,2,0,B|300:160,1,70
264,84,165938,2,0,B|152:124|136:176,1,140,8|0
212,208,166619,1,0
144,256,166847,2,0,B|56:304,2,70,8|0|0
196,324,167528,1,0
280,340,167756,1,8
344,284,167983,1,0
352,200,168210,1,0
280,40,168665,6,0,B|152:60|132:200,1,210,8|0
132,260,169574,1,8
216,248,169801,2,0,B|260:216|264:168,1,70,2|0
192,144,170256,2,0,B|152:116|108:116,1,70,0|8
80,280,170938,6,0,B|124:328|172:256|236:300,1,140,0|8
292,316,171619,2,0,B|392:328|428:244,1,140
372,196,172301,1,8
288,52,172756,1,0
128,100,173210,1,8
232,128,173438,1,0
164,180,173665,5,0
116,252,173892,2,0,B|88:288,4,35
120,292,174460,2,0,B|144:332,4,35
156,300,175028,2,0,B|204:316,3,35
224,288,175483,1,4
168,120,190028,5,4
168,120,190483,2,0,B|244:104|328:112,1,140,8|0
336,192,191165,1,0
292,264,191392,2,0,B|216:264|128:292,1,140,8|0
68,284,192074,1,0
44,204,192301,1,8
104,144,192528,2,0,B|88:88,2,35
188,140,192983,1,0
232,68,193210,1,8
356,184,193665,6,0,B|328:252|232:280,1,140,0|8
244,188,194347,2,0,B|152:228|124:300,1,140
52,276,195028,1,8
92,112,195483,6,0,B|160:64|232:60,1,140,0|8
288,112,196165,1,0
288,112,196619,1,0
364,144,196846,1,8
288,292,197301,6,0,B|224:328|124:296,1,140,0|8
112,232,197983,2,0,B|12:232,2,70
136,152,198665,2,0,B|200:116|300:148,1,140,8|0
428,80,199574,1,8
376,168,199801,1,0
376,168,200256,2,0,B|396:268,1,70,0|8
224,272,200938,6,0,B|148:280|68:216,1,140,0|8
116,152,201619,2,0,B|40:104,1,70
132,80,202074,2,0,B|228:56,1,70,0|8
352,132,202756,6,0,B|373:204|352:284,1,140,0|8
272,256,203438,1,0
272,256,203551,1,0
168,324,203892,1,0
96,280,204119,1,8
88,112,204574,6,0,B|172:68|252:84,1,140,2|0
304,96,205256,1,0
376,140,205483,2,0,B|420:224|404:304,1,140,2|0
240,268,206392,6,0,B|180:248|148:248,1,70,2|0
156,168,206847,2,0,B|88:128,1,70
164,88,207301,2,0,B|220:44|312:72,1,140,2|0
364,224,208210,5,2
208,288,208665,2,0,B|144:228,1,70
232,204,209119,2,0,B|200:132,1,70,2|0
288,128,209574,2,0,B|288:56,1,70
368,80,210028,1,2
472,212,210483,1,0
372,348,210938,2,0,B|272:344,1,70,2|0
284,264,211392,2,0,B|196:264,1,70
156,204,211847,6,0,B|108:144|104:56,1,140,2|0
188,100,212528,1,0
240,164,212756,2,0,B|304:148|376:180,1,140,2|0
276,316,213665,6,0,B|192:336,1,70,2|0
208,248,214119,2,0,B|108:236,1,70
176,164,214574,2,0,B|56:56,1,140,2|0
236,104,215483,5,2
320,104,215710,1,0
276,176,215938,1,2
192,176,216165,1,0
232,248,216392,1,2
316,248,216619,1,0
276,320,216847,1,2
276,320,217301,1,4
184,312,217528,6,0,B|144:292,3,35
148,252,217983,2,0,B|136:204,3,35
164,184,218438,2,0,B|196:144,3,35
228,156,218892,2,0,B|260:148,4,17.5
384,96,219574,5,8
384,96,219801,1,0
384,96,220028,2,0,B|420:152|412:240,1,140,0|8
336,196,220710,1,0
252,180,220938,2,0,B|244:256|276:332,1,140,0|8
352,336,221619,1,0
336,252,221847,2,0,B|260:240|176:264,1,140,0|8
68,152,222756,6,0,B|120:100,1,70
184,156,223210,2,0,B|256:148,1,70,8|0
332,112,223665,1,0
412,140,223892,1,0
364,208,224119,2,0,B|324:292|240:304,1,140,8|0
104,240,225028,5,0
160,80,225483,1,0
240,108,225710,1,0
316,76,225938,1,8
392,224,226392,6,0,B|312:252|284:324,1,140,0|8
352,368,227074,1,0
392,296,227301,2,0,B|316:248|240:264,1,140,0|8
144,140,228210,6,0,B|224:80|300:80,1,140,0|8
344,120,228892,1,0
280,176,229119,2,0,B|210:146|178:82,1,140,0|8
108,236,230028,6,0,B|132:304,1,70
172,192,230483,2,0,B|148:124,1,70,8|0
228,92,230938,1,0
292,144,231165,1,0
300,228,231392,1,8
256,192,231847,12,4,233665
