osu file format v9

[General]
AudioFilename: the glow of a firefly.mp3
AudioLeadIn: 1000
PreviewTime: 88210
Countdown: 0
SampleSet: Soft
StackLeniency: 0.8
Mode: 0
LetterboxInBreaks: 0

[Editor]
Bookmarks: 30028,44574,117301,131847,144574,175483,190028,262756
DistanceSpacing: 1.5
BeatDivisor: 4
GridSize: 8

[Metadata]
Title:The Glow of a Firefly
Artist:3L
Creator:Saten ruiko
Version:Dis
Source:Touhou
Tags:Disoy qinche littlecar3370 TW-KUMA01

[Difficulty]
HPDrainRate:3
CircleSize:3
OverallDifficulty:2
ApproachRate:3
SliderMultiplier:1.2
SliderTickRate:1

[Events]
//Background and Video events
0,0,"bg.jpg"
//Break Periods
2,30228,43134
2,119319,130407
2,132047,143134
2,175683,188588
2,204774,204952
//Storyboard Layer 0 (Background)
//Storyboard Layer 1 (Fail)
//Storyboard Layer 2 (Pass)
//Storyboard Layer 3 (Foreground)
Sprite,Foreground,Centre,"SB\BG Effect2.jpg",320,240 F,0,15426,15483,0,0.6 F,0,15483,15938,0.6,0 F,0,16335,16392,0,0.6 F,0,16392,16847,0.6,0 F,0,17244,17301,0,0.6 F,0,17301,17756,0.6,0 F,0,18153,18210,0,0.6 F,0,18210,18665,0.6,0 F,0,19063,19119,0,0.6 F,0,19119,19574,0.6,0 F,0,19972,20028,0,0.6 F,0,20028,20483,0.6,0 F,0,20881,20938,0,0.6 F,0,20938,21392,0.6,0 F,0,21790,21847,0,0.6 F,0,21847,22301,0.6,0 F,0,22699,22756,0,0.6 F,0,22756,23210,0.6,0 F,0,23608,23665,0,0.6 F,0,23665,24119,0.6,0 F,0,24517,24574,0,0.6 F,0,24574,25028,0.6,0 F,0,25426,25483,0,0.6 F,0,25483,25938,0.6,0 F,0,26335,26392,0,0.6 F,0,26392,26847,0.6,0 F,0,27244,27301,0,0.6 F,0,27301,27756,0.6,0 F,0,28210,29972,0,1 F,0,29972,30028,1,0 F,0,211790,211847,0,1 F,0,211847,212244,1,0 F,0,212244,212301,0,1 F,0,212301,212699,1,0 F,0,212699,212756,0,1 F,0,212756,213153,1,0 F,0,213153,213210,0,1 F,0,213210,213608,1,0 F,0,213608,213665,0,1 F,0,213665,214063,1,0 F,0,214063,214119,0,1 F,0,214119,214517,1,0 F,0,214517,214574,0,1 F,0,214574,214972,1,0 F,0,214972,215028,0,1 F,0,215028,215426,1,0 F,0,215426,215483,0,1 F,0,215483,215881,1,0 F,0,215881,215938,0,1 F,0,215938,216335,1,0 F,0,216335,216392,0,1 F,0,216392,216790,1,0 F,0,216790,216847,0,1 F,0,216847,217244,1,0
Sprite,Foreground,Centre,"SB\BG Effect.jpg",320,240 F,0,30085,44574,0.6 F,0,44574,46392,0.6,0 F,0,117358,146392,0.6 F,0,146392,146449,0.6,0 F,0,175540,204574,0.6
Sprite,Foreground,Centre,"SB\Black.jpg",320,240 F,0,30938,31847,0,0.7 F,0,31847,57301,0.7 F,0,57301,59119,0.7,0 F,0,173665,175028,0,1 F,0,175028,175483,1 F,0,175483,175540,1,0 F,0,200938,202756,0,1 F,0,202756,204574,1,0.7 F,0,204574,217301,0.7 F,0,217301,218210,0.7,0
Sprite,Foreground,Centre,"SB\Yellow Light.png",320,240 F,0,30085,57301,1 R,0,30085,59119,-10,-11.13632 F,0,57301,58210,1,0
Sprite,Foreground,Centre,"SB\BG Effect3.png",320,240 F,0,204119,205028,0,1 F,0,205028,219119,1
Sprite,Foreground,Centre,"SB\White Effect.png",320,240 F,0,28210,29972,0,0.6 S,0,28210,30028,1,1.286975 F,0,29972,30028,0.6,0 F,0,30028,37415,0 F,0,37415,57301,0 F,0,57301,59063,0,0.6 F,0,59063,59119,0.6,0 F,0,73210,73665,0,0.6 S,0,73210,73665,1,1.286975 F,0,73665,73722,0.6,0.7 S,0,73665,73722,1.286975,2.29822 F,0,73722,74574,0.7,0 S,0,73722,74574,2.29822,1.286975 F,0,86392,88210,0,1 F,0,88210,88267,1,0 F,0,115483,117301,0,1 F,0,117301,117358,1,0 F,0,144574,146392,0,0.7 F,0,146392,146449,0.7,0 F,0,160028,160881,0,0.7 S,0,160028,160881,0.959295,1.276735 F,0,160881,160938,0.7,1 S,0,160881,160938,1.276735,2.003775 F,0,160938,162301,1,0 S,0,160938,162301,2.003775,1.286975 F,0,217301,219119,0,1 F,0,219119,219176,1,0 F,0,231847,233608,0,0.7 F,0,233608,233665,0.7,1
Sprite,Foreground,Centre,"SB\White.jpg",320,240 F,0,29119,29972,0,0.3 F,0,29972,30028,0.3,1 F,0,30028,30938,1,0 F,0,58210,59063,0,0.4 F,0,59063,59119,0.4,1 F,0,59119,60483,1,0 F,0,87301,88153,0,0.4 F,0,88153,88210,0.4,1 F,0,88210,89574,1,0 F,0,116392,117244,0,0.3 F,0,117244,117301,0.3,1 F,0,117301,118665,1,0 F,0,145483,146335,0,0.3 F,0,146335,146392,0.3,1 F,0,146392,147756,1,0 F,0,175483,176847,1,0 F,0,218210,219063,0,0.6 F,0,219063,219119,0.6,1 F,0,219119,220483,1,0 F,0,232756,233608,0,0.6 F,0,233608,233665,0.6,1 F,0,233665,235028,1,0
Sprite,Foreground,Centre,"SB\wave.png",320,240 M,0,88210,117301,573,353,77,353 F,0,88210,117301,1 F,0,117301,117358,1,0 M,0,219119,233665,571,353,273,353 F,0,219119,233665,1 F,0,233665,233722,1,0
Sprite,Foreground,Centre,"SB\01.png",320,240 F,0,256,938,0,1 M,0,256,15256,284,335,336,335 F,0,938,14574,1 F,0,14574,15256,1,0 F,0,14574,15256,1,0 F,0,88210,89574,0,1 M,0,88210,102528,282,335,333,335 F,0,89574,101847,1 F,0,101847,102528,1,0
Sprite,Foreground,Centre,"SB\02.png",320,240 F,0,7983,8665,0,1 M,0,7983,15256,393,389,353,390 F,0,8665,14574,1 F,0,14574,15256,1,0 F,0,95256,95938,0,1 M,0,95256,102528,418,389,393,389 F,0,95938,101847,1 F,0,101847,102528,1,0
Sprite,Foreground,Centre,"SB\03.png",320,240 F,0,15256,15938,0,1 M,0,15256,29801,250,335,317,335 F,0,15938,29119,1 F,0,29119,29801,1,0 F,0,102528,103210,0,1 M,0,102528,117074,250,335,306,335 F,0,103210,116392,1 F,0,116392,117074,1,0
Sprite,Foreground,Centre,"SB\04.png",320,240 F,0,22528,23210,0,1 M,0,22528,29801,384,390,349,390 F,0,23210,29119,1 F,0,29119,29801,1,0 F,0,109801,110483,0,1 M,0,109801,117074,384,390,347,390 F,0,110483,116392,1 F,0,116392,117074,1,0
Sprite,Foreground,Centre,"SB\05.png",320,240 F,0,59347,60028,0,1 M,0,59347,73438,267,335,311,335 F,0,60028,72756,1 F,0,72756,,1 F,0,72756,73438,1,0
Sprite,Foreground,Centre,"SB\06.png",320,240 F,0,66619,67301,0,1 M,0,66619,73438,366,388,335,388 F,0,67301,72756,1 F,0,72756,73438,1,0
Sprite,Foreground,Centre,"SB\07.png",320,240 F,0,73892,74574,0,1 M,0,73892,87528,251,335,317,335 F,0,74574,86847,1 F,0,86847,87528,1,0
Sprite,Foreground,Centre,"SB\08.png",320,240 F,0,81165,81847,0,1 M,0,81165,87528,425,389,385,389 F,0,81847,86847,1 F,0,86847,87528,1,0
Sprite,Foreground,Centre,"SB\09.png",320,240 F,0,146619,147074,0,1 M,0,146619,160710,216,339,320,339 F,0,147074,160028,1 F,0,160028,160710,1,0
Sprite,Foreground,Centre,"SB\10 lyric.png",320,240 F,0,153892,154574,0,1 M,0,153892,160710,409,395,380,395 F,0,154574,160028,1 F,0,160028,160710,1,0
Sprite,Foreground,Centre,"SB\11.png",320,240 F,0,161165,161847,0,1 M,0,161165,174574,268,340,334,340 F,0,161847,173665,1 F,0,173665,174574,1,0
Sprite,Foreground,Centre,"SB\12.png",320,240 F,0,168438,169119,0,1 M,0,168438,174574,384,395,356,395 F,0,169119,173665,1 F,0,173665,174574,1,0
Sprite,Foreground,Centre,"SB\Ring.png",320,240 F,0,202756,202813,0,1 S,0,202756,204119,0.1,2.135876 F,0,202813,204119,1,0
Sprite,Foreground,Centre,"SB\13.png",320,240 F,0,203892,204574,0,1 M,0,203892,218210,252,340,317,340 F,0,204574,217301,1 F,0,217301,218210,1,0
Sprite,Foreground,Centre,"SB\14.png",320,240 F,0,211619,212301,0,1 M,0,211619,218210,408,395,362,395 F,0,212301,217301,1 F,0,217301,218210,1,0
Sprite,Foreground,Centre,"SB\15.png",320,240 F,0,219347,220483,0,1 M,0,219347,233210,259,331,312,331 F,0,220483,231847,1 F,0,231847,233210,1,0
Sprite,Foreground,Centre,"SB\16.png",320,240 F,0,226165,226847,0,1 M,0,226165,233210,415,386,373,386 F,0,226847,231847,1 F,0,231847,233210,1,0
Animation,Foreground,Centre,"SB\Title\t.png",320,240,21,60,LoopForever F,0,36165,37415,1 S,0,36165,37415,1.122989
Sprite,Foreground,Centre,"SB\Title\t20.png",320,240 F,0,37415,42756,1 S,0,37415,44574,1.122989 F,0,42756,44574,1,0
Sprite,Foreground,Centre,"SB\Riguru.png",320,240 S,0,31847,,0.6173665 M,0,31847,32528,703,97,481,132 M,0,32528,33210,481,132,470,146 M,0,33210,33665,470,146,452,134 M,0,33665,34347,452,134,558,213 P,0,33665,35483,H M,0,34347,35483,558,213,571,196 M,0,35483,36392,571,196,359,249 M,0,36392,37301,359,249,97,223 M,0,37301,,97,223 M,0,37301,39119,97,223,77,225 M,0,39119,39574,77,225,174,323 P,0,39119,42756,H M,0,39574,40028,174,323,303,288 M,0,40028,40938,303,288,445,141 M,0,40938,41847,445,141,716,-16
//Storyboard Sound Samples
//Background Colour Transformations
3,100,163,162,255

[TimingPoints]
938,454.545454545455,4,2,1,60,1,0
15483,-100,4,2,1,70,0,0
28977,-100,4,2,1,30,0,0
29435,-100,4,2,1,70,0,0
44574,-100,4,2,1,55,0,0
88210,-100,4,2,1,70,0,1
117301,-100,4,2,1,90,0,0
131847,-100,4,2,1,50,0,0
146392,-125,4,2,1,50,0,0
146847,-100,4,2,1,50,0,0
190028,-100,4,2,1,55,0,0
204574,-100,4,2,1,40,0,0
211847,-100,4,2,1,65,0,0
219119,-100,4,2,1,50,0,1
233665,-100,4,2,1,40,0,0

[Colours]
Combo1 : 244,230,159
Combo2 : 152,206,79
Combo3 : 207,233,222
Combo4 : 137,60,46

[HitObjects]
256,192,938,1,4
424,168,1392,2,0,B|432:208|424:240,2,60,2|0|2
256,192,2756,5,0
88,216,3210,2,0,B|80:176|88:144,2,60,2|0|2
256,320,4574,6,0,B|296:328|352:320|376:272,1,120,0|2
296,240,5256,1,0
216,248,5483,2,0,B|160:288|184:368,1,120,0|2
144,192,6392,2,0,B|192:144|264:168,1,120,0|2
408,216,7301,2,0,B|360:264|288:240,1,120,0|2
184,104,8210,6,0,B|224:72|280:72|320:104,1,120,0|2
297,89,9119,1,0
328,280,10028,6,0,B|288:312|232:312|192:280,1,120,0|2
214,294,10937,1,0
72,192,11847,6,0,B|112:192|176:168|192:128,1,120,0|2
120,88,12528,1,0
200,64,12756,2,0,B|272:80|272:168,1,120,0|2
256,192,13665,12,4,15483
256,112,15938,5,8
104,192,16392,1,2
256,272,16847,2,0,B|256:352,2,60,8|0|2
400,192,17756,5,8
232,184,18210,2,0,B|152:200|168:288,1,120,2|8
312,192,19119,2,0,B|312:112|224:104,1,120,2|8
160,104,19801,1,0
136,184,20028,2,0,B|64:160|80:72,2,120,2|8|2
256,304,21392,5,8
256,136,21847,2,0,B|256:208,1,60,2|0
176,176,22301,2,0,B|184:248|152:304,1,120,8|0
157,292,23210,1,8
304,216,23665,2,0,B|368:176|432:176,1,120,2|8
256,136,24574,6,0,B|200:184|224:264,1,120,2|8
219,243,25256,1,0
128,224,25483,1,2
128,224,25938,2,0,B|128:256|72:296|72:336,3,120,8|2|8|2
160,336,27528,1,0
160,336,27756,1,8
256,192,28210,12,4,30028
176,184,44574,6,0,B|240:160|232:72,1,120,4|8
336,200,45483,2,0,B|272:224|280:312,1,120,2|8
368,280,46165,1,0
424,208,46392,2,0,B|432:144|368:112,1,120,2|8
280,120,47074,2,0,B|152:120,1,120,0|2
88,176,47756,6,0,B|128:232|96:288,2,120,8|2|8
88,176,48892,1,0
80,88,49119,2,0,B|160:88|176:160,1,120,2|8
352,192,50028,5,2
352,192,50483,2,0,B|288:192,1,60,8|0
128,128,51165,2,0,B|60:128,1,60,2|8
247,142,51847,6,0,B|311:150|359:198,1,120,2|8
232,328,52756,2,0,B|168:320|120:272,2,120,2|8|2
320,328,53892,1,0
408,304,54119,2,0,B|384:240|312:240,1,120,8|2
224,240,54801,1,0
240,152,55028,2,0,B|160:152|136:224,2,120,8|2|8
312,208,56165,2,0,B|384:208,1,60,0|2
372,208,56847,1,8
256,192,57301,12,4,59119
256,192,59574,5,8
432,192,60028,1,2
280,104,60483,2,0,B|320:120|344:160,1,60,8|0
200,264,61165,2,0,B|176:301|184:333,1,60,0|8
360,312,61847,2,0,B|384:264|368:176,1,120,2|8
248,56,62756,6,0,B|272:104|256:192,1,120,2|8
168,176,63438,1,0
96,224,63665,2,0,B|64:168|104:112,1,120,2|8
168,176,64347,2,0,B|200:216|240:232|280:240,1,120,0|2
360,240,65028,1,8
240,104,65483,2,0,B|320:104,3,60,2|0|8|0
72,248,66847,6,0,B|128:200|184:248,2,120,8|2|8
128,320,67983,1,0
368,192,68665,2,0,B|328:224|304:224,1,60,8|0
240,264,69119,2,0,B|208:312|216:344,1,60,2|0
304,344,69574,2,0,B|384:352|400:256,1,120,8|2
256,168,70483,5,8
152,320,70938,2,0,B|80:320,2,60,2|0|8
208,248,71619,2,0,B|280:248|280:248|328:288|328:288|392:288,1,180,2|8
440,224,72528,1,0
408,136,72756,2,0,B|368:152|352:200,1,60,2|0
280,152,73210,2,0,B|224:120|240:40,1,120,8|4
128,192,74119,5,8
256,320,74574,2,0,B|328:320|368:264,1,120,2|8
320,192,75256,2,0,B|392:168|464:224|448:288,1,180,0|8
360,120,76392,6,0,B|288:88|240:152,1,120,2|8
136,280,77301,1,2
128,192,77528,1,0
208,224,77756,2,0,B|280:256|328:192,1,120,8|2
317,204,78665,1,8
192,312,79119,6,0,B|120:296|120:216,1,120,2|8
248,120,80028,2,0,B|320:136|320:216,1,120,2|8
160,120,80938,5,2
48,264,81392,2,0,B|64:192,1,60,8|0
144,248,81847,2,0,B|144:320|224:352,1,120,2|8
232,256,82528,2,0,B|264:232|352:224|416:264,2,180,2|8|2
216,344,84119,2,0,B|144:328|144:240,1,120,8|2
256,192,85028,12,4,88210
256,192,88665,6,0,B|256:272,1,60,8|0
312,312,89119,2,0,B|256:360|184:304,2,120,2|8|2
256,192,90483,6,0,B|256:112,1,60,8|0
200,72,90937,2,0,B|256:24|328:80,2,120,2|8|2
368,144,92301,2,0,B|416:96,1,60,8|0
456,184,92756,2,0,B|424:240|352:240,1,120,2|8
256,96,93665,5,2
256,272,94119,1,8
136,136,94574,2,0,B|192:184,2,60,2|0|8
256,272,95483,6,0,B|304:320|384:336,1,120,2|8
416,264,96165,1,0
360,192,96392,2,0,B|416:160|480:192,1,120,2|8
320,104,97301,2,0,B|280:120|280:120|248:160|280:216,1,120,2|8
360,192,97983,1,0
440,232,98210,2,0,B|424:272|424:272|384:304|328:272,1,120,2|8
200,192,99119,6,0,B|80:192,3,120,2|8|2|8
256,192,100938,12,4,102756
80,304,103210,5,8
136,232,103438,1,0
194,158,103665,2,0,B|265:126|298:186,1,120,2|8
232,248,104347,1,0
168,312,104574,2,0,B|200:371|274:338,1,120,2|8
352,176,105483,6,0,B|416:296,1,120,2|8
272,160,106392,2,0,B|272:288,2,120,2|8|2
192,120,107528,1,0
160,200,107756,1,8
336,152,108210,2,0,B|392:184|464:176,1,120,2|8
256,168,109119,6,0,B|248:96|320:64,1,120,2|8
136,104,110028,2,0,B|144:176|72:208,1,120,2|8
48,120,110710,1,0
48,120,110938,1,0
224,88,111392,5,8
304,248,111847,2,0,B|296:176|368:144,1,120,2|8
392,232,112529,1,0
392,232,112756,2,0,B|392:248|392:248|416:256|368:256|392:264|392:264|392:360,1,120,2|8
256,216,113665,6,0,B|216:160,2,60,2|0|8
72,208,114574,2,0,B|104:336,1,120,2|8
256,192,115483,12,2,119119
256,192,131847,5,4
256,192,144574,12,4,146392
432,72,146847,6,0,B|400:136|320:128,1,120,8|2
160,96,147756,1,8
120,176,147983,2,0,B|176:232|144:304,1,120,2|2
72,248,148665,1,8
232,160,149119,6,2,B|272:152|272:152|304:104|256:64,2,120,2|8|2
408,192,150483,2,0,B|368:200|368:200|336:248|384:288,1,120,8|2
352,96,151392,2,0,B|432:64,1,60,8|0
256,176,152074,1,2
200,104,152301,1,8
32,40,152756,2,0,B|32:120|112:152,1,120,2|8
256,176,153665,1,2
432,168,154119,6,0,B|432:88|352:56,1,120,8|2
288,72,154801,1,0
344,144,155028,2,0,B|336:248|456:304,1,180,8|2
352,336,155938,2,0,B|304:312|256:304|208:312,2,120,8|2|8
256,192,157301,12,2,159119
256,192,159574,5,8
256,192,160028,2,0,B|328:192,2,60,2|0|8
112,88,160938,2,0,B|168:56|168:56|240:56,1,120,4|8
400,72,161847,2,0,B|344:72|344:72|288:104,1,120,2|8
256,192,162528,1,0
80,208,162983,6,0,B|144:160,1,60,2|8
264,288,163665,2,0,B|336:272|352:200,2,120,2|8|2
256,112,165028,2,0,B|256:184,1,60,8|0
168,168,165483,2,0,B|168:192|168:192|176:200|176:200|160:200|160:200|168:208|168:208|168:272,1,120,2|8
256,248,166165,1,0
424,192,166619,5,2
336,168,166847,1,8
192,64,167301,2,0,B|136:40|72:56,2,120,2|8|2
80,208,168665,1,8
240,296,169119,6,0,B|296:320|360:304,1,120,2|8
368,216,169801,1,0
216,128,170256,2,0,B|168:120|136:136,1,60,2|8
336,112,170938,2,0,B|400:112|400:112|448:144,1,120,2|8
384,200,171619,2,0,B|312:216|296:296|344:352,1,180,2|8
256,192,172756,5,2
408,288,173210,2,0,B|472:264,1,60,8|0
376,112,173892,1,2
296,80,174119,2,0,B|240:128|288:208,2,120,8|2|8
296,80,175483,1,4
96,296,190028,6,0,B|144:256|224:272,1,120,4|8
344,144,190938,2,0,B|296:184|216:168,1,120,2|8
104,48,191847,6,0,B|164:33|229:82,1,120,2|8
168,248,192757,2,0,B|107:262|42:213,1,120,2|8
120,160,193438,1,0
208,168,193665,2,0,B|272:208|248:288,2,120,2|8|2
384,208,195028,6,0,B|320:168|344:88,1,120,8|2
328,288,195938,2,0,B|392:320|464:272,2,120,8|2|8
176,192,197301,6,0,B|224:192|256:144|240:88,1,120,2|8
152,104,197983,1,2
240,264,198438,1,2
320,312,198665,2,0,B|448:312,2,120,8|2|8
320,224,199801,1,2
176,328,200256,5,2
240,264,200483,2,0,B|208:192|280:136,2,120,8|2|8
184,192,201619,1,2
352,136,202074,1,2
440,168,202301,1,8
256,192,202756,12,2,204574
256,192,206392,5,2
256,192,207983,6,0,B|256:272,1,60,0|4
80,224,208665,2,0,B|96:144,1,60,2|0
176,136,209119,2,0,B|208:96|272:88|296:104,3,120,2|0|2|0
256,280,210938,2,0,B|256:216,2,60,2|0|8
416,192,211847,5,2
256,104,212301,1,2
96,192,212756,1,2
256,280,213210,1,8
368,192,213665,5,2
256,104,214119,1,2
144,192,214574,1,2
256,280,215028,1,8
256,192,215256,5,2
256,104,215483,2,0,B|328:112|344:176,2,120,2|2|2
72,104,216847,1,8
256,192,217301,12,4,219119
256,96,219574,5,8
320,160,219801,1,0
232,184,220028,2,0,B|160:216|88:208,1,120,2|8
32,176,220710,1,0
48,264,220938,6,0,B|80:320|160:336,1,120,2|8
232,328,221619,1,0
312,288,221847,2,0,B|272:232|192:248,1,120,2|8
104,96,222756,6,0,B|160:144,1,60,0|2
240,112,223210,2,0,B|288:152|376:128,1,120,8|2
354,133,224119,1,8
256,280,224574,2,0,B|328:248,2,60,2|0|8
88,216,225483,2,0,B|152:248|168:320,1,120,2|8
328,224,226392,6,0,B|264:192|248:120,1,120,4|8
256,48,227074,1,0
176,88,227301,2,0,B|144:152|72:168,1,120,2|8
264,144,228210,6,0,B|312:196|301:269,1,120,2|8
268,334,228892,1,0
357,325,229119,2,0,B|409:276|482:287,1,120,2|8
312,192,230028,5,4
168,80,230483,1,8
128,256,230938,1,2
256,192,231847,12,0,233665
