osu file format v9

[General]
AudioFilename: spring of dreams.mp3
AudioLeadIn: 0
PreviewTime: 214465
Countdown: 0
SampleSet: Soft
StackLeniency: 0.5
Mode: 0
LetterboxInBreaks: 0

[Editor]
Bookmarks: 26444,38993,51542,64091,76640,89189,101738,114287,126836,139385,151934,164483,177032,189581,202130,214679,227228,239777,252326,264875,277424
DistanceSpacing: 0.9
BeatDivisor: 4
GridSize: 8

[Metadata]
Title:Spring of Dreams
Artist:3L
Creator:impossiblexu
Version:Normal
Source:Touhou
Tags:karenying Verdisphena ufo Undefined Fantastic Object nazrin at the end of spring nazurin DJ Command NJK Record TOHO EURO FLASH vol. 1

[Difficulty]
HPDrainRate:2
CircleSize:4
OverallDifficulty:3
ApproachRate:4
SliderMultiplier:1.2
SliderTickRate:1

[Events]
//Background and Video events
0,0,"Nazrin.jpg"
Video,-10050,"Video.avi"
//Break Periods
2,101928,112172
2,177222,186682
//Storyboard Layer 0 (Background)
//Storyboard Layer 1 (Fail)
//Storyboard Layer 2 (Pass)
//Storyboard Layer 3 (Foreground)
//Storyboard Sound Samples
//Background Colour Transformations
3,100,163,162,255

[TimingPoints]
26434,392.156862745098,4,1,0,55,1,0
38786,-100,4,2,0,65,0,0
50649,-100,4,1,0,55,0,0
51434,-100,4,2,0,65,0,0
63198,-100,4,1,0,55,0,0
63983,-100,4,2,0,65,0,0
75747,-100,4,1,0,55,0,0
76581,-100,4,2,0,75,0,0
82071,-100,4,1,0,55,0,0
82806,-100,4,2,0,75,0,0
88296,-100,4,1,0,55,0,0
89081,-100,4,2,0,75,0,0
94620,-100,4,1,0,55,0,0
95355,-100,4,2,0,75,0,0
100894,-100,4,1,0,55,0,0
101630,-100,4,2,0,75,0,0
101924,-100,4,2,0,65,0,0
113296,-100,4,1,0,55,0,0
114081,-100,4,2,0,65,0,0
125943,-100,4,1,0,55,0,0
126728,-100,4,2,0,65,0,0
138492,-100,4,1,0,55,0,0
139326,-100,4,2,0,65,0,0
151041,-100,4,1,0,55,0,0
151826,-100,4,2,0,75,0,0
157365,-100,4,1,0,55,0,0
158100,-100,4,2,0,75,0,0
163590,-100,4,1,0,55,0,0
164375,-100,4,2,0,75,0,0
169914,-100,4,1,0,55,0,0
170698,-100,4,2,0,75,0,0
176139,-100,4,1,0,55,0,0
176924,-100,4,2,0,75,0,0
177218,-100,4,2,0,65,0,0
200355,-100,4,1,0,55,0,0
201924,-100,4,2,0,65,0,0
213835,-100,4,1,0,55,0,0
214571,-100,4,2,0,80,0,0
214669,-100,4,2,0,80,0,1
220110,-100,4,1,0,55,0,1
220845,-100,4,2,0,80,0,1
226384,-100,4,1,0,55,0,1
227120,-100,4,2,0,80,0,0
227218,-100,4,2,0,80,0,1
232659,-100,4,1,0,55,0,1
233394,-100,4,2,0,80,0,1
238934,-100,4,1,0,55,0,1
239669,-100,4,2,0,80,0,1
239767,-100,4,2,0,80,0,0

[Colours]
Combo1 : 81,243,33
Combo2 : 252,86,252
Combo3 : 253,163,28
Combo4 : 43,192,249
Combo5 : 111,26,251

[HitObjects]
108,54,38198,1,0
125,160,38590,1,0
212,96,38983,2,0,B|274:84|270:118|337:107,2,120,4|2|0
257,193,40159,1,2
207,215,40355,1,0
225,265,40551,2,0,B|191:318|114:299,2,120,0|2|0
321,313,41728,1,2
392,228,42120,6,0,B|454:262|510:215,1,120,0|2
418,153,42904,2,0,B|358:118|305:159,1,120,0|2
261,187,43492,1,0
210,167,43688,2,0,B|159:209|94:177,2,120,0|2|0
182,271,44865,1,2
194,323,45061,1,0
247,320,45257,6,0,B|305:291|364:332,1,120,4|2
372,277,45845,2,0,B|432:315|489:279,1,120
454,236,46434,1,2
424,132,46826,2,0,B|363:165|308:117,2,120,0|2|0
361,43,48002,2,0,B|299:21,1,60,2|0
262,57,48394,6,0,B|130:57,1,120,0|2
182,157,49179,2,0,B|62:157,1,120,0|2
24,196,49767,1,0
49,243,49963,2,0,B|8:287|8:287|44:349,1,120,0|2
135,292,50747,2,0,B|197:239,2,60
232,339,51532,6,0,B|284:381|344:349,1,120,4|2
437,294,52316,1,0
370,208,52708,1,2
397,161,52904,1,0
350,132,53100,2,0,B|304:82|344:17,2,120,0|2|0
244,105,54277,1,2
170,184,54669,6,0,B|129:234|50:204,1,120,0|2
125,292,55453,2,0,B|169:243|245:272,1,120,0|2
284,289,56041,1,0
328,258,56237,2,0,B|393:243|387:277|459:263,2,120,0|2|0
383,165,57414,2,0,B|383:95,1,60,2|0
349,62,57806,6,0,B|212:62,2,120,4|2|0
458,71,58983,2,0,B|478:98|457:129,1,60,2|0
490,170,59375,2,0,B|449:221|491:289,2,120,0|2|0
382,162,60551,1,2
360,211,60747,1,0
309,190,60943,6,0,B|265:235|191:204,1,120,0|2
90,224,61728,2,0,B|62:267|62:267|70:272|70:272|35:327,1,120,0|2
91,330,62316,2,0,B|143:374|209:339,1,120
225,289,62904,2,0,B|259:279|257:300|294:289,1,60,2|0
315,247,63296,2,0,B|368:274|368:274|423:242,2,120,0|0|4
366,206,64277,6,0,B|351:178|368:172|356:143,2,60,0|2|0
278,142,65061,2,0,B|263:114|280:108|269:83,2,60,0|2|0
170,131,65845,1,0
126,163,66041,2,0,B|65:168,1,60,2|0
70,221,66433,2,0,B|129:216,1,60,0|0
136,269,66826,1,2
243,260,67218,5,4
281,298,67414,2,0,B|306:321|294:353,2,60,0|2|0
343,210,68198,2,0,B|318:187|330:155,2,60,0|2|0
444,171,68983,1,0
398,141,69179,2,0,B|386:72,1,60,2|0
334,92,69571,2,0,B|322:23,2,60,0|0|2
226,92,70355,5,4
191,133,70551,2,0,B|121:132,1,60,0|2
138,185,70943,2,0,B|15:185,1,120
19,239,71532,1,2
72,239,71728,2,0,B|192:239,1,120
245,240,72316,2,0,B|308:239,1,60,2|0
358,239,72708,2,0,B|422:239,2,60,0|0|2
405,142,73492,5,4
373,97,73688,2,0,B|346:111|316:90,1,60,0|2
272,121,74081,2,0,B|226:82|154:97,1,120
105,106,74669,1,2
85,156,74865,2,0,B|25:186|50:260,1,120
100,274,75453,2,0,B|126:299|114:334,1,60,2|0
169,323,75845,2,0,B|184:353|222:340,2,60,0|2|2
231,234,76630,5,4
149,145,77022,1,8
172,89,77218,1,0
226,113,77414,2,0,B|283:89|287:125|351:100,1,120,0|8
397,128,78002,1,0
406,187,78198,2,0,B|356:231|401:298,2,120,0|8|0
300,244,79375,1,8
276,299,79571,1,0
220,275,79767,6,0,B|179:329|103:296,1,120,0|8
11,233,80551,2,0,B|54:179|128:212,1,120,0|8
149,156,81139,1,0
208,165,81335,2,0,B|267:141|274:177|337:150,1,120,0|8
380,179,81924,1,0
368,237,82120,2,0,B|390:255|379:268|405:284,2,60,0|8|8
255,279,82904,6,0,B|271:312|241:352|194:342|184:313,1,120,4|8
125,316,83492,1,0
110,257,83688,2,0,B|135:248|144:200|106:170|72:187,1,120,0|8
31,144,84277,1,0
56,89,84473,2,0,B|114:65|120:107|188:83,2,120,0|8|0
145,169,85649,1,8
185,213,85845,1,0
233,178,86041,6,0,B|289:221|353:178,1,120,4|8
319,299,86826,2,0,B|369:258|434:290,1,120,0|8
488,269,87414,1,0
472,211,87610,1,4
356,178,88002,1,8
470,141,88394,2,0,B|409:119,1,60,0|8
399,62,88786,2,0,B|338:40,1,60,8|0
291,73,89179,5,4
172,51,89571,1,8
152,107,89767,1,0
92,107,89963,2,0,B|28:133|50:209,1,120,0|8
80,256,90551,1,0
139,245,90747,2,0,B|178:287|135:312|178:363,2,120,0|8|0
222,158,91924,2,0,B|218:174|234:191|258:191|268:175,1,60,8|0
270,119,92316,6,0,B|280:83|321:73|349:106|323:150,1,120,0|8
334,203,92904,1,0
376,245,93100,2,0,B|353:283|381:316|422:306|432:270,1,120,0|8
480,237,93688,1,0
465,178,93884,2,0,B|424:116|478:60,1,120,0|8
421,33,94473,1,0
364,52,94669,2,0,B|339:73|307:51,1,60,0|8
297,111,95061,2,0,B|270:91|241:113,1,60,8|0
235,53,95453,6,0,B|180:89|110:50,1,120,4|8
68,85,96041,1,0
83,142,96237,2,0,B|28:180|61:252,2,120,0|8|0
115,193,97218,2,0,B|146:187|146:204|176:201,2,60,0|8|0
143,140,97806,1,0
244,76,98198,2,0,B|309:64,1,60,8|0
343,109,98590,6,0,B|395:154|466:116,1,120,4|8
464,180,99179,1,0
411,209,99375,2,0,B|356:166|288:196,1,120,0|8
238,203,99963,1,0
206,253,100159,2,0,B|152:277|139:236|82:264,1,120,4|8
36,230,100747,1,0
54,172,100943,2,0,B|64:145|64:145|59:143|59:143|72:109,1,60,0|0
125,137,101335,2,0,B|147:118|147:118|143:114|143:114|172:91,1,60,0|0
207,139,101728,1,4
196,68,113492,6,0,B|255:102|315:63,1,120,0|0
256,160,114277,1,4
188,244,114669,1,2
254,328,115061,2,0,B|311:305,1,60
355,334,115453,2,0,B|412:311,1,60,2|0
459,334,115845,2,0,B|512:290|486:216,2,120,0|2|0
388,251,117022,1,2
358,147,117414,6,0,B|328:150|294:132|280:98|291:59,1,120,0|2
181,64,118198,1,0
109,144,118590,1,2
157,167,118786,1,0
136,217,118983,2,0,B|185:268|152:336,1,120,0|2
243,264,119767,1,0
344,303,120159,2,0,B|327:332|351:359,1,60,2|0
394,327,120551,5,4
449,234,120943,1,2
352,184,121335,1,0
361,76,121728,2,0,B|331:55|345:19,1,60,2|0
290,39,122120,2,0,B|248:84|175:55,2,120,0|2|0
242,135,123296,2,0,B|223:156|237:167|217:187,1,60,2|0
249,230,123688,6,0,B|203:280|242:342,2,120,0|2|0
286,269,124669,2,0,B|356:284,2,60,0|2|0
317,225,125257,2,0,B|356:184|314:163|355:116,1,120,0|2
252,76,126041,2,0,B|227:97|195:79,2,60
223,29,126630,1,0
167,28,126826,6,0,B|113:16|118:51|39:32,1,120,4|2
122,113,127610,1,0
69,206,128002,2,0,B|36:222|47:259,1,60,2|0
99,256,128394,2,0,B|128:319|61:362,2,120,0|2|0
148,159,129571,1,2
237,219,129963,6,0,B|281:273|353:241,1,120,0|2
450,221,130747,2,0,B|410:163|337:184,1,120,0|2
300,151,131335,1,0
296,96,131532,2,0,B|237:106|241:63|172:73,2,120,0|2|0
378,26,132708,1,2
392,78,132904,1,0
445,67,133100,6,0,B|488:117|447:183,1,120,4|2
346,210,133884,2,0,B|291:246|317:319,1,120,0|2
263,329,134473,1,0
228,287,134669,2,0,B|177:310|169:265|105:290,2,120,0|2|0
171,195,135845,2,0,B|237:190,1,60,2|0
227,136,136237,6,0,B|215:16,2,120,0|2|0
277,115,137218,2,0,B|270:51,2,60,0|2|0
328,98,137806,2,0,B|389:135|440:91,1,120,0|2
392,192,138590,2,0,B|329:157|279:207,1,120,0|0
188,257,139375,6,0,B|148:306|70:276,1,120,4|2
33,249,139963,1,0
93,159,140355,1,0
58,117,140551,2,0,B|27:104|38:68,1,60,2|0
136,22,141139,1,0
169,64,141335,2,0,B|236:70,1,60,2|0
252,118,141728,2,0,B|319:124,2,60,0|0|2
170,189,142512,5,4
188,239,142708,2,0,B|162:259|174:298,2,60,0|2|0
294,219,143492,2,0,B|320:199|308:160,2,60,0|2|0
401,206,144277,1,0
426,253,144473,2,0,B|458:247|456:266|489:263,1,60,2|0
488,317,144865,2,0,B|457:333|474:371,2,60,0|0|2
382,339,145649,5,4
332,317,145845,2,0,B|277:337,1,60,0|2
221,338,146237,2,0,B|98:309,1,120
65,272,146826,1,2
98,229,147022,2,0,B|125:112,1,120
177,100,147610,2,0,B|190:36,1,60,2|0
237,64,148002,2,0,B|249:5,2,60,0|0|2
295,159,148786,5,4
321,206,148983,2,0,B|347:191|379:206,1,60,0|2
351,252,149375,2,0,B|299:287|231:251,1,120
187,231,149963,1,2
169,180,150159,2,0,B|109:148|54:181,1,120
26,135,150747,2,0,B|26:63,1,60,2|0
79,74,151139,2,0,B|79:2,2,60,0|2|2
199,69,151924,6,0,B|262:51|262:87|338:67,1,120,4|8
368,102,152512,1,0
378,160,152708,2,0,B|420:207|390:277,1,120,0|8
341,304,153296,1,0
283,287,153492,2,0,B|243:333|167:304,2,120,2|8|0
202,198,154669,2,0,B|172:209|170:187|138:200,1,60,8|0
91,168,155061,6,0,B|49:107|107:53,1,120,4|8
153,30,155649,1,0
202,63,155845,2,0,B|259:104|321:67,1,120,0|8
370,94,156434,1,0
381,152,156630,2,0,B|441:142|439:177|504:168,2,120,2|8|0
348,202,157610,2,0,B|318:206|318:206|319:212|319:212|277:218,2,60,8|8|0
390,244,158198,5,4
309,333,158590,2,0,B|281:310|250:323,1,60,8|0
227,267,158983,2,0,B|161:290|114:231,1,120,0|8
83,188,159571,1,0
113,136,159767,2,0,B|69:83|113:20,2,120,2|8|0
217,76,160943,2,0,B|283:72,1,60,8|0
316,116,161335,6,0,B|368:119|392:107|378:82|353:95|387:154,1,120,4|8
412,203,161924,1,0
374,249,162120,2,0,B|328:258|333:272|325:281|314:280|306:268|256:292,1,120,0|8
203,291,162708,1,0
160,249,162904,2,0,B|108:274|108:274|52:241,2,120,4|8|0
110,207,163884,2,0,B|125:176|101:173|117:142,2,60,8|8|0
167,189,164473,6,0,B|221:159|288:189,1,120,4|8
331,151,165061,1,0
378,186,165257,2,0,B|430:221|491:191,1,120,0|8
503,249,165845,1,0
453,283,166041,2,0,B|416:270|382:292|394:332|435:347,2,120,2|8|0
334,260,167218,2,0,B|336:287|319:287|321:316,1,60,8|0
274,278,167610,6,0,B|233:327|157:297,1,120,4|8
104,302,168198,1,0
81,247,168394,2,0,B|97:189|62:187|79:122,1,120,0|8
113,80,168983,1,0
170,95,169179,2,0,B|213:138|213:138|276:116,1,120,2|8
315,156,169767,1,0
298,213,169963,2,0,B|325:217|325:217|326:227|326:227|358:232,2,60,0|8|8
250,249,170551,1,0
277,302,170747,6,0,B|237:351|167:324,2,120,4|8|0
323,339,171728,1,0
375,310,171924,2,0,B|392:283|432:294,1,60,8|0
479,262,172316,2,0,B|449:194|508:149,2,120,2|8|0
394,176,173492,2,0,B|372:201|336:181,1,60,8|0
283,203,173884,6,0,B|221:175|165:214,1,120,4|8
122,172,174473,1,0
154,121,174669,2,0,B|216:149|272:110,1,120,0|8
311,153,175257,1,0
350,107,175453,2,0,B|408:95|409:131|479:122,1,120,4|8
491,177,176041,1,0
443,213,176237,2,0,B|412:218|412:218|413:252,1,60
368,287,176630,2,0,B|338:275|338:275|322:305,1,60
265,301,177022,1,4
256,192,188002,12,0,189179
102,100,189571,6,0,B|154:146|217:101,1,120,4|2
254,203,190355,2,0,B|306:161|374:197,1,120,0|2
318,290,191139,2,0,B|370:338|432:301,2,120,0|2|0
210,302,192316,1,2
159,283,192512,1,0
136,332,192708,6,0,B|65:307|18:360,2,120,0|2|0
82,238,193884,1,2
150,154,194277,2,0,B|200:115|174:43,1,120,0|2
225,26,194865,2,0,B|282:69|342:28,1,120
336,85,195453,2,0,B|372:80|368:100|404:95,1,60,2|0
399,149,195845,6,0,B|359:208|413:259,2,120,4|2|0
291,136,197022,1,2
229,224,197414,2,0,B|190:270|119:247,1,120,0|2
158,146,198198,1,0
189,43,198590,1,2
254,133,198983,6,0,B|379:116,1,120,0|2
380,170,199571,2,0,B|261:186,1,120
271,239,200159,1,2
167,268,200551,6,0,B|126:261|113:226|136:194|175:201,1,120
255,129,201335,2,0,B|286:105|275:65|240:52|209:80,1,120
101,77,202120,5,4
39,165,202512,1,2
65,211,202708,2,0,B|114:167|186:200,1,120
222,226,203296,1,2
238,277,203492,2,0,B|301:308|363:255,1,120
375,216,204081,2,0,B|403:209|403:209|402:202|402:202|436:196,1,60,2|0
434,145,204473,2,0,B|451:130|451:130|445:124|445:124|467:104,1,60
455,52,204865,1,2
347,40,205257,5,4
309,78,205453,2,0,B|286:103|253:87,1,60,0|2
201,98,205845,1,0
248,194,206237,2,0,B|218:215|232:254,1,60,0|2
198,290,206630,1,0
102,239,207022,2,0,B|72:241|74:259|44:258,2,60,0|2|0
74,192,207610,2,0,B|55:173|76:163|56:137,1,60
106,119,208002,2,0,B|107:47|185:40,1,120,2|4
216,80,208590,6,0,B|250:69|251:88|286:76,2,60,0|2|0
267,175,209375,2,0,B|298:165|297:184|326:173,2,60,0|2|0
329,263,210159,2,0,B|296:281|314:322,2,60,0|2|0
376,237,210747,2,0,B|401:212|437:228,1,60
467,185,211139,1,2
399,100,211532,6,0,B|334:100,1,60,4|0
285,100,211924,2,0,B|220:100,1,60,2|0
282,191,212512,2,0,B|222:191,1,60,0|2
168,192,212904,1,0
224,283,213296,2,0,B|159:283,2,60,0|2|0
277,283,213884,2,0,B|299:283|299:283|299:289|299:289|305:289|305:289|305:283|305:283|329:283,1,60,0|2
362,244,214277,2,0,B|406:244|406:244|406:232|406:232|418:232|418:232|418:244|418:244|466:244,1,120,2|4
481,126,215061,5,8
423,107,215257,1,0
402,162,215453,2,0,B|346:139|343:189|273:159,1,120,0|8
227,140,216041,1,0
179,176,216237,2,0,B|116:197|135:278,1,120,4|8
161,326,216826,1,0
220,317,217022,1,0
339,324,217414,2,0,B|311:297|336:265,1,60,8|0
379,231,217806,6,0,B|333:184|377:117,1,120,4|8
299,27,218590,2,0,B|327:89|278:137,1,120,0|8
222,160,219179,1,0
237,217,219375,2,0,B|230:271|175:257|163:325,2,120,4|8|0
288,247,220355,1,8
335,211,220551,2,0,B|363:231|392:212,1,60,8|0
436,173,220943,5,4
394,60,221335,1,8
352,104,221532,1,0
312,59,221728,2,0,B|254:95|196:53,1,120,0|8
139,60,222316,1,0
121,117,222512,2,0,B|58:96|4:139,2,120,4|8|0
77,234,223688,1,8
68,293,223884,1,0
124,272,224081,6,0,B|183:258|180:294|250:281,1,120,4|8
301,282,224669,1,0
316,223,224865,2,0,B|358:181|378:217|429:167,1,120,0|8
457,122,225453,1,0
413,80,225649,2,0,B|392:101|346:94|330:53|358:22,1,120,4|8
294,26,226237,1,0
269,80,226433,2,0,B|197:87,1,60,0|8
210,145,226826,2,0,B|145:182,1,60,8|0
97,171,227218,6,0,B|33:197|52:273,2,120,4|8|0
62,121,228198,1,0
114,91,228394,2,0,B|142:67|127:34,1,60,8|0
186,24,228786,2,0,B|246:16|237:52|306:46,2,120,4|8|0
196,143,229963,1,8
229,192,230159,1,0
283,167,230355,6,0,B|326:216|395:189,1,120,4|8
474,276,231139,2,0,B|435:323|363:289,1,120,0|8
308,268,231728,1,0
256,298,231924,2,0,B|204:277|196:319|126:294,1,120,4|8
91,259,232512,1,0
92,199,232708,2,0,B|68:181|68:181|73:141,1,60,0|8
117,113,233100,2,0,B|141:131|141:131|136:171,1,60,8|0
174,207,233492,6,0,B|242:182|291:237,2,120,4|8|0
181,147,234473,1,0
237,125,234669,2,0,B|226:98|247:95|236:65,1,60,8|0
286,33,235061,2,0,B|339:76|406:44,2,120,4|8|0
353,131,236237,2,0,B|413:153,1,60,8|0
374,200,236630,6,0,B|382:265|314:295,1,120,4|8
256,300,237218,1,0
210,260,237414,2,0,B|166:306|86:271,1,120,4|8
51,237,238002,1,0
67,179,238198,2,0,B|15:139|45:65,2,120,4|8|0
93,125,239179,1,0
150,108,239375,1,0
204,132,239571,1,0
220,189,239767,1,4
