osu file format v9

[General]
AudioFilename: 3L (NJK Record) Spring of Dreams.mp3
AudioLeadIn: 1500
PreviewTime: -1
Countdown: 1
SampleSet: Soft
StackLeniency: 0.7
Mode: 0
LetterboxInBreaks: 1

[Editor]
DistanceSpacing: 0.9
BeatDivisor: 4
GridSize: 8

[Metadata]
Title:Spring of Dreams
Artist:3L
Creator:Patchouli
Version:Lunatic
Source:Touhou
Tags:NJK Record

[Difficulty]
HPDrainRate:5
CircleSize:4
OverallDifficulty:7
ApproachRate:8
SliderMultiplier:2
SliderTickRate:1

[Events]
//Background and Video events
0,0,"Lunatic.jpg"
//Break Periods
2,102072,112886
2,177366,188965
//Storyboard Layer 0 (Background)
//Storyboard Layer 1 (Fail)
//Storyboard Layer 2 (Pass)
//Storyboard Layer 3 (Foreground)
//Storyboard Sound Samples
//Background Colour Transformations
3,100,163,162,255

[TimingPoints]
1056,352.941176470588,4,2,0,100,1,0
21175,447.761194029851,4,2,0,100,1,0
26578,392.156862745098,4,2,0,100,1,0
64329,-200,4,2,0,100,0,0
67439,-133.333333333333,4,2,0,100,0,0
70574,-100,4,2,0,100,0,0
139565,-200,4,2,0,100,0,0
142701,-133.333333333333,4,2,0,100,0,0
145836,-100,4,2,0,100,0,0

[HitObjects]
80,200,26578,1,0
64,280,26774,2,0,B|120:312|184:264,1,100
240,136,27166,1,0
240,136,27264,2,0,B|152:208,1,100
280,208,27656,1,0
280,208,27754,2,0,B|224:304,1,100
320,136,28146,6,0,B|352:88|424:88,1,100
404,88,28440,1,0
456,152,28636,1,0
416,224,28832,2,0,B|424:280|480:304,2,100
412,204,29323,1,0
404,185,29421,1,0
392,168,29519,1,0
377,153,29617,1,0
360,141,29715,5,0
341,132,29813,1,0
321,128,29911,2,0,B|271:113|212:144,1,100
248,232,30303,1,0
248,232,30401,1,0
168,288,30597,1,0
168,288,30695,1,0
248,336,30891,2,0,B|304:360|352:328,2,100
80,232,31578,6,0,B|56:184|88:136,1,100
240,192,31970,1,0
160,168,32166,1,0
160,168,32264,1,0
200,96,32460,2,0,B|232:48|297:43,2,100
392,168,33048,6,0,B|272:120,2,100
408,200,33538,1,0
392,320,33734,1,0
352,328,33832,2,0,B|296:352|240:304,1,100
256,192,34225,1,0
176,128,34421,6,0,B|136:88|144:32,1,100
368,37,34813,2,0,B|376:88|336:128,1,100
256,72,35205,1,0
232,88,35303,1,0
216,112,35401,1,0
200,200,35597,1,0
248,280,35793,1,0
336,304,35989,6,0,B|408:320|456:280|464:224,1,150
336,184,36578,2,0,B|288:152|288:88|344:40,1,150
448,120,37166,1,0
448,104,37264,1,0
448,88,37362,1,0
256,192,37558,12,0,38342
256,192,38734,5,0
88,136,39127,6,0,B|120:88|176:88,1,100
208,168,39519,1,0
288,216,39715,2,0,B|353:220|381:162,2,100
208,256,40303,5,0
208,72,40499,1,0
280,120,40695,2,0,B|336:152|400:136|440:88,2,150
128,224,41479,1,0
200,280,41676,5,0
196,294,41774,1,0
191,308,41872,2,0,B|255:345|315:299,1,100
276,195,42264,2,0,B|325:167|385:194,1,100
372,188,42558,1,0
312,88,42852,1,0
232,72,43048,5,0
120,120,43244,1,0
104,240,43440,1,0
200,312,43636,2,0,B|256:344|312:336|368:304|376:240,1,200
264,144,44225,2,0,B|312:168|312:232,1,100
232,216,44617,1,0
232,216,45009,5,0
48,288,45205,1,0
80,88,45401,1,0
120,192,45597,1,0
129,178,45695,1,0
143,164,45793,1,0
160,153,45891,1,0
178,146,45989,1,0
232,216,46185,1,0
352,112,46381,6,0,B|304:80|232:104,1,100
255,97,46774,1,0
312,248,46970,2,0,B|360:288|432:264,1,100
392,224,47264,2,0,B|488:192,1,100
484,192,47558,1,0
272,176,47754,1,0
320,112,47950,5,0
329,100,48048,1,0
339,89,48146,2,0,B|453:91,2,100
225,47,48734,1,0
225,47,48832,1,0
164,150,49028,1,0
164,150,49127,2,0,B|200:200|168:248,1,100
104,200,49519,1,0
240,280,49715,1,0
400,288,49911,1,0
400,88,50107,6,0,B|400:192,1,100
296,120,50499,2,0,B|328:224,2,100
176,88,51087,1,0
80,160,51283,2,0,B|56:216|96:264,1,100
240,320,51676,6,0,B|464:320,2,200
376,200,52852,1,0
296,160,53048,1,0
216,208,53244,2,0,B|176:240|104:240|64:192,2,150
152,144,54028,1,0
152,56,54225,6,0,B|152:0,2,50
152,328,54617,1,0
224,280,54813,2,0,B|200:232|128:240,1,100
96,232,55107,2,0,B|104:168|176:144|232:176,1,150
384,112,55597,2,0,B|248:112,1,100
284,112,55989,1,0
24,112,56185,6,0,B|120:40|216:120,1,200
360,208,56774,2,0,B|296:224|248:176,1,100
264,190,57166,1,0
200,248,57362,1,0
112,216,57558,5,0
256,320,57754,1,0
432,272,57950,1,0
344,248,58146,6,0,B|344:136,1,100
168,64,58538,2,0,B|168:176,1,100
240,216,58930,1,0
184,288,59127,2,0,B|128:320|56:288,1,100
87,84,59519,2,0,B|168:64|248:120,2,150
128,192,60303,1,0
224,144,60499,5,0
237,137,60597,1,0
251,132,60695,2,0,B|289:178|266:245,1,100
181,217,61087,2,0,B|162:273|207:327,1,100
240,312,61381,2,0,B|392:312,1,150
240,312,61872,1,0
376,208,62068,1,0
272,72,62264,1,0
136,176,62460,1,0
208,232,62656,5,0
368,144,62852,1,0
288,304,63048,1,0
200,144,63244,1,0
360,232,63440,1,0
200,320,63636,1,0
288,160,63832,1,0
56,48,64028,1,0
56,48,64127,1,0
56,48,64225,1,0
112,120,64421,6,0,B|184:120,2,50
400,264,65205,2,0,B|328:264,2,50
304,152,65989,6,0,B|360:152,1,50
354,152,66381,1,0
208,232,66577,2,0,B|152:232,1,50
158,232,66970,1,0
256,288,67166,5,0
256,96,67362,1,0
136,152,67558,6,0,B|112:192|152:248,2,74.9999977648259
376,152,68342,2,0,B|400:192|360:248,2,74.9999977648259
176,80,69127,5,0
336,80,69323,1,0
256,232,69519,2,0,B|256:136,1,74.9999977648259
176,296,69911,1,0
336,296,70107,1,0
256,157,70303,6,0,B|256:232,1,74.9999977648259
256,336,70695,5,0
336,192,70891,1,0
256,48,71087,1,0
256,48,71479,1,0
176,192,71676,1,0
256,336,71872,1,0
368,264,72264,6,0,B|400:304|392:360,2,100
144,264,72852,2,0,B|112:304|120:360,2,100
256,184,73440,1,0
256,48,73636,1,0
424,120,73832,5,0
424,120,73930,1,0
424,120,74028,2,0,B|312:120,1,100
88,120,74617,1,0
88,120,74715,1,0
88,120,74813,2,0,B|200:120,1,100
256,192,75401,5,0
256,48,75597,1,0
256,336,75793,1,0
176,296,75989,1,0
208,264,76087,1,0
256,256,76185,1,0
304,264,76283,1,0
336,296,76381,1,0
256,48,76578,5,0
256,96,76676,1,0
256,144,76774,2,0,B|256:360,1,200
336,296,77362,1,0
424,320,77558,2,0,B|464:272|464:216|432:168,2,150
368,48,78342,2,0,B|328:96|328:152|360:200,2,150
280,72,79127,1,0
192,48,79323,2,0,B|160:96|184:152,1,100
248,208,79715,5,0
261,202,79813,1,0
275,197,79911,2,0,B|307:241|282:311,1,100
248,312,80205,2,0,B|96:264,1,150
80,176,80695,2,0,B|248:232,2,150
128,96,81479,1,0
208,64,81676,1,0
296,72,81872,2,0,B|360:88|376:160,1,100
280,160,82264,1,0
268,169,82362,1,0
254,174,82460,2,0,B|205:195|146:170,2,100
432,224,83048,6,0,B|240:288,1,200
242,287,83636,1,0
176,344,83832,2,0,B|144:304|160:248,1,100
192,216,84127,2,0,B|208:152|160:112,1,100
144,104,84421,1,0
104,184,84617,5,0
288,56,84911,1,0
344,272,85205,1,0
280,216,85401,2,0,B|280:208|280:208|280:200|280:200|272:200|272:200|272:192|272:192|272:184|272:184|264:184|264:184|264:176|264:176|264:168|264:168|256:168|256:168|256:160|256:160|256:152|256:152|248:152|248:152|248:144|248:144|248:136|248:136|240:136|240:136|240:128|240:128|240:120|240:120|232:120|232:120|232:112|232:112|232:104|232:104|224:104|224:104|224:96|224:96|224:88|224:88|216:88|216:88|216:80|216:80|216:72|216:72,1,200
128,80,85989,5,0
128,168,86185,2,0,B|128:288,1,100
128,268,86479,1,0
208,312,86676,1,0
208,312,86774,1,0
288,268,86970,2,0,B|288:168,1,100
288,168,87264,1,0
368,128,87460,1,0
368,128,87558,1,0
256,192,87754,12,0,88930
64,120,89323,6,0,B|160:40|272:120,1,200
200,184,89911,1,0
224,272,90107,2,0,B|248:320|328:320|368:280,2,150
288,208,90891,2,0,B|400:176,1,100
352,144,91185,2,0,B|448:72,1,100
432,84,91479,1,0
432,84,91676,1,0
336,56,91872,1,0
322,50,91970,1,0
307,49,92068,1,0
230,96,92264,5,0
145,63,92460,2,0,B|110:104|132:162,1,100
144,336,92852,2,0,B|179:295|157:237,1,100
80,280,93244,1,0
80,192,93440,2,0,B|32:168,2,50
232,280,93832,1,0
304,336,94028,6,0,B|424:352|504:264,1,200
488,279,94617,1,0
305,47,94813,2,0,B|424:32|488:104,2,200
224,96,95793,5,0
144,136,95989,2,0,B|88:152|40:120,1,100
216,184,96381,1,0
296,144,96578,2,0,B|352:120,1,50
408,248,96872,2,0,B|352:272,1,50
272,256,97166,2,0,B|224:288|160:272|136:224,2,150
216,184,97950,1,0
352,160,98146,1,0
352,160,98244,1,0
352,160,98342,1,0
360,288,98538,5,0
347,296,98636,1,0
333,301,98734,2,0,B|292:327|227:327|179:294,2,150
48,216,99519,2,0,B|89:190|154:190|202:223,2,150
112,280,100303,5,0
240,328,100499,1,0
264,192,100695,1,0
392,144,100891,1,0
416,280,101087,6,0,B|320:232,1,100
104,200,101479,2,0,B|200:152,1,100
256,40,101872,5,0
256,56,113636,5,0
256,144,113832,1,0
256,328,114028,1,0
256,312,114127,1,0
256,296,114225,1,0
256,280,114323,1,0
256,264,114421,6,0,B|352:192|448:272,2,200
88,208,115401,2,0,B|208:208,1,100
256,144,115793,1,0
352,144,115989,6,0,B|392:112|392:56,1,100
159,144,116381,2,0,B|120:112|120:56,2,100
216,216,116970,5,0
216,216,117068,1,0
216,216,117166,2,0,B|255:248|255:304,1,100,0|0
168,288,117558,1,0
344,320,117754,1,0
344,320,117852,2,0,B|352:248|328:200|296:168,1,150
136,128,118342,2,0,B|248:128,1,100
236,128,118734,1,0
400,48,118930,6,0,B|184:48,1,200
360,128,119519,1,0
200,200,119715,1,0
360,280,119911,1,0
200,360,120107,1,0
280,320,120303,5,0
280,224,120499,1,0
280,208,120597,1,0
280,192,120695,1,0
224,112,120891,2,0,B|176:88|128:112,1,100
48,280,121283,2,0,B|96:304|144:280,2,100
152,192,121872,5,0
256,280,122068,1,0
384,224,122264,2,0,B|384:168|336:112|264:120,2,150
296,208,123048,2,0,B|288:200|288:200|280:208|280:208|272:200|272:200|264:208|264:208|256:200|256:200|248:208|248:208|240:200|240:200|232:208|232:208|224:200|224:200|216:208|216:208|208:200|208:200|200:208|200:208|192:200|192:200|184:208|184:208|176:200|176:200|168:208|168:208|160:200|160:200|152:208|152:208,1,200
80,152,123636,5,0
136,88,123832,2,0,B|192:56|248:96,1,100
264,120,124127,2,0,B|416:120,1,150
456,192,124617,1,0
376,48,124813,1,0
456,48,125009,1,0
376,192,125205,1,0
304,328,125401,6,0,B|336:280|312:232,1,100
144,256,125793,2,0,B|112:208|136:160,1,100
224,136,126185,2,0,B|224:336,2,200
272,64,127166,6,0,B|352:64,2,50
88,64,127558,2,0,B|208:64,1,100
188,64,127950,1,0
408,136,128146,2,0,B|280:136,1,100
256,208,128538,1,0
106,208,128832,2,0,B|256:208,1,150
312,280,129323,1,0
400,280,129519,5,0
413,274,129617,1,0
423,263,129715,1,0
432,176,129911,1,0
423,163,130009,1,0
409,155,130107,2,0,B|286:155,1,100
309,155,130401,1,0
208,64,130597,1,0
208,64,130695,2,0,B|184:120|224:160,1,100
264,232,131087,1,0
216,312,131283,1,0
128,328,131479,6,0,B|80:320|40:256|64:200|128:168,1,200
296,152,132068,2,0,B|264:200|200:184,1,100
176,104,132460,1,0
288,240,132656,1,0
368,80,132852,5,0
368,80,132950,1,0
368,80,133048,2,0,B|416:120|400:176,1,100
344,336,133440,2,0,B|312:288|344:232,2,100
264,176,134028,1,0
408,288,134225,1,0
232,272,134421,2,0,B|120:272,1,100
56,112,134813,6,0,B|240:112,2,150
96,192,135597,1,0
120,192,135695,1,0
136,192,135793,1,0
312,192,135989,6,0,B|200:192,1,100,0|0
256,112,136381,1,0
344,88,136578,1,0
344,88,136676,2,0,B|352:144|416:168,1,100
384,200,136970,2,0,B|424:240|408:296,1,100
280,328,137362,1,0
104,288,137558,1,0
64,64,137754,1,0
152,40,137950,6,0,B|200:16|256:48,1,100
200,216,138342,2,0,B|248:240|304:208,1,100
248,136,138734,1,0
160,136,138930,2,0,B|112:168|112:224,2,100
160,136,139421,1,0
160,136,139519,1,0
336,136,139715,6,0,B|400:136,2,50
256,192,140303,1,0
176,248,140499,2,0,B|112:248,2,50
256,304,141087,1,0
336,248,141283,6,0,B|400:248,1,50
386,248,141676,1,0
176,136,141872,2,0,B|112:136,1,50
126,136,142264,1,0
256,192,142460,5,0
256,192,142656,1,0
328,80,142852,5,0
328,80,143048,2,0,B|408:128,1,74.9999977648259
392,320,143636,1,0
392,320,143832,2,0,B|312:272,1,74.9999977648259
448,136,144421,5,0
304,192,144617,2,0,B|384:192,1,74.9999977648259
448,248,145009,1,0
304,192,145205,2,0,B|384:192,2,74.9999977648259
216,192,145793,1,0
240,104,145989,5,0
152,120,146185,2,0,B|112:80|48:88,1,100
80,192,146578,1,0
60,297,146774,2,0,B|112:304|152:264,1,100
240,280,147166,1,0
208,192,147362,1,0
296,192,147558,5,0
328,192,147656,1,0
360,192,147754,2,0,B|480:192,1,100
408,120,148146,1,0
344,264,148342,1,0
280,120,148538,1,0
216,264,148734,2,0,B|88:264,1,100
176,64,149127,5,0
176,80,149225,1,0
176,96,149323,2,0,B|176:144|176:144|144:192,1,100
336,64,149911,1,0
336,80,150009,1,0
336,96,150107,2,0,B|336:144|336:144|368:192,1,100
256,336,150695,5,0
112,192,150891,1,0
400,192,151087,1,0
256,48,151283,5,0
256,64,151381,1,0
256,80,151479,1,0
256,96,151578,1,0
256,112,151676,1,0
256,192,151872,1,0
256,192,151970,1,0
256,192,152068,6,0,B|216:296|88:288,1,200
104,200,152656,1,0
64,120,152852,2,0,B|88:72|136:48|200:48,2,150
152,136,153636,2,0,B|256:176,1,100
245,171,153930,1,0
296,96,154127,1,0
296,96,154225,2,0,B|400:144,1,100
432,216,154617,1,0
400,304,154813,1,0
312,336,155009,5,0
288,328,155107,1,0
264,320,155205,2,0,B|96:264,2,150
336,264,155989,2,0,B|376:224|352:168,1,100
176,120,156381,2,0,B|136:160|160:216,1,100
240,176,156774,2,0,B|432:88,1,200
408,184,157362,1,0
256,88,157558,1,0
320,152,157754,5,0
320,240,157950,1,0
320,240,158048,1,0
320,240,158146,1,0
272,320,158342,5,0
184,320,158538,1,0
224,240,158734,2,0,B|176:144,1,100
120,224,159127,1,0
120,224,159225,1,0
120,224,159323,1,0
72,144,159519,2,0,B|24:168|24:240,1,100
168,144,159911,2,0,B|272:120,1,100
272,80,160205,2,0,B|384:96,1,100
408,72,160499,1,0
440,152,160695,1,0
352,144,160891,5,0
432,304,161087,1,0
280,208,161283,6,0,B|320:248|384:232,1,100
192,248,161676,1,0
192,248,161774,1,0
256,80,161970,1,0
256,80,162068,1,0
32,112,162264,6,0,B|128:152,1,100
216,144,162558,2,0,B|112:200,1,100
128,240,162852,1,0
256,192,163048,12,0,164225
368,80,164617,5,0
341,94,164715,1,0
321,116,164813,1,0
312,144,164911,1,0
314,173,165009,1,0
400,160,165205,1,0
368,248,165401,2,0,B|376:304|424:344|496:336,1,150
368,248,165989,1,0
280,256,166185,2,0,B|223:262|182:308|187:380,1,150
280,256,166774,1,0
216,192,166970,5,0
88,240,167166,1,0
216,56,167362,1,0
88,24,167558,1,0
144,152,167754,6,0,B|176:104|248:112,1,100
230,273,168146,2,0,B|176:280|144:232,1,100
216,192,168538,2,0,B|384:192,2,150
72,192,169323,5,0
144,288,169519,1,0
256,328,169715,1,0
368,288,169911,1,0
440,192,170107,1,0
256,192,170303,5,0
256,192,170401,1,0
256,192,170499,1,0
216,112,170695,1,0
280,48,170891,2,0,B|408:16|456:144,1,200
392,192,171479,1,0
352,272,171676,2,0,B|448:352,2,100
280,216,172264,1,0
208,160,172460,6,0,B|112:80,1,100
48,64,172754,2,0,B|168:64,1,100
192,64,173048,1,0
192,64,173244,1,0
272,104,173440,5,0
112,192,173636,1,0
176,256,173832,5,0
200,168,174028,2,0,B|256:176|288:248|256:304,2,150
80,272,174813,2,0,B|79:328|145:371|205:348,2,150
256,192,175597,12,0,177166
392,64,189715,6,0,B|440:88|440:152,1,100
360,184,190107,1,0
320,264,190303,1,0
320,264,190401,2,0,B|352:312|416:312,1,100
272,192,190793,1,0
272,192,190891,2,0,B|240:144|176:144,1,100
80,224,191283,6,0,B|80:280|136:328|208:320,1,150
248,264,191774,1,0
192,192,191970,2,0,B|192:128|272:104,1,100
336,120,192362,1,0
350,124,192460,1,0
362,131,192558,1,0
373,140,192656,1,0
382,151,192754,1,0
389,163,192852,5,0
393,177,192950,1,0
395,191,193048,2,0,B|324:291,1,100
208,312,193440,1,0
208,312,193538,2,0,B|272:224,2,100
208,312,194028,2,0,B|144:224,1,100
88,168,194421,6,0,B|104:112|168:88|232:112,1,150
272,168,194911,1,0
352,208,195107,2,0,B|376:160|344:112,2,100
320,240,195597,2,0,B|256:240,1,50
232,264,195793,2,0,B|168:264,1,50
144,288,195989,5,0
56,184,196185,1,0
256,88,196381,2,0,B|136:88,1,100
156,88,196676,1,0
256,176,196872,1,0
256,176,196970,2,0,B|376:176,2,100
168,176,197558,6,0,B|176:240|240:264,1,100
400,248,197950,2,0,B|256:248,1,100
120,264,198342,1,0
120,264,198440,1,0
120,264,198538,1,0
192,312,198734,2,0,B|240:336|296:304,1,100
344,184,199127,5,0
176,144,199421,1,0
344,104,199715,1,0
176,64,200009,1,0
344,24,200303,1,0
344,24,200401,1,0
344,24,200499,1,0
256,72,200695,2,0,B|216:144|304:176|288:288|184:208|264:192,1,200
256,336,201479,5,0
464,56,201872,1,0
48,56,202264,1,0
88,136,202460,6,0,B|88:240,1,100
88,236,202852,1,0
424,136,203244,2,0,B|424:240,1,100
424,236,203636,1,0
256,328,204028,5,0
336,288,204225,2,0,B|312:240|256:240,1,100
192,176,204617,1,0
256,112,204813,2,0,B|256:8,2,100
320,176,205401,1,0
256,256,205597,6,0,B|216:288|152:264,2,100
304,80,206381,2,0,B|352:48|408:80,2,100
128,104,207166,6,0,B|152:160|216:160,1,100
384,160,207558,1,0
296,160,207754,2,0,B|296:216|232:240,2,100
256,80,208342,5,0
256,304,208538,1,0
152,256,208734,5,0
152,256,208832,1,0
152,256,208930,2,0,B|32:256,2,100
360,256,209519,1,0
360,256,209617,1,0
360,256,209715,2,0,B|480:256,2,100
256,32,210303,5,0
352,80,210499,2,0,B|360:144|304:184,1,100
160,80,210891,2,0,B|152:144|208:184,1,100
256,336,211283,1,0
256,248,211479,5,0
256,248,211577,1,0
256,248,211676,1,0
336,288,211872,1,0
256,160,212068,1,0
176,288,212264,1,0
408,288,212656,5,0
256,72,212852,1,0
104,288,213048,1,0
104,96,213440,5,0
256,312,213636,1,0
408,96,213832,1,0
328,168,214028,5,0
296,144,214127,1,0
256,136,214225,1,0
216,144,214323,1,0
184,168,214421,1,0
256,224,214617,1,0
256,224,214715,1,0
256,224,214813,6,0,B|288:280|360:272,1,100
424,240,215205,2,0,B|400:184|336:184,1,100
168,256,215597,2,0,B|136:312|80:328|16:312,2,150
104,200,216381,1,0
112,112,216577,1,0
112,112,216676,1,0
288,64,216872,1,0
288,64,216970,2,0,B|168:64,1,100
232,144,217362,5,0
232,320,217558,1,0
152,280,217754,5,0
152,280,217852,1,0
152,280,217950,1,0
224,232,218146,1,0
304,272,218342,2,0,B|352:296|416:264,1,100
400,120,218734,2,0,B|352:96|288:128,1,100
352,192,219127,1,0
376,192,219225,1,0
400,192,219323,1,0
272,192,219519,6,0,B|264:184|264:184|256:192|256:192|248:184|248:184|240:192|240:192|232:184|232:184|224:192|224:192|216:184|216:184|208:192|208:192|200:184|200:184|192:192|192:192|184:184|184:184|176:192|176:192|168:184|168:184|160:192|160:192|152:184|152:184|144:192|144:192|136:184|136:184|128:192|128:192,1,200
130,189,220107,1,0
48,88,220303,2,0,B|56:96|56:96|64:88|64:88|72:96|72:96|80:88|80:88|88:96|88:96|96:88|96:88|104:96|104:96|112:88|112:88|120:96|120:96|128:88|128:88|136:96|136:96|144:88|144:88|152:96|152:96|160:88|160:88|168:96|168:96|176:88|176:88|184:96|184:96|192:88|192:88,1,200
448,88,221087,6,0,B|256:176,1,200
280,80,221676,1,0
432,176,221872,2,0,B|384:264,1,100
392,352,222166,2,0,B|320:264,1,100
280,272,222460,1,0
208,320,222656,6,0,B|160:336|96:328|64:264,2,150
160,248,223440,1,0
296,128,223832,1,0
208,120,224028,5,0
256,200,224225,2,0,B|312:264|408:248,2,150
232,288,225009,2,0,B|176:352|80:336,2,150
360,160,225793,5,0
192,104,225989,1,0
304,240,226185,1,0
344,64,226381,1,0
432,224,226577,1,0
264,152,226774,1,0
296,328,226970,1,0
296,328,227068,1,0
296,328,227166,1,0
296,328,227264,1,0
296,328,227362,6,0,B|88:264,1,200
144,184,227950,1,0
112,96,228146,1,0
232,160,228342,1,0
232,160,228440,1,0
352,96,228636,2,0,B|304:96,1,50
320,184,228930,6,0,B|384:200|416:272|376:328,1,150
320,184,229519,1,0
104,272,229715,2,0,B|312:272,1,200
128,192,230303,5,0
120,176,230401,1,0
112,160,230499,2,0,B|152:120|216:120,1,100
201,120,230793,1,0
376,328,231087,1,0
328,256,231283,2,0,B|288:296|232:296,1,100
200,272,231577,2,0,B|80:272,1,100
100,272,231872,1,0
256,192,232068,6,0,B|288:120|360:96|432:104,1,200
256,192,232656,1,0
256,192,232852,2,0,B|224:264|152:288|80:280,1,200
264,320,233636,6,0,B|304:272|360:272,1,100
432,296,234028,1,0
480,216,234225,1,0
408,160,234421,2,0,B|312:128,1,100
264,56,234715,2,0,B|256:160,1,100
224,184,235009,1,0
184,264,235205,2,0,B|232:304|288:304|352:248,2,150
136,192,235989,1,0
96,272,236185,2,0,B|48:296,2,50
256,184,236577,5,0
280,96,236774,2,0,B|336:64|400:72|448:96,1,150
328,184,237362,1,0
296,264,237558,2,0,B|240:288|176:256|168:192,1,150
172,212,238146,1,0
256,192,238342,12,0,239911
