osu file format v9

[General]
AudioFilename: Song.mp3
AudioLeadIn: 0
PreviewTime: 115413
Countdown: 0
SampleSet: Normal
StackLeniency: 0.7
Mode: 1
LetterboxInBreaks: 0

[Editor]
Bookmarks: 72459,79731,87004,94277,101550,116095,130640,145186,159731,167004,174277,181550,188822,196095,210640,225186,254277,272459,285186,299731
DistanceSpacing: 1
BeatDivisor: 4
GridSize: 4

[Metadata]
Title:Macrophylla Parasol
Artist:3L
Creator:xxheroxx
Version:Taiko Oni
Source:Touhou
Tags:makuro fira makurofira parasoru NJK Records ZUN TH10 Fuujinroku Eastern Wind God Chronicles Mountain of Faith MoF Fall Autumnal Waterfall Stage 4 midboss Momiji Inubashiri Pizuya Cell Rising Star godwood YAMAGEN

[Difficulty]
HPDrainRate:5
CircleSize:5
OverallDifficulty:5
ApproachRate:5
SliderMultiplier:1.6
SliderTickRate:1

[Events]
//Background and Video events
0,0,"BG Taiko.jpg"
//Break Periods
//Storyboard Layer 0 (Background)
//Storyboard Layer 1 (Fail)
//Storyboard Layer 2 (Pass)
//Storyboard Layer 3 (Foreground)
//Storyboard Sound Samples
//Background Colour Transformations
3,100,255,255,255

[TimingPoints]
1550,454.545454545455,4,1,0,70,1,0
116095,-100,4,1,0,70,0,1
145186,-100,4,1,0,70,0,0
210640,-100,4,1,0,70,0,1
239731,-100,4,1,0,70,0,0
272459,-100,4,1,0,70,0,1
299731,-100,4,1,0,70,0,0

[Colours]
Combo1 : 0,128,255
Combo2 : 255,128,0
Combo3 : 0,128,255
Combo4 : 255,128,0

[HitObjects]
256,192,72459,5,0
256,192,72799,5,8
256,192,72913,5,0
256,192,73140,5,8
256,192,73368,5,0
256,192,73709,5,8
256,192,73822,5,0
256,192,74049,5,8
256,192,74277,5,0
256,192,74504,5,8
256,192,74618,5,0
256,192,74731,1,0
256,192,74959,5,8
256,192,75186,5,0
256,192,75527,5,8
256,192,75640,5,0
256,192,75868,5,8
256,192,76095,5,0
256,192,76322,5,8
256,192,76436,5,0
256,192,76549,1,0
256,192,76777,5,8
256,192,76890,5,0
256,192,77004,1,0
256,192,77345,5,8
256,192,77459,5,0
256,192,77686,5,8
256,192,77913,5,0
256,192,78254,5,8
256,192,78368,5,0
256,192,78595,5,8
256,192,78822,5,0
256,192,79049,5,8
256,192,79163,1,8
256,192,79277,1,8
256,192,79504,1,8
256,192,79731,5,0
256,192,80072,5,8
256,192,80186,5,0
256,192,80413,5,8
256,192,80640,5,0
256,192,80754,5,8
256,192,80981,1,8
256,192,81095,5,0
256,192,81322,5,8
256,192,81549,5,0
256,192,81890,5,8
256,192,82004,5,0
256,192,82231,5,8
256,192,82459,5,0
256,192,82686,5,8
256,192,82799,5,0
256,192,82913,1,0
256,192,83140,5,8
256,192,83368,5,0
256,192,83709,5,8
256,192,83822,5,0
256,192,83936,1,0
256,192,84049,5,8
256,192,84277,5,0
256,192,84390,5,8
256,192,84618,1,8
256,192,84731,5,0
256,192,84959,5,8
256,192,85186,5,0
256,192,85527,5,8
256,192,85640,5,0
256,192,85868,5,8
256,192,86095,5,0
256,192,86322,5,8
256,192,86436,1,8
256,192,86549,1,8
256,192,86777,1,8
256,192,87004,5,0
256,192,87345,5,8
256,192,87459,5,0
256,192,87686,5,8
256,192,87913,5,0
256,192,88027,1,0
256,192,88140,1,0
256,192,88254,5,8
256,192,88368,5,0
256,192,88595,5,8
256,192,88822,5,0
256,192,89163,5,8
256,192,89277,5,0
256,192,89504,5,8
256,192,89731,5,0
256,192,89845,1,0
256,192,89959,5,8
256,192,90072,1,8
256,192,90186,5,0
256,192,90413,5,8
256,192,90640,5,0
256,192,90981,5,8
256,192,91095,5,0
256,192,91322,5,8
256,192,91550,5,0
256,192,91663,1,0
256,192,91777,5,8
256,192,91890,5,0
256,192,92004,1,0
256,192,92231,5,8
256,192,92459,5,0
256,192,92800,5,8
256,192,92913,5,0
256,192,93140,5,8
256,192,93368,5,0
256,192,93595,5,8
256,192,93709,1,8
256,192,93822,1,8
256,192,94050,1,8
256,192,94277,5,0
256,192,94618,5,8
256,192,94731,5,0
256,192,94959,5,8
256,192,95186,5,0
256,192,95300,5,8
256,192,95527,5,0
256,192,95640,5,8
256,192,95754,1,8
256,192,95868,5,0
256,192,96095,1,0
256,192,96436,5,8
256,192,96550,5,0
256,192,96777,5,8
256,192,97004,5,0
256,192,97118,1,0
256,192,97231,5,8
256,192,97345,1,8
256,192,97572,1,8
256,192,97686,1,8
256,192,97913,5,0
256,192,98254,5,8
256,192,98368,5,0
256,192,98595,5,8
256,192,98822,5,0
256,192,98936,5,8
256,192,99050,5,0
256,192,99163,5,8
256,192,99277,5,0
256,192,99504,5,8
256,192,99731,5,0
256,192,100072,5,8
256,192,100186,5,0
256,192,100413,5,8
256,192,100640,5,0
256,192,100754,1,0
256,192,100868,1,0
256,192,100981,1,0
256,192,101095,5,8
256,192,101209,1,8
256,192,101322,1,8
256,192,101436,1,8
256,192,101550,5,0
256,192,101663,1,0
256,192,101777,5,8
256,192,102004,5,0
256,192,102231,5,8
256,192,102459,5,0
256,192,102572,1,0
256,192,102686,5,8
256,192,102913,5,0
256,192,103140,5,8
256,192,103368,5,0
256,192,103481,1,0
256,192,103595,5,8
256,192,103822,5,0
256,192,104050,5,8
256,192,104163,5,0
256,192,104277,1,0
256,192,104504,5,8
256,192,104731,5,0
256,192,104959,5,8
256,192,105186,5,0
256,192,105300,1,0
256,192,105413,5,8
256,192,105640,5,0
256,192,105868,5,8
256,192,106095,5,0
256,192,106322,5,8
256,192,106550,5,0
256,192,106777,5,8
256,192,107004,5,0
256,192,107231,5,8
256,192,107459,5,0
256,192,107686,5,8
256,192,107800,5,0
256,192,108027,1,0
256,192,108140,5,8
256,192,108368,5,0
256,192,108481,1,0
256,192,108595,5,8
256,192,108822,5,0
256,192,108936,1,0
256,192,109050,5,8
256,192,109277,5,0
256,192,109504,5,8
256,192,109618,5,0
256,192,109731,1,0
256,192,109959,5,8
256,192,110186,5,0
256,192,110413,5,8
256,192,110640,5,0
256,192,110868,5,8
256,192,111095,5,0
256,192,111322,5,8
256,192,111436,5,0
256,192,111550,1,0
256,192,111777,5,8
256,192,112004,5,0
256,192,112231,5,8
256,192,112459,5,0
256,192,112572,1,0
256,192,112686,5,8
256,192,112913,5,0
256,192,113140,5,8
256,192,113254,5,0
256,192,113368,1,0
256,192,113595,5,8
256,192,113822,5,0
256,192,114050,5,8
256,192,114277,5,0
256,192,114504,1,0
256,192,114731,1,0
256,192,114959,1,0
256,192,115072,1,0
256,192,115186,1,0
256,192,115300,5,8
256,192,115413,5,0
256,192,115640,5,8
256,192,115868,5,0
256,192,116095,1,4
256,192,116322,1,0
256,192,116436,1,0
256,192,116550,5,8
256,192,116777,5,0
256,192,117004,1,0
256,192,117231,1,0
256,192,117345,1,0
256,192,117459,5,8
256,192,117686,5,0
256,192,117913,1,0
256,192,118140,1,0
256,192,118254,1,0
256,192,118368,5,8
256,192,118595,5,0
256,192,118709,1,0
256,192,118822,1,0
256,192,119050,1,0
256,192,119163,1,0
256,192,119277,5,8
256,192,119504,1,8
256,192,119731,5,0
256,192,119959,1,0
256,192,120072,1,0
256,192,120186,5,8
256,192,120413,5,0
256,192,120640,1,0
256,192,120868,1,0
256,192,120981,1,0
256,192,121095,5,8
256,192,121322,5,0
256,192,121550,1,0
256,192,121777,1,0
256,192,121890,1,0
256,192,122004,5,8
256,192,122231,5,0
256,192,122345,1,0
256,192,122459,1,0
256,192,122572,1,0
256,192,122686,1,0
256,192,122800,1,0
256,192,122913,5,8
256,192,123140,1,8
256,192,123368,5,0
256,192,123595,1,0
256,192,123709,1,0
256,192,123822,5,8
256,192,124050,5,0
256,192,124277,1,0
256,192,124390,1,0
256,192,124618,1,0
256,192,124731,5,8
256,192,124959,5,0
256,192,125186,1,0
256,192,125413,1,0
256,192,125527,1,0
256,192,125640,5,8
256,192,125868,5,0
256,192,126095,1,0
256,192,126209,1,0
256,192,126436,1,0
256,192,126550,5,8
256,192,126777,1,8
256,192,127004,5,0
256,192,127231,1,0
256,192,127345,1,0
256,192,127459,5,8
256,192,127686,5,0
256,192,127913,1,0
256,192,128140,1,0
256,192,128254,1,0
256,192,128368,5,8
256,192,128595,5,0
256,192,128822,1,0
256,192,128936,1,0
256,192,129050,1,0
256,192,129163,1,0
256,192,129277,5,8
256,192,129504,5,0
256,192,129731,1,0
256,192,129845,1,0
256,192,129959,1,0
256,192,130072,1,0
256,192,130186,5,8
256,192,130300,5,0
256,192,130413,5,8
256,192,130640,5,4
256,192,130868,1,0
256,192,130981,1,0
256,192,131095,5,8
256,192,131322,5,0
256,192,131550,1,0
256,192,131777,1,0
256,192,131890,1,0
256,192,132004,5,8
256,192,132231,5,0
256,192,132459,1,0
256,192,132686,1,0
256,192,132800,1,0
256,192,132913,5,8
256,192,133140,5,0
256,192,133254,1,0
256,192,133368,1,0
256,192,133595,1,0
256,192,133709,1,0
256,192,133822,5,8
256,192,134050,1,8
256,192,134277,5,0
256,192,134504,1,0
256,192,134618,1,0
256,192,134731,5,8
256,192,134959,5,0
256,192,135186,1,0
256,192,135413,1,0
256,192,135527,1,0
256,192,135640,5,8
256,192,135868,5,0
256,192,136095,1,0
256,192,136322,1,0
256,192,136436,1,0
256,192,136550,5,8
256,192,136777,5,0
256,192,136890,1,0
256,192,137004,1,0
256,192,137118,1,0
256,192,137231,1,0
256,192,137345,1,0
256,192,137459,5,8
256,192,137686,1,8
256,192,137913,5,0
256,192,138140,1,0
256,192,138254,1,0
256,192,138368,5,8
256,192,138595,5,0
256,192,138822,1,0
256,192,138936,1,0
256,192,139163,1,0
256,192,139277,5,8
256,192,139504,5,0
256,192,139731,1,0
256,192,139959,1,0
256,192,140072,1,0
256,192,140186,5,8
256,192,140413,5,0
256,192,140640,1,0
256,192,140754,1,0
256,192,140981,1,0
256,192,141095,5,8
256,192,141322,1,8
256,192,141550,5,0
256,192,141777,1,0
256,192,141890,1,0
256,192,142004,5,8
256,192,142231,5,0
256,192,142459,1,0
256,192,142686,1,0
256,192,142800,1,0
256,192,142913,5,8
256,192,143140,5,0
256,192,143368,5,8
256,192,143595,1,8
256,192,143822,5,0
256,192,144277,5,8
256,192,144731,5,0
256,192,145186,12,0,148368
256,192,148822,21,0
256,192,149731,1,0
256,192,150186,5,8
8,24,150640,6,0,B|260:136|260:136|256:24|256:24|426:62|426:62|448:156,1,640
256,192,153368,1,0
256,192,153822,5,8
256,192,154277,5,0
256,192,155186,5,8
256,192,156095,5,0
256,192,157004,1,0
256,192,157459,5,8
504,24,157913,6,0,B|252:136|252:136|256:24|256:24|86:62|86:62|64:156,1,640
256,192,160186,1,0
256,192,160640,1,0
256,192,160868,1,0
256,192,161095,1,0
256,192,161549,5,8
256,192,162004,1,8
256,192,162459,1,8
256,192,162686,1,8
256,192,162913,1,8
256,192,163368,5,0
256,192,163822,1,0
256,192,164277,1,0
256,192,164504,1,0
256,192,164731,1,0
256,192,165186,5,8
256,192,165640,1,8
256,192,166095,1,8
256,192,166322,1,8
256,192,166549,1,8
256,192,166777,1,8
256,192,166890,1,8
256,192,167004,5,0
256,192,167231,5,8
256,192,167459,5,0
256,192,167686,5,8
256,192,167799,5,0
256,192,168027,5,8
256,192,168254,1,8
256,192,168368,5,0
256,192,168595,5,8
256,192,168822,5,0
256,192,169049,5,8
256,192,169277,5,0
256,192,169504,5,8
256,192,169618,5,0
256,192,169845,5,8
256,192,170072,1,8
256,192,170186,5,0
256,192,170413,5,8
256,192,170640,5,0
256,192,170868,5,8
256,192,171095,5,0
256,192,171322,5,8
256,192,171436,5,0
256,192,171663,5,8
256,192,171890,1,8
256,192,172004,5,0
256,192,172231,5,8
256,192,172459,5,0
256,192,172686,5,8
256,192,172913,5,0
256,192,173140,5,8
256,192,173254,5,0
256,192,173481,5,8
256,192,173709,1,8
256,192,173822,5,0
256,192,174049,5,8
256,192,174277,5,0
256,192,174504,5,8
256,192,174731,5,0
256,192,174959,5,8
256,192,175072,5,0
256,192,175186,1,0
256,192,175299,5,8
256,192,175527,1,8
256,192,175640,5,0
256,192,175868,5,8
256,192,176095,5,0
256,192,176322,5,8
256,192,176549,5,0
256,192,176777,5,8
256,192,176890,5,0
256,192,177004,1,0
256,192,177118,5,8
256,192,177345,1,8
256,192,177459,5,0
256,192,177686,5,8
256,192,177913,5,0
256,192,178140,5,8
256,192,178368,5,0
256,192,178595,5,8
256,192,178709,5,0
256,192,178822,1,0
256,192,178936,5,8
256,192,179163,1,8
256,192,179277,5,0
256,192,179504,5,8
256,192,179731,5,0
256,192,179959,5,8
256,192,180186,5,0
256,192,180413,5,8
256,192,180527,5,0
256,192,180640,1,0
256,192,180754,5,8
256,192,180981,1,8
256,192,181095,5,0
256,192,181322,5,8
256,192,181549,5,0
256,192,181777,5,8
256,192,181890,1,8
256,192,182004,5,0
256,192,182231,5,8
256,192,182345,5,0
256,192,182459,1,0
256,192,182572,5,8
256,192,182799,1,8
256,192,182913,5,0
256,192,183140,5,8
256,192,183368,5,0
256,192,183595,5,8
256,192,183709,1,8
256,192,183822,5,0
256,192,184049,5,8
256,192,184163,5,0
256,192,184277,1,0
256,192,184390,5,8
256,192,184618,1,8
256,192,184731,5,0
256,192,184959,5,8
256,192,185186,5,0
256,192,185413,5,8
256,192,185527,1,8
256,192,185640,5,0
256,192,185868,5,8
256,192,185981,5,0
256,192,186095,1,0
256,192,186209,5,8
256,192,186436,1,8
256,192,186549,5,0
256,192,186777,5,8
256,192,187004,5,0
256,192,187231,5,8
256,192,187345,1,8
256,192,187459,5,0
256,192,187686,5,8
256,192,187799,5,0
256,192,187913,1,0
256,192,188027,5,8
256,192,188254,1,8
256,192,188368,5,0
256,192,188595,5,8
256,192,188822,5,0
256,192,189049,5,8
256,192,189163,1,8
256,192,189277,5,0
256,192,189504,5,8
256,192,189618,5,0
256,192,189731,1,0
256,192,189845,5,8
256,192,189959,5,0
256,192,190072,5,8
256,192,190186,5,0
256,192,190413,5,8
256,192,190640,5,0
256,192,190868,5,8
256,192,190981,1,8
256,192,191095,5,0
256,192,191322,5,8
256,192,191436,5,0
256,192,191549,1,0
256,192,191663,5,8
256,192,191777,5,0
256,192,191890,5,8
256,192,192004,5,0
256,192,192231,5,8
256,192,192459,5,0
256,192,192686,5,8
256,192,192799,1,8
256,192,192913,5,0
256,192,193140,5,8
256,192,193254,5,0
256,192,193368,1,0
256,192,193481,5,8
256,192,193595,5,0
256,192,193709,5,8
256,192,193822,5,0
256,192,194049,5,8
256,192,194277,5,0
256,192,194504,5,8
256,192,194618,1,8
256,192,194731,5,0
256,192,194959,5,8
256,192,195072,5,0
256,192,195186,1,0
256,192,195299,5,8
256,192,195413,5,0
256,192,195527,5,8
256,192,195640,5,0
256,192,195868,5,8
256,192,196095,5,0
256,192,196208,1,0
256,192,196322,5,8
256,192,196549,5,0
256,192,196776,5,8
256,192,197004,5,0
256,192,197117,1,0
256,192,197231,5,8
256,192,197458,5,0
256,192,197685,5,8
256,192,197913,5,0
256,192,198026,1,0
256,192,198140,5,8
256,192,198367,5,0
256,192,198595,5,8
256,192,198708,5,0
256,192,198822,1,0
256,192,199049,5,8
256,192,199276,5,0
256,192,199504,5,8
256,192,199731,5,0
256,192,199845,1,0
256,192,199958,5,8
256,192,200185,5,0
256,192,200413,5,8
256,192,200640,5,0
256,192,200867,5,8
256,192,201095,5,0
256,192,201322,5,8
256,192,201549,5,0
256,192,201776,5,8
256,192,202004,5,0
256,192,202231,5,8
256,192,202345,5,0
256,192,202572,1,0
256,192,202685,5,8
256,192,202913,5,0
256,192,203026,1,0
256,192,203140,5,8
256,192,203367,5,0
256,192,203481,1,0
256,192,203595,5,8
256,192,203822,5,0
256,192,204049,5,8
256,192,204163,5,0
256,192,204276,1,0
256,192,204504,5,8
256,192,204731,5,0
256,192,204958,5,8
256,192,205185,5,0
256,192,205413,5,8
256,192,205640,5,0
256,192,205867,5,8
256,192,205981,5,0
256,192,206095,1,0
256,192,206322,5,8
256,192,206549,5,0
256,192,206776,5,8
256,192,207004,5,0
256,192,207117,1,0
256,192,207231,5,8
256,192,207458,5,0
256,192,207685,5,8
256,192,207799,5,0
256,192,207913,1,0
256,192,208140,5,8
256,192,208367,5,0
256,192,208595,5,8
256,192,208822,5,0
256,192,209049,1,0
256,192,209276,1,0
256,192,209504,1,0
256,192,209617,1,0
256,192,209731,1,0
256,192,209845,5,8
256,192,209958,5,0
256,192,210185,5,8
256,192,210413,5,0
256,192,210640,1,4
256,192,210868,1,0
256,192,210981,1,0
256,192,211095,5,8
256,192,211322,5,0
256,192,211549,1,0
256,192,211777,1,0
256,192,211890,1,0
256,192,212004,5,8
256,192,212231,5,0
256,192,212459,1,0
256,192,212686,1,0
256,192,212799,1,0
256,192,212913,5,8
256,192,213140,5,0
256,192,213254,1,0
256,192,213368,1,0
256,192,213595,1,0
256,192,213709,1,0
256,192,213822,5,8
256,192,214049,1,8
256,192,214277,5,0
256,192,214504,1,0
256,192,214618,1,0
256,192,214731,5,8
256,192,214959,5,0
256,192,215186,1,0
256,192,215413,1,0
256,192,215527,1,0
256,192,215640,5,8
256,192,215868,5,0
256,192,216095,1,0
256,192,216322,1,0
256,192,216436,1,0
256,192,216549,5,8
256,192,216777,5,0
256,192,216890,1,0
256,192,217004,1,0
256,192,217118,1,0
256,192,217231,1,0
256,192,217345,1,0
256,192,217459,5,8
256,192,217686,1,8
256,192,217913,5,0
256,192,218140,1,0
256,192,218254,1,0
256,192,218368,5,8
256,192,218595,5,0
256,192,218822,1,0
256,192,218936,1,0
256,192,219163,1,0
256,192,219277,5,8
256,192,219504,5,0
256,192,219731,1,0
256,192,219959,1,0
256,192,220072,1,0
256,192,220186,5,8
256,192,220413,5,0
256,192,220640,1,0
256,192,220754,1,0
256,192,220981,1,0
256,192,221095,5,8
256,192,221322,1,8
256,192,221549,5,0
256,192,221777,1,0
256,192,221890,1,0
256,192,222004,5,8
256,192,222231,5,0
256,192,222459,1,0
256,192,222686,1,0
256,192,222799,1,0
256,192,222913,5,8
256,192,223140,5,0
256,192,223368,1,0
256,192,223481,1,0
256,192,223595,1,0
256,192,223709,1,0
256,192,223822,5,8
256,192,224049,5,0
256,192,224277,1,0
256,192,224390,1,0
256,192,224504,1,0
256,192,224618,1,0
256,192,224731,5,8
256,192,224845,5,0
256,192,224959,5,8
256,192,225186,5,4
256,192,225413,1,0
256,192,225527,1,0
256,192,225640,5,8
256,192,225868,5,0
256,192,226095,1,0
256,192,226322,1,0
256,192,226436,1,0
256,192,226549,5,8
256,192,226777,5,0
256,192,227004,1,0
256,192,227231,1,0
256,192,227345,1,0
256,192,227459,5,8
256,192,227686,5,0
256,192,227799,1,0
256,192,227913,1,0
256,192,228140,1,0
256,192,228254,1,0
256,192,228368,5,8
256,192,228595,1,8
256,192,228822,5,0
256,192,229049,1,0
256,192,229163,1,0
256,192,229277,5,8
256,192,229504,5,0
256,192,229731,1,0
256,192,229959,1,0
256,192,230072,1,0
256,192,230186,5,8
256,192,230413,5,0
256,192,230640,1,0
256,192,230868,1,0
256,192,230981,1,0
256,192,231095,5,8
256,192,231322,5,0
256,192,231436,1,0
256,192,231549,1,0
256,192,231663,1,0
256,192,231777,1,0
256,192,231890,1,0
256,192,232004,5,8
256,192,232231,1,8
256,192,232459,5,0
256,192,232686,1,0
256,192,232799,1,0
256,192,232913,5,8
256,192,233140,5,0
256,192,233368,1,0
256,192,233481,1,0
256,192,233709,1,0
256,192,233822,5,8
256,192,234049,5,0
256,192,234277,1,0
256,192,234504,1,0
256,192,234618,1,0
256,192,234731,5,8
256,192,234959,5,0
256,192,235186,1,0
256,192,235299,1,0
256,192,235527,1,0
256,192,235640,5,8
256,192,235868,1,8
256,192,236095,5,0
256,192,236322,1,0
256,192,236436,1,0
256,192,236549,5,8
256,192,236777,5,0
256,192,237004,1,0
256,192,237231,1,0
256,192,237345,1,0
256,192,237459,5,8
256,192,237686,5,0
256,192,237913,5,8
256,192,238140,1,8
256,192,238368,5,0
256,192,238822,5,8
256,192,239277,5,0
256,192,239731,12,0,242913
256,192,243368,21,0
256,192,244277,1,0
256,192,244731,5,8
8,24,245186,6,0,B|260:136|260:136|256:24|256:24|426:62|426:62|448:156,1,640
256,192,247913,1,0
256,192,248368,5,8
256,192,248822,5,0
256,192,249731,5,8
256,192,250640,5,0
256,192,251549,1,0
256,192,252004,5,8
504,24,252459,6,0,B|252:136|252:136|256:24|256:24|86:62|86:62|64:156,1,640
256,192,254731,5,8
256,192,255186,5,0
256,192,255640,5,8
256,192,256095,5,0
256,192,256549,5,8
256,192,257004,5,0
256,192,257231,5,8
256,192,257459,1,8
256,192,257686,1,8
256,192,257913,5,0
256,192,258368,5,8
256,192,258822,5,0
256,192,259277,5,8
256,192,259731,5,0
256,192,260186,5,8
256,192,260640,1,8
256,192,260754,5,0
256,192,260868,5,8
256,192,260981,5,0
256,192,261209,5,8
256,192,261549,5,0
256,192,262004,5,8
256,192,262459,5,0
256,192,262913,5,8
256,192,263368,5,0
256,192,263822,5,8
256,192,264277,1,8
256,192,264390,1,8
256,192,264618,5,0
256,192,264845,5,8
256,192,265186,1,8
256,192,265640,5,0
256,192,266095,1,0
256,192,266549,1,0
256,192,267004,5,8
256,192,267686,1,8
256,192,268368,5,0
256,192,268822,5,8
256,192,269504,1,8
256,192,270640,1,8
256,192,270868,1,8
256,192,271322,1,8
256,192,271777,1,8
256,192,272231,1,8
256,192,272459,5,4
256,192,272686,1,0
256,192,272799,1,0
256,192,272913,5,8
256,192,273140,1,8
256,192,273368,5,0
256,192,273481,1,0
256,192,273595,1,0
256,192,273709,1,0
256,192,273822,5,8
256,192,274049,1,8
256,192,274277,5,0
256,192,274504,1,0
256,192,274618,1,0
256,192,274731,5,8
256,192,274959,1,8
256,192,275186,5,0
256,192,275299,1,0
256,192,275413,1,0
256,192,275527,1,0
256,192,275640,5,8
256,192,275868,1,8
256,192,276095,5,0
256,192,276209,1,0
256,192,276322,1,0
256,192,276436,1,0
256,192,276549,5,8
256,192,276663,1,8
256,192,276777,1,8
256,192,276890,1,8
256,192,277004,5,0
256,192,277118,1,0
256,192,277231,1,0
256,192,277345,1,0
256,192,277459,5,8
256,192,277686,1,8
256,192,277913,5,0
256,192,278140,1,0
256,192,278254,1,0
256,192,278368,5,8
256,192,278595,1,8
256,192,278709,5,0
256,192,278822,1,0
256,192,278936,5,8
256,192,279163,5,0
256,192,279277,5,8
256,192,279504,1,8
256,192,279731,5,0
256,192,279959,1,0
256,192,280072,1,0
256,192,280186,5,8
256,192,280413,1,8
256,192,280527,5,0
256,192,280640,1,0
256,192,280754,5,8
256,192,280981,5,0
256,192,281095,5,8
256,192,281322,1,8
256,192,281549,5,0
256,192,281777,5,8
256,192,281890,1,8
256,192,282004,5,0
256,192,282231,5,8
256,192,282345,1,8
256,192,282459,5,0
256,192,282686,5,8
256,192,282799,1,8
256,192,282913,5,0
256,192,283140,5,8
256,192,283368,5,0
256,192,283481,1,0
256,192,283595,5,8
256,192,283709,1,8
256,192,283822,5,0
256,192,283936,1,0
256,192,284049,5,8
256,192,284163,1,8
256,192,284277,5,0
256,192,284390,1,0
256,192,284504,1,0
256,192,284618,1,0
256,192,284731,5,8
256,192,284845,1,8
256,192,284959,1,8
256,192,285072,1,8
256,192,285186,5,4
256,192,285413,1,0
256,192,285527,1,0
256,192,285640,5,8
256,192,285868,1,8
256,192,286095,5,0
256,192,286209,1,0
256,192,286322,1,0
256,192,286436,1,0
256,192,286549,5,8
256,192,286777,1,8
256,192,287004,5,0
256,192,287118,1,0
256,192,287231,1,0
256,192,287345,1,0
256,192,287459,5,8
256,192,287686,1,8
256,192,287913,5,0
256,192,288140,1,0
256,192,288254,1,0
256,192,288368,5,8
256,192,288595,1,8
256,192,288822,5,0
256,192,288936,1,0
256,192,289049,1,0
256,192,289163,1,0
256,192,289277,5,8
256,192,289504,1,8
256,192,289731,5,0
256,192,289845,1,0
256,192,289959,1,0
256,192,290072,1,0
256,192,290186,5,8
256,192,290413,1,8
256,192,290640,5,0
256,192,290754,1,0
256,192,290868,1,0
256,192,290981,1,0
256,192,291095,5,8
256,192,291209,1,8
256,192,291322,1,8
256,192,291436,1,8
256,192,291549,5,0
256,192,291663,1,0
256,192,291777,1,0
256,192,291890,1,0
256,192,292004,5,8
256,192,292231,1,8
256,192,292459,5,0
256,192,292686,1,0
256,192,292799,1,0
256,192,292913,5,8
256,192,293140,1,8
256,192,293254,5,0
256,192,293368,1,0
256,192,293481,5,8
256,192,293709,5,0
256,192,293822,5,8
256,192,294049,1,8
256,192,294277,5,0
256,192,294504,1,0
256,192,294618,1,0
256,192,294731,5,8
256,192,294959,1,8
256,192,295072,5,0
256,192,295186,1,0
256,192,295299,5,8
256,192,295527,5,0
256,192,295640,5,8
256,192,295868,1,8
256,192,296095,1,8
256,192,296209,5,0
256,192,296322,1,0
256,192,296436,1,0
256,192,296549,5,8
256,192,296663,5,0
256,192,296777,1,0
256,192,296890,1,0
256,192,297004,5,8
256,192,297118,5,0
256,192,297231,1,0
256,192,297345,1,0
256,192,297459,5,8
256,192,297572,5,0
256,192,297686,1,0
256,192,297799,1,0
256,192,297913,5,8
256,192,298140,1,8
256,192,298254,1,8
256,192,298368,1,8
256,192,298595,1,8
256,192,298822,1,8
256,192,299277,1,12
256,192,299731,12,0,303368
