osu file format v9

[General]
AudioFilename: Song.mp3
AudioLeadIn: 0
PreviewTime: 115413
Countdown: 0
SampleSet: Soft
StackLeniency: 0.7
Mode: 0
LetterboxInBreaks: 0

[Editor]
Bookmarks: 1550,30640,57913,72459,101550,116095,145186,159731,167004,196095,210640,239731,254277,270640,299731
DistanceSpacing: 0.8
BeatDivisor: 4
GridSize: 4

[Metadata]
Title:Macrophylla Parasol
Artist:3L
Creator:xxheroxx
Version:Normal
Source:Touhou
Tags:makuro fira makurofira parasoru NJK Records ZUN TH10 Fuujinroku Eastern Wind God Chronicles Mountain of Faith MoF Fall Autumnal Waterfall Stage 4 midboss Momiji Inubashiri Pizuya Cell Rising Star godwood YAMAGEN

[Difficulty]
HPDrainRate:4
CircleSize:4
OverallDifficulty:4
ApproachRate:5
SliderMultiplier:1.2
SliderTickRate:1

[Events]
//Background and Video events
0,0,"BG.jpg"
//Break Periods
2,149022,158531
2,243567,253076
//Storyboard Layer 0 (Background)
//Storyboard Layer 1 (Fail)
//Storyboard Layer 2 (Pass)
//Storyboard Layer 3 (Foreground)
Sprite,Foreground,Centre,"Pulse.png",320,240 M,0,116095,,320,239 S,0,116095,,1 F,0,116095,117004,1,0 F,0,130640,131550,1,0 F,0,210640,211550,1,0 F,0,225186,226095,1,0 F,0,272459,273368,1,0 F,0,285186,286095,1,0
Sprite,Foreground,Centre,"Lyrics\1.png",320,240 M,0,71777,,443,463 S,0,71777,,0.8560001 F,0,71777,71890,0.14,1 F,0,71980,78822,1 F,0,78822,78936,1,0.16
Sprite,Foreground,Centre,"Lyrics\2.png",320,240 M,0,79050,,404,462 S,0,79050,,0.8560001 F,0,79050,79163,0,1 F,0,79163,85300,1 F,0,85300,85413,1,0
Sprite,Foreground,Centre,"Lyrics\3.png",320,240 M,0,86095,,391,462 S,0,86095,,0.8560001 F,0,86095,86209,0,1 F,0,86209,92459,1 F,0,92459,92572,1,0
Sprite,Foreground,Centre,"Lyrics\4.png",320,240 M,0,92913,,443,462 S,0,92913,,0.8560001 F,0,92913,93027,0,1 F,0,93027,99959,1 F,0,99959,100072,1,0
Sprite,Foreground,Centre,"Lyrics\5.png",320,240 M,0,101550,,419,462 S,0,101550,,0.8560001 F,0,101550,101663,0,1 F,0,101663,108027,1 F,0,108027,108140,1,0
Sprite,Foreground,Centre,"Lyrics\6.png",320,240 M,0,108822,,483,462 S,0,108822,,0.8560001 F,0,108822,108936,0,1 F,0,108936,115186,1 F,0,115186,115300,1,0
Sprite,Foreground,Centre,"Lyrics\7.png",320,240 M,0,115413,,456,462 S,0,115413,,0.8560001 F,0,115413,115527,0,1 F,0,115527,123140,1 F,0,123140,123254,1,0
Sprite,Foreground,Centre,"Lyrics\8.png",320,240 M,0,123368,,469,462 S,0,123368,,0.8560001 F,0,123368,123481,0,1 F,0,123481,129731,1 F,0,129731,129845,1,0
Sprite,Foreground,Centre,"Lyrics\9.png",320,240 M,0,129959,,456,461 S,0,129959,,0.8560001 F,0,129959,130072,0,1 F,0,130072,137686,1 F,0,137686,137800,1,0
Sprite,Foreground,Centre,"Lyrics\10.png",320,240 M,0,137913,,390,461 S,0,137913,,0.8560001 F,0,137913,138027,0,1 F,0,138027,145186,1 F,0,145186,148822,1,0
Sprite,Foreground,Centre,"Lyrics\11.png",320,240 M,0,166322,,457,462 S,0,166322,,0.8560001 F,0,166322,166436,0,1 F,0,166436,173368,1 F,0,173368,173481,1,0
Sprite,Foreground,Centre,"Lyrics\12.png",320,240 M,0,173595,,393,462 S,0,173595,,0.8560001 F,0,173595,173709,0,1 F,0,173709,180186,1 F,0,180186,180300,1,0
Sprite,Foreground,Centre,"Lyrics\13.png",320,240 M,0,180640,,380,462 S,0,180640,,0.8560001 F,0,180640,180754,0,1 F,0,180754,187004,1 F,0,187004,187118,1,0
Sprite,Foreground,Centre,"Lyrics\14.png",320,240 M,0,187459,,431,462 S,0,187459,,0.8560001 F,0,187459,187572,0,1 F,0,187572,194277,1 F,0,194277,194390,1,0
Sprite,Foreground,Centre,"Lyrics\15.png",320,240 M,0,196095,,457,462 S,0,196095,,0.8560001 F,0,196095,196209,0,1 F,0,196209,202459,1 F,0,202459,202572,1,0
Sprite,Foreground,Centre,"Lyrics\16.png",320,240 M,0,203368,,470,462 S,0,203368,,0.8560001 F,0,203368,203481,0,1 F,0,203481,209731,1 F,0,209731,209845,1,0
Sprite,Foreground,Centre,"Lyrics\17.png",320,240 M,0,209959,,469,462 S,0,209959,,0.8560001 F,0,209959,210072,0,1 F,0,210072,217686,1 F,0,217686,217800,1,0
Sprite,Foreground,Centre,"Lyrics\18.png",320,240 M,0,217913,,456,462 S,0,217913,,0.8560001 F,0,217913,218027,0,1 F,0,218027,224277,1 F,0,224277,224390,1,0
Sprite,Foreground,Centre,"Lyrics\19.png",320,240 M,0,224504,,431,461 S,0,224504,,0.8560001 F,0,224504,224618,0,1 F,0,224618,232231,1 F,0,232231,232345,1,0
Sprite,Foreground,Centre,"Lyrics\20.png",320,240 M,0,232459,,403,461 S,0,232459,,0.8560001 F,0,232459,232572,0,1 F,0,232572,239731,1 F,0,239731,243368,1,0
Sprite,Foreground,Centre,"Lyrics\15.png",320,240 M,0,254163,,457,462 S,0,254163,,0.8560001 F,0,254163,254277,0,1 F,0,254277,260640,1 F,0,260640,260754,1,0
Sprite,Foreground,Centre,"Lyrics\16.png",320,240 M,0,261550,,470,462 S,0,261550,,0.8560001 F,0,261550,261663,0,1 F,0,261663,269731,1 F,0,269731,269845,1,0
Sprite,Foreground,Centre,"Lyrics\7.png",320,240 M,0,269959,,456,462 S,0,269959,,0.8560001 F,0,269959,270072,0,1 F,0,270072,277686,1 F,0,277686,277800,1,0
Sprite,Foreground,Centre,"Lyrics\8.png",320,240 M,0,277913,,469,462 S,0,277913,,0.8560001 F,0,277913,278027,0,1 F,0,278027,284277,1 F,0,284277,284390,1,0
Sprite,Foreground,Centre,"Lyrics\9.png",320,240 M,0,284504,,456,461 S,0,284504,,0.8560001 F,0,284504,284618,0,1 F,0,284618,292231,1 F,0,292231,292345,1,0
Sprite,Foreground,Centre,"Lyrics\10.png",320,240 M,0,292459,,390,461 S,0,292459,,0.8560001 F,0,292459,292572,0,1 F,0,292572,299731,1 F,0,299731,303368,1,0
//Storyboard Sound Samples
//Background Colour Transformations
3,100,255,255,255

[TimingPoints]
1550,454.545454545455,4,2,1,70,1,0
116095,-100,4,2,2,70,0,1
130527,-100,4,2,2,70,0,0
130640,-100,4,2,2,70,0,1
145186,-100,4,2,1,50,0,0
166777,-100,4,2,1,70,0,0
210640,-100,4,2,2,70,0,1
225072,-100,4,2,2,70,0,0
225186,-100,4,2,2,70,0,1
239731,-100,4,2,1,50,0,0
272231,-100,4,2,1,70,0,0
272459,-100,4,2,2,70,0,1
285072,-100,4,2,2,70,0,0
285186,-100,4,2,2,70,0,1
299731,-100,4,2,1,50,0,0

[Colours]
Combo1 : 208,164,164
Combo2 : 192,177,216

[HitObjects]
380,36,72458,2,0,B|446:32|476:92,1,120,0|8
392,136,73367,2,0,B|325:132|295:192,1,120,0|8
304,288,74276,2,0,B|273:347|206:344,2,120,0|8|0
216,248,75640,1,8
128,208,76094,6,0,B|158:148|225:151,1,120,0|8
304,208,77003,2,0,B|334:267|401:264,1,120,0|8
480,208,77912,1,0
392,168,78367,1,8
470,112,78822,2,0,B|496:59,2,60,0|0|8
380,72,79731,5,0
292,32,80185,1,8
236,112,80640,2,0,B|206:171|139:168,1,120,0|8
60,112,81549,1,0
148,72,82003,1,8
60,112,82458,2,0,B|14:161|40:222,1,120,0|8
100,300,83367,6,0,B|160:325|210:280,1,120,0|8
284,340,84276,2,0,B|333:294|394:320,1,120,0|8
484,352,85185,1,0
464,260,85640,1,8
444,168,86094,2,0,B|430:110,2,60,0|0|8
371,231,87003,6,0,B|303:234|273:175,1,120,0|8
328,96,87912,2,0,B|298:36|230:40,1,120,0|8
140,68,88822,1,0
152,164,89276,2,0,B|84:168|54:108,2,120,8|0|8
248,160,90640,6,0,B|316:156|346:216,1,120,0|8
356,312,91549,2,0,B|288:316|258:256,1,120,0|8
248,160,92458,1,0
184,88,92913,1,8
92,60,93367,2,0,B|20:48,2,60,0|0|8
184,88,94276,6,0,B|188:156|128:186,1,120,0|8
40,148,95185,1,0
4,236,95640,1,8
40,324,96094,2,0,B|70:384|138:380,1,120,0|8
228,352,97003,2,0,B|288:322|284:254,1,120,0|8
248,164,97913,6,0,B|244:96|304:66,1,120,0|8
394,38,98822,2,0,B|462:34|492:94,1,120,0|8
404,136,99731,1,0
484,192,100185,1,8
396,232,100640,2,0,B|392:300|452:330,2,120,0|8|0
404,136,102003,5,10
340,64,102458,1,0
244,48,102913,1,10
172,112,103367,2,0,B|168:180|228:210,1,120,0|10
320,232,104276,2,0,B|324:300|264:330,1,120,0|10
174,358,105185,6,0,B|106:362|76:302,3,120,0|10|0|10
48,212,107003,2,0,B|44:144|104:114,1,120,0|10
194,86,107913,2,0,B|262:82|292:142,1,120,0|10
320,232,108822,5,0
351,323,109276,1,10
441,357,109731,2,0,B|463:292|414:247,1,120,0|10
320,232,110640,1,0
289,141,111094,1,10
199,107,111549,2,0,B|176:171|225:216,1,120,0|10
289,141,112458,6,0,B|311:76|262:31,2,120,0|10|0
214,200,113822,1,10
199,107,114276,2,0,B|142:97|126:148|109:200|52:190,2,180
284,152,116094,6,0,B|352:156|382:96,1,120,4|8
396,0,117003,2,0,B|328:-4|298:56,1,120,0|8
284,152,117913,1,0
344,228,118367,1,8
360,324,118822,2,0,B|330:384|262:380,1,120,0|8
172,348,119731,5,0
156,252,120185,1,8
188,160,120640,2,0,B|218:100|286:104,1,120,0|8
376,136,121549,1,0
468,104,122003,1,8
436,12,122458,1,0
344,44,122913,1,8
376,136,123367,6,0,B|346:196|278:192,1,120,0|8
188,160,124276,1,0
220,68,124731,1,8
128,40,125185,2,0,B|60:36|30:96,2,120,0|8|0
220,68,126549,1,8
149,132,127003,6,0,B|145:200|205:230,1,120,0|8
300,216,127913,1,0
396,244,128367,1,8
444,328,128822,2,0,B|414:388|346:384,1,120,0|8
256,352,129731,1,0
256,352,129958,1,0
256,352,130185,1,8
166,384,130640,6,0,B|98:388|68:328,1,120,4|8
32,240,131549,2,0,B|100:244|130:184,1,120,0|8
164,96,132458,2,0,B|96:100|66:40,2,120,0|8|0
260,80,133822,1,8
356,64,134276,6,0,B|424:60|454:120,1,120,0|8
472,212,135185,2,0,B|476:280|416:310,1,120,0|8
324,328,136094,1,0
236,292,136549,1,8
272,204,137003,1,0
360,240,137458,1,8
324,328,137913,6,0,B|354:388|422:384,1,120,0|8
504,332,138822,1,0
496,236,139276,1,8
412,192,139731,2,0,B|354:156|364:89,1,120,0|8
412,5,140640,2,0,B|469:40|460:108,1,120,0|8
412,192,141549,6,0,B|344:182|309:239,1,120,0|8
256,320,142458,2,0,B|220:377|153:367,2,120,0|8|0
256,224,143822,1,8
208,140,144276,1,0
304,140,144731,1,8
256,192,145185,12,0,148822
216,36,159731,6,0,B|167:35|135:71|103:107|55:107,2,180,8|2|8
296,92,161550,2,0,B|344:91|376:127|408:163|456:163,2,180,8|2|8
216,148,163368,6,0,B|167:147|135:183|103:219|55:219,2,180,8|2|8
296,204,165186,2,0,B|344:203|376:239|408:275|456:275,2,180,8|2|8
216,260,167003,5,0
176,348,167458,1,8
84,324,167912,2,0,B|24:294|28:226,1,120,0|8
112,180,168822,2,0,B|172:150|168:82,1,120,0|8
88,32,169731,2,0,B|28:62|32:130,1,120,0|8
112,180,170640,5,0
204,204,171094,1,8
300,184,171549,2,0,B|366:191|386:256,1,120,0|8
392,352,172458,1,0
472,300,172912,1,8
465,204,173367,2,0,B|490:147,2,60,0|0|8
408,128,174276,6,0,B|378:68|310:72,1,120,0|8
220,108,175185,1,0
188,200,175640,1,8
200,296,176094,2,0,B|170:356|102:352,1,120,0|8
16,312,177003,2,0,B|46:252|114:256,1,120,0|8
200,296,177912,6,0,B|230:236|298:240,1,120,0|8
384,280,178822,1,0
424,368,179276,1,8
384,280,179731,1,0
460,220,180185,1,8
420,132,180640,2,0,B|395:75,2,60,0|0|8
328,156,181549,6,0,B|260:160|230:100,2,120,0|8|0
316,60,182912,1,8
236,8,183367,2,0,B|168:4|138:64,1,120,0|8
108,156,184276,2,0,B|104:224|164:254,1,120,0|8
252,288,185185,6,0,B|222:348|154:344,1,120,0|8
64,308,186094,1,0
16,224,186549,1,8
32,128,187003,2,0,B|62:68|130:72,1,120,0|8
224,84,187912,2,0,B|272:16,2,60,0|0|8
164,160,188822,6,0,B|194:220|262:216,1,120,0|8
356,192,189731,1,0
448,220,190185,1,8
476,312,190640,2,0,B|446:372|378:368,1,120,0|8
288,336,191549,2,0,B|228:306|232:238,1,120,0|8
256,144,192458,6,0,B|260:76|200:46,1,120,0|8
104,32,193367,1,0
24,84,193822,1,8
12,180,194276,2,0,B|8:248|68:278,1,120,0|8
164,292,195185,2,0,B|232:288|262:348,2,120,0|8|0
68,276,196549,5,10
112,192,197003,2,0,B|142:132|210:136,1,120,0|10
200,232,197912,2,0,B|268:236|298:176,1,120,0|10
209,136,198822,2,0,B|239:76|307:80,1,120,0|10
395,121,199731,6,0,B|365:181|297:177,3,120,0|10|0|10
209,136,201549,1,0
168,48,202003,1,10
80,84,202458,2,0,B|20:114|24:182,1,120,0|10
44,276,203367,5,0
108,348,203822,1,10
204,368,204276,2,0,B|272:372|302:312,1,120,0|10
316,216,205185,1,0
252,144,205640,1,10
156,124,206094,2,0,B|88:120|58:180,1,120,0|10
144,220,207003,6,0,B|114:280|46:276,2,120,0|10|0
156,124,208367,1,10
248,152,208822,2,0,B|292:189|263:235|234:280|278:317,2,180
156,124,210640,5,4
236,68,211094,2,0,B|304:64|334:124,1,120,8|0
324,220,212003,2,0,B|354:280|422:276,1,120,8|0
492,212,212912,1,8
476,116,213367,1,0
400,60,213822,1,8
304,48,214276,6,0,B|236:44|206:104,1,120,0|8
216,200,215185,2,0,B|186:260|118:256,1,120,0|8
48,192,216094,1,0
28,96,216549,1,8
124,76,217003,1,0
144,172,217458,1,8
48,192,217912,6,0,B|44:260|104:290,1,120,0|8
192,328,218822,1,0
284,304,219276,1,8
372,344,219731,2,0,B|440:348|470:288,1,120,0|8
496,196,220640,1,0
472,104,221094,1,8
396,48,221549,6,0,B|328:44|298:104,1,120,0|8
312,200,222458,1,0
396,244,222912,1,8
444,328,223367,2,0,B|414:388|346:384,1,120,0|8
256,352,224276,1,0
256,352,224503,1,0
256,352,224731,1,8
166,384,225185,6,0,B|98:388|68:328,1,120,4|8
48,236,226094,2,0,B|44:168|104:138,1,120,0|8
196,112,227003,2,0,B|256:82|252:14,2,120,0|8|0
156,24,228367,1,8
68,64,228822,6,0,B|8:94|12:162,1,120,0|8
108,152,229731,2,0,B|176:148|206:208,1,120,0|8
204,304,230640,1,0
116,344,231094,1,8
76,256,231549,1,0
164,216,232003,1,8
204,304,232458,6,0,B|234:364|302:360,1,120,0|8
396,340,233367,1,0
464,276,233822,1,8
488,184,234276,2,0,B|492:116|432:86,1,120,0|8
340,56,235185,1,0
252,88,235640,1,8
324,152,236094,6,0,B|371:201|344:264,1,120,0|8
256,320,237003,2,0,B|292:377|359:367,2,120,0|8|0
256,224,238368,1,8
304,140,238822,1,0
208,140,239276,1,8
256,192,239731,12,0,243367
132,36,254276,6,0,B|64:32|34:92,1,120,0|10
20,188,255185,2,0,B|16:256|76:286,1,120,0|10
168,308,256094,2,0,B|236:312|266:252,1,120,0|10
280,156,257003,2,0,B|284:88|224:58,1,120,0|10
132,36,257912,5,0
44,76,258367,1,10
120,136,258822,1,0
32,176,259276,1,10
108,232,259731,2,0,B|104:300|164:330,1,120,0|10
256,356,260640,2,0,B|324:360|354:300,1,120,0|10
376,208,261549,5,0
444,276,262003,1,10
468,184,262458,2,0,B|438:124|370:128,1,120,0|10
276,136,263367,1,0
208,68,263822,1,10
184,160,264276,2,0,B|214:220|282:216,1,120,0|10
376,208,265185,6,0,B|444:204|474:264,2,120,0|10|0
388,304,266549,1,10
300,264,267003,2,0,B|243:254|227:305|210:357|153:347,2,180
248,180,268822,2,0,B|191:170|174:222|158:273|101:263,2,180
196,96,270640,5,0
256,20,272458,1,4
316,96,272912,1,8
412,112,273367,2,0,B|479:119|498:184,1,120,0|8
492,280,274276,5,0
440,360,274731,1,8
344,352,275185,2,0,B|276:344|257:279,1,120,0|8
268,184,276094,1,0
332,112,276549,1,8
404,176,277003,1,0
340,248,277458,1,8
268,184,277912,6,0,B|200:180|170:240,1,120,0|8
132,328,278822,1,0
36,348,279276,1,8
4,256,279731,2,0,B|0:188|60:158,2,120,0|8|0
100,244,281094,1,8
196,252,281549,6,0,B|264:256|294:196,1,120,0|8
228,128,282458,1,0
132,144,282912,1,8
68,72,283367,2,0,B|98:12|166:16,1,120,0|8
256,48,284276,1,0
256,48,284503,1,0
256,48,284731,1,8
346,16,285185,6,0,B|414:12|444:72,1,120,4|8
476,160,286094,1,0
448,252,286549,1,8
352,232,287003,2,0,B|284:228|254:288,1,120,0|8
242,384,287912,2,0,B|310:388|340:328,1,120,0|8
352,232,288822,5,0
288,160,289276,1,8
192,144,289731,2,0,B|124:140|94:200,1,120,0|8
72,292,290640,1,0
144,356,291094,1,8
208,284,291549,1,0
136,220,292003,1,8
72,292,292458,6,0,B|12:262|16:194,1,120,0|8
36,100,293367,1,0
112,44,293822,1,8
208,40,294276,2,0,B|276:36|306:96,1,120,0|8
220,136,295185,2,0,B|250:196|318:192,1,120,0|8
412,168,296094,5,0
460,252,296549,1,8
432,344,297003,1,0
340,376,297458,1,8
256,328,297912,2,0,B|256:252,2,60,0|0|8
172,376,298822,1,0
80,344,299276,1,8
256,192,299731,12,0,303367
