osu file format v9

[General]
AudioFilename: Song.mp3
AudioLeadIn: 0
PreviewTime: 115413
Countdown: 0
SampleSet: Soft
StackLeniency: 0.7
Mode: 0
LetterboxInBreaks: 0

[Editor]
Bookmarks: 1550,30640,57913,72459,101550,116095,145186,159731,167004,196095,210640,239731,254277,270640,299731
DistanceSpacing: 1
BeatDivisor: 4
GridSize: 4

[Metadata]
Title:Macrophylla Parasol
Artist:3L
Creator:xxheroxx
Version:Hard
Source:Touhou
Tags:makuro fira makurofira parasoru NJK Records ZUN TH10 Fuujinroku Eastern Wind God Chronicles Mountain of Faith MoF Fall Autumnal Waterfall Stage 4 midboss Momiji Inubashiri Pizuya Cell Rising Star godwood YAMAGEN

[Difficulty]
HPDrainRate:6
CircleSize:5
OverallDifficulty:7
ApproachRate:8
SliderMultiplier:1.6
SliderTickRate:1

[Events]
//Background and Video events
0,0,"BG.jpg"
//Break Periods
2,149022,158981
2,243567,253527
//Storyboard Layer 0 (Background)
//Storyboard Layer 1 (Fail)
//Storyboard Layer 2 (Pass)
//Storyboard Layer 3 (Foreground)
Sprite,Foreground,Centre,"Pulse.png",320,240 M,0,116095,,320,239 S,0,116095,,1 F,0,116095,117004,1,0 F,0,130640,131550,1,0 F,0,210640,211550,1,0 F,0,225186,226095,1,0 F,0,272459,273368,1,0 F,0,285186,286095,1,0
Sprite,Foreground,Centre,"Lyrics\1.png",320,240 M,0,71777,,443,463 S,0,71777,,0.8560001 F,0,71777,71890,0.14,1 F,0,71980,78822,1 F,0,78822,78936,1,0.16
Sprite,Foreground,Centre,"Lyrics\2.png",320,240 M,0,79050,,404,462 S,0,79050,,0.8560001 F,0,79050,79163,0,1 F,0,79163,85300,1 F,0,85300,85413,1,0
Sprite,Foreground,Centre,"Lyrics\3.png",320,240 M,0,86095,,391,462 S,0,86095,,0.8560001 F,0,86095,86209,0,1 F,0,86209,92459,1 F,0,92459,92572,1,0
Sprite,Foreground,Centre,"Lyrics\4.png",320,240 M,0,92913,,443,462 S,0,92913,,0.8560001 F,0,92913,93027,0,1 F,0,93027,99959,1 F,0,99959,100072,1,0
Sprite,Foreground,Centre,"Lyrics\5.png",320,240 M,0,101550,,419,462 S,0,101550,,0.8560001 F,0,101550,101663,0,1 F,0,101663,108027,1 F,0,108027,108140,1,0
Sprite,Foreground,Centre,"Lyrics\6.png",320,240 M,0,108822,,483,462 S,0,108822,,0.8560001 F,0,108822,108936,0,1 F,0,108936,115186,1 F,0,115186,115300,1,0
Sprite,Foreground,Centre,"Lyrics\7.png",320,240 M,0,115413,,456,462 S,0,115413,,0.8560001 F,0,115413,115527,0,1 F,0,115527,123140,1 F,0,123140,123254,1,0
Sprite,Foreground,Centre,"Lyrics\8.png",320,240 M,0,123368,,469,462 S,0,123368,,0.8560001 F,0,123368,123481,0,1 F,0,123481,129731,1 F,0,129731,129845,1,0
Sprite,Foreground,Centre,"Lyrics\9.png",320,240 M,0,129959,,456,461 S,0,129959,,0.8560001 F,0,129959,130072,0,1 F,0,130072,137686,1 F,0,137686,137800,1,0
Sprite,Foreground,Centre,"Lyrics\10.png",320,240 M,0,137913,,390,461 S,0,137913,,0.8560001 F,0,137913,138027,0,1 F,0,138027,145186,1 F,0,145186,148822,1,0
Sprite,Foreground,Centre,"Lyrics\11.png",320,240 M,0,166322,,457,462 S,0,166322,,0.8560001 F,0,166322,166436,0,1 F,0,166436,173368,1 F,0,173368,173481,1,0
Sprite,Foreground,Centre,"Lyrics\12.png",320,240 M,0,173595,,393,462 S,0,173595,,0.8560001 F,0,173595,173709,0,1 F,0,173709,180186,1 F,0,180186,180300,1,0
Sprite,Foreground,Centre,"Lyrics\13.png",320,240 M,0,180640,,380,462 S,0,180640,,0.8560001 F,0,180640,180754,0,1 F,0,180754,187004,1 F,0,187004,187118,1,0
Sprite,Foreground,Centre,"Lyrics\14.png",320,240 M,0,187459,,431,462 S,0,187459,,0.8560001 F,0,187459,187572,0,1 F,0,187572,194277,1 F,0,194277,194390,1,0
Sprite,Foreground,Centre,"Lyrics\15.png",320,240 M,0,196095,,457,462 S,0,196095,,0.8560001 F,0,196095,196209,0,1 F,0,196209,202459,1 F,0,202459,202572,1,0
Sprite,Foreground,Centre,"Lyrics\16.png",320,240 M,0,203368,,470,462 S,0,203368,,0.8560001 F,0,203368,203481,0,1 F,0,203481,209731,1 F,0,209731,209845,1,0
Sprite,Foreground,Centre,"Lyrics\17.png",320,240 M,0,209959,,469,462 S,0,209959,,0.8560001 F,0,209959,210072,0,1 F,0,210072,217686,1 F,0,217686,217800,1,0
Sprite,Foreground,Centre,"Lyrics\18.png",320,240 M,0,217913,,456,462 S,0,217913,,0.8560001 F,0,217913,218027,0,1 F,0,218027,224277,1 F,0,224277,224390,1,0
Sprite,Foreground,Centre,"Lyrics\19.png",320,240 M,0,224504,,431,461 S,0,224504,,0.8560001 F,0,224504,224618,0,1 F,0,224618,232231,1 F,0,232231,232345,1,0
Sprite,Foreground,Centre,"Lyrics\20.png",320,240 M,0,232459,,403,461 S,0,232459,,0.8560001 F,0,232459,232572,0,1 F,0,232572,239731,1 F,0,239731,243368,1,0
Sprite,Foreground,Centre,"Lyrics\15.png",320,240 M,0,254163,,457,462 S,0,254163,,0.8560001 F,0,254163,254277,0,1 F,0,254277,260640,1 F,0,260640,260754,1,0
Sprite,Foreground,Centre,"Lyrics\16.png",320,240 M,0,261550,,470,462 S,0,261550,,0.8560001 F,0,261550,261663,0,1 F,0,261663,269731,1 F,0,269731,269845,1,0
Sprite,Foreground,Centre,"Lyrics\7.png",320,240 M,0,269959,,456,462 S,0,269959,,0.8560001 F,0,269959,270072,0,1 F,0,270072,277686,1 F,0,277686,277800,1,0
Sprite,Foreground,Centre,"Lyrics\8.png",320,240 M,0,277913,,469,462 S,0,277913,,0.8560001 F,0,277913,278027,0,1 F,0,278027,284277,1 F,0,284277,284390,1,0
Sprite,Foreground,Centre,"Lyrics\9.png",320,240 M,0,284504,,456,461 S,0,284504,,0.8560001 F,0,284504,284618,0,1 F,0,284618,292231,1 F,0,292231,292345,1,0
Sprite,Foreground,Centre,"Lyrics\10.png",320,240 M,0,292459,,390,461 S,0,292459,,0.8560001 F,0,292459,292572,0,1 F,0,292572,299731,1 F,0,299731,303368,1,0
//Storyboard Sound Samples
//Background Colour Transformations
3,100,255,255,255

[TimingPoints]
1550,454.545454545455,4,2,1,70,1,0
116095,-100,4,2,2,70,0,1
130527,-100,4,2,2,70,0,0
130640,-100,4,2,2,70,0,1
145186,-100,4,2,1,50,0,0
158822,-133.333333333333,4,2,1,50,0,0
166890,-100,4,2,1,70,0,0
210640,-100,4,2,2,70,0,1
225072,-100,4,2,2,70,0,0
225186,-100,4,2,2,70,0,1
239731,-100,4,2,1,50,0,0
253368,-133.333333333333,4,2,1,50,0,0
272004,-100,4,2,1,70,0,0
272459,-100,4,2,2,70,0,1
285072,-100,4,2,2,70,0,0
285186,-100,4,2,2,70,0,1
299731,-100,4,2,1,50,0,0

[Colours]
Combo1 : 208,164,164
Combo2 : 192,177,216

[HitObjects]
111,76,72459,2,0,B|95:30|48:40,1,80,8|0
28,156,72913,2,0,B|44:202|91:192,1,80,8|0
204,152,73368,1,8
220,72,73595,1,0
280,20,73822,1,8
360,12,74050,1,0
436,32,74277,6,0,B|482:48|472:95,1,80,8|0
404,192,74731,2,0,B|358:176|368:129,1,80,8|0
480,172,75186,2,0,B|484:265|392:287,1,160,8|8
312,280,75868,1,0
236,252,76095,6,0,B|142:235|110:323,1,160,8|8
36,352,76777,1,0
12,276,77004,2,0,B|2:229|48:213,1,80,8|0
160,125,77459,2,0,B|170:172|124:188,1,80,8|0
64,140,77913,6,0,B|64:45|156:28,1,160,8|8
236,40,78595,1,0
288,100,78822,2,0,B|334:84|324:37,1,80,8|0
412,81,79277,2,0,B|366:97|376:144,1,80,8|0
464,141,79731,5,8
492,216,79959,1,0
484,296,80186,1,8
436,360,80413,2,0,B|389:370|373:324,1,80,0|8
232,336,80868,2,0,B|222:289|268:273,1,80,0|8
344,248,81322,1,0
384,176,81550,6,0,B|368:130|321:140,1,80,8|0
229,32,82004,2,0,B|276:22|292:68,1,80,8|0
244,132,82459,1,8
164,120,82686,1,0
120,52,82913,1,8
40,40,83140,1,0
24,120,83368,6,0,B|7:213|95:245,1,160,8|8
176,228,84050,1,0
181,304,84277,2,0,B|228:314|244:268,1,80,8|0
48,360,84731,2,0,B|64:314|111:324,1,80,8|0
184,380,85186,6,0,B|277:396|309:308,1,160,8|8
316,228,85868,1,0
392,208,86095,2,0,B|439:198|455:244,1,80,8|0
463,352,86550,2,0,B|416:362|400:316,1,80,8|0
392,208,87004,5,8
448,152,87231,1,0
456,72,87459,1,8
400,16,87686,2,0,B|353:6|337:52,1,80,0|8
248,164,88140,2,0,B|295:174|311:128,1,80,0|8
256,68,88595,1,0
180,44,88822,6,0,B|133:34|117:80,1,80,8|0
56,236,89277,2,0,B|103:246|119:200,1,80,8|0
64,140,89731,2,0,B|18:124|28:77,1,80,8|0
172,140,90186,2,0,B|218:156|208:203,1,80,8|0
188,280,90640,5,8
216,356,90868,1,0
292,380,91095,1,8
368,356,91322,1,0
404,284,91550,2,0,B|388:238|341:248,1,80,8|0
512,380,92004,2,0,B|466:364|476:317,1,80,8|0
500,240,92459,6,0,B|524:148|439:109,1,160,8|8
320,84,93140,1,0
200,76,93368,2,0,B|153:157|224:218,1,160,8|8
332,273,94049,1,0
300,344,94277,5,8
228,376,94504,1,0
152,356,94731,2,0,B|106:340|116:293,1,80,8|0
100,148,95186,2,0,B|146:164|136:211,1,80,8|0
60,236,95640,1,8
12,172,95868,1,0
36,96,96095,6,0,B|52:50|99:60,1,80,8|0
292,108,96550,2,0,B|276:154|229:144,1,80,8|0
200,40,97004,2,0,B|216:91|164:102|111:113|128:164,1,160,8|8
164,236,97686,1,0
240,260,97913,6,0,B|333:276|365:187,1,160,8|8
440,220,98595,1,0
428,300,98822,2,0,B|334:283|302:372,1,160,8|8
228,340,99504,1,0
144,356,99731,6,0,B|96:361|84:314,1,80,8|0
4,192,100186,2,0,B|51:186|63:233,1,80,8|0
144,256,100640,2,0,B|178:236,3,40,8|0|0|0
216,216,101095,2,0,B|250:196,3,40,8|0|0|0
288,176,101550,6,0,B|322:156,2,40,8|0|0
352,228,102004,1,10
428,208,102231,2,0,B|474:192|464:145,1,80,0|8
436,72,102686,2,0,B|420:26|373:36,1,80,0|10
300,64,103140,1,0
224,40,103368,5,8
276,140,103595,1,0
148,76,103822,1,10
200,176,104050,2,0,B|220:216,2,40,0|0|8
124,152,104504,1,0
48,168,104731,2,0,B|1:180|7:227,1,80,10|0
20,308,105186,6,0,B|32:355|79:349,1,80,8|0
236,328,105640,2,0,B|283:316|277:269,1,80,10|0
238,112,106095,2,0,B|232:65|279:53,1,80,8|0
436,32,106549,2,0,B|483:26|495:73,1,80,10|0
508,232,107004,5,8
488,308,107231,1,0
428,360,107459,1,10
400,284,107686,2,0,B|380:236,2,40,0|0|8
348,344,108140,1,0
272,324,108368,2,0,B|252:276,2,40,10|0|0
284,171,108822,6,0,B|300:208,2,40,8|0|0
236,108,109277,1,10
156,92,109504,2,0,B|109:86|97:133,1,80,0|8
104,8,109959,2,0,B|92:55|45:49,1,80,0|10
16,124,110413,1,0
40,200,110640,6,0,B|52:247|99:241,1,80,8|0
176,220,111095,1,10
156,296,111322,2,0,B|181:363,2,40,0|0|8
80,316,111777,1,0
176,220,112004,1,10
80,316,112231,1,0
40,200,112459,6,0,B|56:248,2,40,8|0|0
16,124,112913,1,10
76,72,113140,2,0,B|60:24,2,40,0|0|8
100,148,113594,1,0
176,168,113822,2,0,B|223:180|217:227,1,80,10|0
208,308,114277,5,0
212,324,114504,1,0
220,336,114731,1,0
232,348,114959,1,0
248,356,115186,1,0
280,364,115413,1,0
328,368,115640,1,0
392,352,115868,1,0
456,304,116095,5,4
468,224,116322,2,0,B|474:177|427:165,1,80,0|8
348,152,116777,1,0
276,188,117004,1,0
197,175,117232,2,0,B|150:163|156:116,1,80,0|8
168,36,117686,1,0
248,20,117913,6,0,B|295:14|307:61,1,80,0|0
428,48,118368,2,0,B|475:42|487:89,1,80,8|0
396,168,118822,2,0,B|349:162|337:209,1,80,0|0
216,196,119277,2,0,B|169:190|157:237,1,80,8|0
248,316,119731,5,0
188,368,119959,1,0
108,380,120186,1,8
36,344,120413,2,0,B|48:297|95:303,1,80,0|0
216,196,120868,2,0,B|204:243|157:237,1,80,0|8
80,224,121322,1,0
84,144,121550,6,0,B|96:97|143:103,1,80
275,155,122004,2,0,B|263:202|216:196,1,80,8|0
200,60,122459,2,0,B|212:13|259:19,1,80
391,71,122914,2,0,B|379:118|332:112,1,80,8|0
428,184,123368,5,0
476,248,123595,1,0
472,328,123822,1,8
408,376,124049,1,0
328,368,124277,2,0,B|281:356|287:309,1,80
260,152,124731,2,0,B|307:164|301:211,1,80,8|0
232,252,125186,5,0
152,264,125413,1,0
136,344,125640,1,8
56,356,125868,2,0,B|9:344|15:297,1,80
28,220,126322,1,0
3,81,126550,2,0,B|50:93|44:140,1,80,8|0
28,220,127004,6,0,B|70:241|97:201,1,80,0|0
140,132,127459,2,0,B|161:90|121:63,1,80,8|0
216,40,127913,2,0,B|195:82|235:109,1,80,0|0
304,152,128368,2,0,B|346:173|373:133,1,80,8|0
416,64,128822,5,0
442,177,129050,1,0
416,292,129277,1,8
442,179,129505,1,0
416,292,129731,1,0
303,318,129959,1,0
416,292,130186,1,8
303,318,130413,1,0
192,288,130640,6,0,B|145:282|133:329,1,80,4|0
0,360,131095,2,0,B|47:366|59:319,1,80,8|0
72,240,131550,1,0
32,172,131777,1,0
28,92,132004,1,8
76,28,132231,1,0
156,12,132459,6,0,B|203:6|215:53,1,80
113,161,132913,2,0,B|125:114|172:120,1,80,8|0
342,48,133368,2,0,B|330:95|283:89,1,80,0|0
299,197,133822,2,0,B|252:203|240:156,1,80,8|0
376,176,134277,5,0
456,184,134504,1,0
504,248,134731,1,8
488,328,134959,2,0,B|476:375|429:369,1,80
305,365,135413,2,0,B|317:318|364:324,1,80,0|8
400,252,135868,1,0
376,176,136095,6,0,B|364:129|317:135,1,80
196,136,136550,2,0,B|208:183|255:177,1,80,8|0
292,64,137004,2,0,B|280:17|233:23,1,80
112,24,137459,2,0,B|124:71|171:65,1,80,8|0
292,64,137913,5,0
316,140,138140,1,0
292,216,138368,1,8
224,256,138595,1,0
148,236,138822,2,0,B|101:230|89:277,1,80
0,384,139277,2,0,B|47:390|59:343,1,80,8|0
12,280,139731,5,0
24,200,139959,1,0
80,144,140186,1,8
156,124,140413,1,0
200,56,140640,2,0,B|188:9|141:15,1,80
21,103,141095,2,0,B|33:150|80:144,1,80,8|0
156,124,141550,6,0,B|245:156|229:249,1,160,0|8
120,364,142459,1,0
392,364,142913,1,8
328,216,143368,6,0,B|255:277|184:216,1,160,0|8
184,56,144277,1,0
256,20,144504,1,0
328,56,144731,1,8
256,192,145185,12,0,148822
91,32,159731,6,0,B|142:62,2,59.9999982118607,10|0|8
80,108,160413,2,0,B|28:78,1,59.9999982118607,2|8
24,156,160868,2,0,B|75:186,1,59.9999982118607,2|8
144,224,161322,1,0
224,224,161550,6,0,B|275:254,2,59.9999982118607,10|0|8
184,292,162231,2,0,B|235:322,1,59.9999982118607,2|8
316,324,162686,2,0,B|367:354,1,59.9999982118607,2|8
444,332,163140,1,0
444,252,163368,6,0,B|392:222,2,59.9999982118607,10|0|8
480,184,164050,2,0,B|428:154,1,59.9999982118607,2|8
428,76,164504,2,0,B|376:46,1,59.9999982118607,2|8
296,48,164959,1,0
256,116,165186,6,0,B|204:146,2,59.9999982118607,10|0|8
268,192,165868,2,0,B|319:162,1,59.9999982118607,2|8
328,240,166322,2,0,B|276:270,1,59.9999982118607,2|8
204,308,166777,1,0
68,344,167004,6,0,B|80:297|127:303,1,80,8|0
168,188,167459,2,0,B|156:235|109:229,1,80,8|0
32,208,167913,1,8
4,132,168140,1,0
20,52,168368,1,8
92,16,168595,1,0
172,28,168822,6,0,B|219:40|213:87,1,80,8|0
281,211,169277,2,0,B|287:164|240:152,1,80,8|0
160,148,169731,1,8
136,224,169959,2,0,B|130:271|177:283,1,80,0|8
256,288,170413,1,0
332,316,170640,6,0,B|338:363|291:375,1,80,8|0
212,380,171095,1,8
184,304,171322,2,0,B|172:257|125:263,1,80,0|8
32,336,171777,2,0,B|44:383|91:377,1,80,0|8
52,264,172231,1,0
36,184,172459,6,0,B|30:137|77:125,1,80,8|0
156,104,172913,1,8
236,120,173140,2,0,B|283:108|277:61,1,80,0|8
392,24,173595,2,0,B|345:36|351:83,1,80,0|8
472,40,174050,1,0
496,116,174277,5,8
492,196,174504,1,0
428,244,174731,1,8
348,244,174959,2,0,B|301:256|307:303,1,80,0|8
191,383,175413,2,0,B|185:336|232:324,1,80,0|8
356,364,175868,1,0
436,380,176095,5,8
500,336,176322,1,0
512,256,176550,1,8
484,180,176777,2,0,B|472:133|425:139,1,80,0|8
285,107,177231,2,0,B|297:154|344:148,1,80,0|8
452,60,177686,1,0
380,24,177913,5,8
304,4,178140,1,0
228,24,178368,1,8
176,84,178595,1,0
168,164,178822,2,0,B|156:211|109:205,1,80,8|0
48,92,179277,2,0,B|60:45|107:51,1,80,8|0
40,172,179731,5,8
12,248,179959,1,0
32,324,180186,2,0,B|44:371|91:365,1,80,8|0
199,345,180640,2,0,B|187:298|140:304,1,80,8|0
255,265,181095,2,0,B|208:271|196:224,1,80,8|0
176,104,181550,5,8
232,48,181777,1,0
312,32,182004,2,0,B|359:26|371:73,1,80,8|0
487,169,182459,2,0,B|440:175|428:128,1,80,8|0
448,48,182913,1,8
350,152,183140,1,0
448,256,183368,5,8
424,332,183595,1,0
356,372,183822,1,8
276,356,184050,2,0,B|229:344|235:297,1,80,0|8
255,185,184504,2,0,B|302:197|296:244,1,80,0|8
173,350,184959,1,0
96,364,185186,6,0,B|49:370|37:323,1,80,8|0
28,244,185640,2,0,B|22:197|69:185,1,80,8|0
148,180,186095,1,8
224,152,186322,1,0
260,80,186550,2,0,B|266:33|219:21,1,80,8|0
140,16,187004,5,8
68,48,187231,1,0
40,124,187459,2,0,B|34:171|81:183,1,80,8|0
192,224,187913,2,0,B|198:177|151:165,1,80,8|0
72,256,188368,2,0,B|66:303|113:315,1,80,8|0
232,304,188822,5,8
312,320,189050,1,0
376,368,189277,1,8
456,352,189504,2,0,B|503:340|497:293,1,80,0|8
379,217,189959,2,0,B|373:264|420:276,1,80,0|8
480,172,190413,1,0
440,60,190640,5,8
364,32,190868,1,0
284,48,191095,2,0,B|237:60|243:107,1,80,8|0
211,247,191550,2,0,B|258:235|252:188,1,80,8|0
160,112,192004,2,0,B|113:124|119:171,1,80,8|0
140,292,192459,6,0,B|146:339|99:351,1,80,8|0
20,344,192913,1,8
0,268,193140,2,0,B|-6:221|41:209,1,80,0|8
116,188,193595,1,0
160,120,193822,2,0,B|166:73|119:61,1,80,8|0
40,52,194277,5,8
44,132,194504,1,0
64,216,194731,1,8
116,296,194959,1,0
204,352,195186,1,8
312,372,195413,1,0
432,352,195640,1,8
500,240,195868,1,0
480,104,196095,5,8
400,92,196322,2,0,B|353:86|341:133,1,80,0|10
328,212,196777,1,0
256,244,197004,2,0,B|209:232|215:185,1,80,8|0
228,108,197459,2,0,B|234:61|187:49,1,80,10|0
108,36,197913,5,8
36,72,198140,1,0
16,148,198368,1,10
92,176,198595,2,0,B|139:188|133:235,1,80,0|8
68,284,199050,2,0,B|21:272|27:225,1,80,0|10
140,312,199504,1,0
196,372,199731,6,0,B|243:378|255:331,1,80,8|0
412,300,200185,2,0,B|400:347|353:341,1,80,10|0
232,236,200640,2,0,B|244:189|291:195,1,80,8|0
448,164,201096,2,0,B|401:158|389:205,1,80,10|0
460,60,201550,5,8
388,24,201777,1,0
308,12,202004,1,10
228,28,202231,2,0,B|181:40|187:87,1,80,0|8
163,223,202686,2,0,B|210:211|204:164,1,80,0|10
84,236,203140,1,0
32,344,203368,5,8
104,376,203595,1,0
184,364,203822,1,10
252,320,204050,2,0,B|299:314|311:361,1,80,0|8
432,364,204504,2,0,B|385:370|373:323,1,80,0|10
488,284,204959,1,0
492,164,205186,5,8
468,88,205413,1,0
404,44,205640,1,10
324,28,205868,2,0,B|277:22|265:69,1,80,0|8
372,120,206322,2,0,B|360:167|313:161,1,80,0|10
204,112,206777,1,0
256,220,207004,6,0,B|244:267|197:261,1,80,8|0
21,285,207459,2,0,B|33:238|80:244,1,80,10|0
115,319,207913,2,0,B|103:366|56:360,1,80,8|0
144,204,208368,2,0,B|156:157|203:163,1,80,10|0
312,216,208822,5,0
324,228,209050,1,0
336,236,209277,1,0
352,244,209504,1,0
368,248,209731,1,0
400,248,209959,1,0
444,232,210186,1,0
488,184,210413,1,0
504,104,210640,5,4
468,32,210868,2,0,B|448:-12|402:1,1,80,0|8
328,32,211322,1,0
316,112,211550,1,0
348,184,211777,2,0,B|336:231|289:225,1,80,0|8
212,204,212231,1,0
136,184,212459,6,0,B|89:178|77:225,1,80,0|0
143,345,212913,2,0,B|96:351|84:304,1,80,8|0
279,291,213368,2,0,B|267:338|220:332,1,80,0|0
213,171,213822,2,0,B|260:165|272:212,1,80,8|0
136,184,214277,5,0
60,164,214504,1,0
20,96,214731,1,8
68,32,214959,2,0,B|115:44|109:91,1,80,0|0
217,111,215413,2,0,B|170:99|176:52,1,80,0|8
240,4,215868,1,0
316,28,216095,6,0,B|363:40|357:87,1,80,0|0
476,92,216550,2,0,B|464:139|417:133,1,80,8|0
296,132,217004,2,0,B|249:126|237:173,1,80,0|0
356,178,217458,2,0,B|350:225|397:237,1,80,8|0
512,276,217913,5,0
468,344,218140,1,0
392,372,218368,1,8
316,348,218595,1,0
288,272,218822,2,0,B|276:225|229:231,1,80,0|0
88,200,219277,2,0,B|100:247|147:241,1,80,8|0
196,304,219731,5,0
152,372,219959,1,0
72,384,220186,1,8
0,348,220413,2,0,B|12:301|59:307,1,80,0|0
56,228,220868,1,0
187,223,221095,2,0,B|140:216|128:264,1,80,8|0
68,148,221550,6,0,B|74:101|27:89,1,80,0|0
148,88,222004,2,0,B|101:76|107:29,1,80,8|0
228,76,222459,2,0,B|275:88|269:135,1,80,0|0
308,16,222913,2,0,B|302:63|349:75,1,80,8|0
460,36,223368,5,0
498,147,223595,1,0
386,185,223822,1,8
498,147,224050,1,0
386,185,224277,1,0
424,296,224504,1,0
386,185,224731,1,8
424,296,224959,1,0
312,334,225186,6,0,B|265:340|253:293,1,80,4|0
171,165,225640,2,0,B|218:177|212:224,1,80,8|0
176,296,226095,1,0
112,348,226322,1,0
32,336,226550,1,8
4,260,226777,1,0
20,180,227004,6,0,B|32:133|79:139,1,80,0|0
103,27,227459,2,0,B|91:74|44:68,1,80,8|0
164,72,227913,2,0,B|176:25|223:31,1,80,0|0
188,144,228368,2,0,B|141:138|129:185,1,80,8|0
120,304,228822,5,0
168,368,229050,1,0
248,384,229277,1,8
272,308,229504,2,0,B|284:261|331:267,1,80,0|0
451,361,229959,2,0,B|404:367|392:320,1,80,0|8
452,264,230413,1,0
488,192,230640,6,0,B|494:145|447:133,1,80,0|0
331,53,231095,2,0,B|325:100|372:112,1,80,8|0
484,28,231550,2,0,B|437:22|425:69,1,80,0|0
394,176,232004,2,0,B|382:223|335:217,1,80,8|0
220,180,232459,5,0
164,120,232686,1,0
148,40,232913,1,8
76,8,233140,1,0
8,52,233368,2,0,B|20:99|67:93,1,80,0|0
108,204,233822,2,0,B|96:157|49:163,1,80,8|0
16,276,234277,5,0
64,340,234504,1,0
144,364,234731,1,8
220,336,234959,1,0
248,260,235186,2,0,B|260:213|307:219,1,80,0|0
425,141,235640,2,0,B|431:188|384:200,1,80,8|0
348,128,236095,6,0,B|316:39|223:55,1,160,0|8
120,176,237004,1,0
392,176,237459,1,8
328,324,237913,6,0,B|255:385|184:324,1,160,0|8
256,180,238822,1,0
256,100,239049,1,0
256,20,239276,1,8
256,192,239731,12,0,243367
480,32,254277,6,0,B|463:59|431:60,1,59.9999982118607,10|0
352,100,254731,2,0,B|368:127|401:128,1,59.9999982118607,8|0
484,168,255186,2,0,B|467:195|434:196,1,59.9999982118607,10|0
356,236,255640,2,0,B|372:263|405:264,1,59.9999982118607,8|0
488,304,256095,6,0,B|471:331|438:332,1,59.9999982118607,10|0
348,320,256550,1,8
268,360,256777,1,0
180,344,257004,2,0,B|152:327|151:294,1,59.9999982118607,10|0
196,216,257459,1,8
192,128,257686,1,0
148,48,257913,6,0,B|131:20|98:19,1,59.9999982118607,10|0
16,60,258368,2,0,B|32:87|65:88,1,59.9999982118607,8|0
76,180,258822,2,0,B|59:152|26:151,1,59.9999982118607,10|0
32,244,259277,2,0,B|48:271|81:272,1,59.9999982118607,8|0
172,264,259731,5,10
260,284,259959,1,0
324,344,260186,1,8
408,376,260413,1,0
488,336,260640,1,10
488,248,260868,1,0
410,201,261095,1,8
325,227,261322,1,0
260,284,261550,6,0,B|244:311|211:312,1,59.9999982118607,10|0
128,276,262004,2,0,B|101:260|99:226,1,59.9999982118607,8|0
116,136,262459,1,10
196,96,262686,1,0
120,44,262913,1,8
32,32,263140,1,0
20,120,263368,6,0,B|22:153|49:169,1,59.9999982118607,10|0
131,206,263822,2,0,B|164:204|180:177,1,59.9999982118607,8|0
216,92,264277,1,10
272,24,264504,1,0
360,4,264731,1,8
448,28,264959,1,0
484,112,265186,6,0,B|454:171|388:168,1,119.999996423721,8|8
28,272,266095,2,0,B|58:213|124:216,1,119.999996423721,8|8
512,332,267004,6,0,B|420:315|360:244,2,179.999994635582,10|2|8
0,332,268822,6,0,B|91:315|152:244,2,179.999994635582
256,376,270640,5,0
256,368,270868,1,0
256,360,271322,1,0
256,352,271777,1,0
256,344,272231,1,0
256,264,272459,5,4
228,188,272686,2,0,B|222:141|269:129,1,80,0|8
389,77,273140,2,0,B|395:124|348:136,1,80
353,5,273595,2,0,B|306:17|312:64,1,80,0|8
424,16,274050,1,0
471,128,274277,5,0
488,208,274504,1,0
484,288,274731,1,8
416,332,274959,2,0,B|369:338|357:291,1,80
236,292,275413,2,0,B|283:286|295:333,1,80,0|8
224,372,275868,1,0
148,352,276095,6,0,B|101:340|107:293,1,80
95,161,276550,2,0,B|142:173|136:220,1,80,8|0
24,176,277004,2,0,B|18:223|65:235,1,80
46,108,277459,2,0,B|52:61|5:49,1,80,8|0
120,16,277913,5,0
200,16,278140,1,0
268,56,278368,1,8
348,68,278595,1,0
420,32,278822,2,0,B|467:26|479:73,1,80
451,211,279277,2,0,B|498:199|492:152,1,80,8|0
372,196,279731,5,0
304,236,279959,1,0
280,312,280186,1,8
316,384,280413,1,0
396,376,280640,2,0,B|443:382|455:335,1,80
451,211,281095,2,0,B|404:205|392:252,1,80,8|0
368,132,281550,6,0,B|415:138|427:91,1,80,0|0
333,61,282004,2,0,B|345:14|392:20,1,80,8|0
292,128,282459,2,0,B|280:175|233:169,1,80
257,57,282913,2,0,B|210:51|198:98,1,80,8|0
168,212,283368,5,0
53,181,283595,1,0
21,294,283822,1,8
53,181,284050,1,0
21,294,284277,1,0
136,324,284504,1,0
21,294,284731,1,8
136,324,284959,1,0
168,212,285186,6,0,B|180:165|227:171,1,80,4|0
345,243,285640,2,0,B|351:196|304:184,1,80,8|0
340,324,286095,1,0
400,376,286322,1,0
476,352,286550,1,8
500,276,286777,1,0
476,200,287004,6,0,B|464:153|417:159,1,80,0|0
356,108,287459,2,0,B|350:61|397:49,1,80,8|0
340,184,287913,2,0,B|293:190|281:143,1,80,0|0
201,27,288368,2,0,B|248:21|260:68,1,80,8|0
124,40,288822,5,0
68,96,289050,1,0
56,176,289277,1,8
84,252,289504,2,0,B|72:299|25:293,1,80,0|0
136,336,289959,2,0,B|89:330|77:377,1,80,0|8
200,380,290413,1,0
280,368,290640,6,0,B|327:356|321:309,1,80,0|0
349,173,291095,2,0,B|302:185|308:232,1,80,8|0
400,308,291550,2,0,B|447:296|441:249,1,80,0|0
469,113,292004,2,0,B|422:125|428:172,1,80,8|0
428,52,292459,5,0
352,24,292686,1,0
272,28,292913,1,8
200,64,293140,1,0
120,80,293368,2,0,B|73:86|61:39,1,80,0|0
68,160,293822,2,0,B|56:113|9:119,1,80,8|0
28,236,294277,5,0
60,308,294504,1,0
120,360,294731,1,8
196,380,294959,1,0
276,368,295186,2,0,B|323:356|317:309,1,80,0|0
345,173,295640,2,0,B|298:185|304:232,1,80,8|0
424,164,296095,6,0,B|471:152|465:105,1,80,0|0
360,40,296550,2,0,B|313:52|319:99,1,80,8|0
193,99,297004,2,0,B|199:52|152:40,1,80,0|0
47,105,297459,2,0,B|41:152|88:164,1,80,8|0
204,192,297913,5,0
256,84,298140,2,0,B|256:28,2,40,0|0|8
308,192,298595,1,0
360,300,298822,1,0
152,300,299277,1,8
256,192,299731,12,0,303367
