osu file format v9

[General]
AudioFilename: Song.mp3
AudioLeadIn: 0
PreviewTime: 115413
Countdown: 0
SampleSet: Soft
StackLeniency: 0.7
Mode: 0
LetterboxInBreaks: 0

[Editor]
Bookmarks: 1550,30640,57913,72459,101550,116095,145186,159731,167004,196095,210640,239731,254277,270640,299731
DistanceSpacing: 0.8
BeatDivisor: 4
GridSize: 16

[Metadata]
Title:Macrophylla Parasol
Artist:3L
Creator:xxheroxx
Version:Easy
Source:Touhou
Tags:makuro fira makurofira parasoru NJK Records ZUN TH10 Fuujinroku Eastern Wind God Chronicles Mountain of Faith MoF Fall Autumnal Waterfall Stage 4 midboss Momiji Inubashiri Pizuya Cell Rising Star godwood YAMAGEN

[Difficulty]
HPDrainRate:2
CircleSize:3
OverallDifficulty:2
ApproachRate:2
SliderMultiplier:1
SliderTickRate:1

[Events]
//Background and Video events
0,0,"BG.jpg"
//Break Periods
2,149022,158171
2,243567,252717
//Storyboard Layer 0 (Background)
//Storyboard Layer 1 (Fail)
//Storyboard Layer 2 (Pass)
//Storyboard Layer 3 (Foreground)
Sprite,Foreground,Centre,"Pulse.png",320,240 M,0,116095,,320,239 S,0,116095,,1 F,0,116095,117004,1,0 F,0,130640,131550,1,0 F,0,210640,211550,1,0 F,0,225186,226095,1,0 F,0,272459,273368,1,0 F,0,285186,286095,1,0
Sprite,Foreground,Centre,"Lyrics\1.png",320,240 M,0,71777,,443,463 S,0,71777,,0.8560001 F,0,71777,71890,0.14,1 F,0,71980,78822,1 F,0,78822,78936,1,0.16
Sprite,Foreground,Centre,"Lyrics\2.png",320,240 M,0,79050,,404,462 S,0,79050,,0.8560001 F,0,79050,79163,0,1 F,0,79163,85300,1 F,0,85300,85413,1,0
Sprite,Foreground,Centre,"Lyrics\3.png",320,240 M,0,86095,,391,462 S,0,86095,,0.8560001 F,0,86095,86209,0,1 F,0,86209,92459,1 F,0,92459,92572,1,0
Sprite,Foreground,Centre,"Lyrics\4.png",320,240 M,0,92913,,443,462 S,0,92913,,0.8560001 F,0,92913,93027,0,1 F,0,93027,99959,1 F,0,99959,100072,1,0
Sprite,Foreground,Centre,"Lyrics\5.png",320,240 M,0,101550,,419,462 S,0,101550,,0.8560001 F,0,101550,101663,0,1 F,0,101663,108027,1 F,0,108027,108140,1,0
Sprite,Foreground,Centre,"Lyrics\6.png",320,240 M,0,108822,,483,462 S,0,108822,,0.8560001 F,0,108822,108936,0,1 F,0,108936,115186,1 F,0,115186,115300,1,0
Sprite,Foreground,Centre,"Lyrics\7.png",320,240 M,0,115413,,456,462 S,0,115413,,0.8560001 F,0,115413,115527,0,1 F,0,115527,123140,1 F,0,123140,123254,1,0
Sprite,Foreground,Centre,"Lyrics\8.png",320,240 M,0,123368,,469,462 S,0,123368,,0.8560001 F,0,123368,123481,0,1 F,0,123481,129731,1 F,0,129731,129845,1,0
Sprite,Foreground,Centre,"Lyrics\9.png",320,240 M,0,129959,,456,461 S,0,129959,,0.8560001 F,0,129959,130072,0,1 F,0,130072,137686,1 F,0,137686,137800,1,0
Sprite,Foreground,Centre,"Lyrics\10.png",320,240 M,0,137913,,390,461 S,0,137913,,0.8560001 F,0,137913,138027,0,1 F,0,138027,145186,1 F,0,145186,148822,1,0
Sprite,Foreground,Centre,"Lyrics\11.png",320,240 M,0,166322,,457,462 S,0,166322,,0.8560001 F,0,166322,166436,0,1 F,0,166436,173368,1 F,0,173368,173481,1,0
Sprite,Foreground,Centre,"Lyrics\12.png",320,240 M,0,173595,,393,462 S,0,173595,,0.8560001 F,0,173595,173709,0,1 F,0,173709,180186,1 F,0,180186,180300,1,0
Sprite,Foreground,Centre,"Lyrics\13.png",320,240 M,0,180640,,380,462 S,0,180640,,0.8560001 F,0,180640,180754,0,1 F,0,180754,187004,1 F,0,187004,187118,1,0
Sprite,Foreground,Centre,"Lyrics\14.png",320,240 M,0,187459,,431,462 S,0,187459,,0.8560001 F,0,187459,187572,0,1 F,0,187572,194277,1 F,0,194277,194390,1,0
Sprite,Foreground,Centre,"Lyrics\15.png",320,240 M,0,196095,,457,462 S,0,196095,,0.8560001 F,0,196095,196209,0,1 F,0,196209,202459,1 F,0,202459,202572,1,0
Sprite,Foreground,Centre,"Lyrics\16.png",320,240 M,0,203368,,470,462 S,0,203368,,0.8560001 F,0,203368,203481,0,1 F,0,203481,209731,1 F,0,209731,209845,1,0
Sprite,Foreground,Centre,"Lyrics\17.png",320,240 M,0,209959,,469,462 S,0,209959,,0.8560001 F,0,209959,210072,0,1 F,0,210072,217686,1 F,0,217686,217800,1,0
Sprite,Foreground,Centre,"Lyrics\18.png",320,240 M,0,217913,,456,462 S,0,217913,,0.8560001 F,0,217913,218027,0,1 F,0,218027,224277,1 F,0,224277,224390,1,0
Sprite,Foreground,Centre,"Lyrics\19.png",320,240 M,0,224504,,431,461 S,0,224504,,0.8560001 F,0,224504,224618,0,1 F,0,224618,232231,1 F,0,232231,232345,1,0
Sprite,Foreground,Centre,"Lyrics\20.png",320,240 M,0,232459,,403,461 S,0,232459,,0.8560001 F,0,232459,232572,0,1 F,0,232572,239731,1 F,0,239731,243368,1,0
Sprite,Foreground,Centre,"Lyrics\15.png",320,240 M,0,254163,,457,462 S,0,254163,,0.8560001 F,0,254163,254277,0,1 F,0,254277,260640,1 F,0,260640,260754,1,0
Sprite,Foreground,Centre,"Lyrics\16.png",320,240 M,0,261550,,470,462 S,0,261550,,0.8560001 F,0,261550,261663,0,1 F,0,261663,269731,1 F,0,269731,269845,1,0
Sprite,Foreground,Centre,"Lyrics\7.png",320,240 M,0,269959,,456,462 S,0,269959,,0.8560001 F,0,269959,270072,0,1 F,0,270072,277686,1 F,0,277686,277800,1,0
Sprite,Foreground,Centre,"Lyrics\8.png",320,240 M,0,277913,,469,462 S,0,277913,,0.8560001 F,0,277913,278027,0,1 F,0,278027,284277,1 F,0,284277,284390,1,0
Sprite,Foreground,Centre,"Lyrics\9.png",320,240 M,0,284504,,456,461 S,0,284504,,0.8560001 F,0,284504,284618,0,1 F,0,284618,292231,1 F,0,292231,292345,1,0
Sprite,Foreground,Centre,"Lyrics\10.png",320,240 M,0,292459,,390,461 S,0,292459,,0.8560001 F,0,292459,292572,0,1 F,0,292572,299731,1 F,0,299731,303368,1,0
//Storyboard Sound Samples
//Background Colour Transformations
3,100,255,255,255

[TimingPoints]
1550,454.545454545455,4,2,1,70,1,0
116095,-100,4,2,1,70,0,1
130527,-100,4,2,1,70,0,0
130640,-100,4,2,1,70,0,1
145186,-100,4,2,1,50,0,0
167004,-100,4,2,1,70,0,0
210640,-100,4,2,1,70,0,1
225072,-100,4,2,1,70,0,0
225186,-100,4,2,1,70,0,1
239731,-100,4,2,1,50,0,0
272231,-100,4,2,1,70,0,0
272459,-100,4,2,1,70,0,1
285072,-100,4,2,1,70,0,0
285186,-100,4,2,1,70,0,1
299731,-100,4,2,1,50,0,0

[Colours]
Combo1 : 208,164,164
Combo2 : 192,177,216

[HitObjects]
48,252,72459,2,0,B|71:316|140:356|207:344,1,200
156,192,74277,2,0,B|356:192,1,200
304,40,76095,2,0,B|371:27|440:67|463:131,3,200
476,292,79731,5,0
336,368,80640,1,0
176,368,81550,1,0
36,292,82459,1,0
176,216,83368,2,0,B|224:120|176:24,1,200
336,23,85186,2,0,B|288:120|336:216,1,200
476,292,87004,5,0
336,368,87913,2,0,B|312:320|256:296|200:320|176:368,1,200
36,292,89731,1,0
156,192,90640,2,0,B|356:192,2,200
256,68,93368,1,0
412,100,94277,5,0
464,252,95186,1,0
352,368,96095,2,0,B|304:400|256:368|208:336|160:368,1,200
48,252,97913,1,0
100,100,98822,1,0
256,140,99731,2,0,B|256:344,2,200
404,76,102459,5,0
256,16,103368,1,0
108,76,104277,1,0
56,224,105186,2,0,B|456:224,2,400
176,336,109731,5,0
336,336,110640,1,0
256,192,111550,1,0
96,128,112459,2,0,B|120:72|172:24|256:-4|340:24|392:72|416:128,2,400,0|0|4
48,304,117004,5,0
192,368,117913,2,0,B|144:304|160:216|256:164|352:216|368:304|320:368,1,400
464,304,120640,1,0
368,176,121550,2,0,B|288:176|224:112|180:60|256:-12|332:60|288:112|224:176|144:176,1,400
96,336,124277,5,0
256,368,125186,1,0
416,336,126095,1,0
356,192,127004,2,0,B|156:192,3,200
96,48,130640,5,4
256,16,131549,1,0
416,48,132459,2,0,B|392:104|340:152|256:180|172:152|120:104|96:48,1,400
32,192,135186,1,0
96,336,136095,2,0,B|120:279|172:231|256:203|340:231|392:279|416:335,1,400
256,368,138822,5,0
176,240,139731,1,0
336,240,140640,1,0
416,96,141550,2,0,B|392:40|336:8|280:40|256:96|232:152|176:184|120:152|96:96,1,400
256,192,145185,12,0,148822
256,192,159731,6,0,B|224:192|192:160|192:128|192:80|256:80|288:64|352:96|384:160|384:192|384:256|368:288|320:336|272:336|208:320|176:304|112:272|96:240|64:176|64:128|80:64|128:32|144:16|192:0|224:0|256:-12|288:-12|336:0|384:16|432:32|464:128|464:176|464:208|448:256|400:304|400:320|384:336|336:368|288:384|240:384|192:352|162:354|112:316|80:268|77:256|48:200|57:119,1,1600
176,32,167913,5,0
336,32,168822,1,0
256,160,169731,1,0
160,288,170640,2,0,B|256:336|352:288,3,200
432,160,174277,5,0
336,32,175186,1,0
176,32,176095,1,0
80,160,177004,1,0
28,320,177913,2,0,B|67:357|127:360|172:318|178:265,1,200
333,265,179731,2,0,B|339:318|384:360|444:357|484:320,1,200
416,176,181550,5,0
352,32,182459,2,0,B|304:64|256:32|208:0|160:32,1,200
96,176,184277,1,0
256,160,185186,2,0,B|256:360,2,200
416,176,187913,1,0
412,336,188822,5,0
256,368,189731,1,0
100,336,190640,1,0
96,176,191550,1,0
156,28,192459,2,0,B|356:28,3,200
256,152,196095,5,0
136,260,197004,1,0
256,368,197913,1,0
376,260,198822,1,0
432,112,199731,2,0,B|352:32|256:-4|160:32|80:112,2,400
376,260,204277,5,0
256,368,205186,1,0
136,260,206095,1,0
80,112,207004,2,0,B|160:191|256:227|352:191|432:111,2,400,0|0|4
256,52,211550,5,0
432,112,212459,2,0,B|480:209|461:327|356:386|248:374,1,400
224,224,215186,1,0
80,272,216095,2,0,B|31:174|50:56|155:-2|263:9,1,400
288,176,218822,5,0
432,108,219731,1,0
500,252,220640,1,0
356,320,221550,2,0,B|156:320,3,200
12,252,225186,5,4
48,112,226095,1,0
176,16,227004,2,0,B|218:43|231:72|218:118|193:136|134:170|75:204|50:222|37:268|50:297|93:325,1,400
256,368,229731,1,0
418,325,230640,2,0,B|461:297|474:268|461:222|436:204|377:170|318:136|293:118|280:72|293:43|336:16,1,400
464,112,233368,5,0
336,192,234277,1,0
176,192,235186,1,0
64,304,236095,2,0,B|176:368|336:368|448:304,1,400
256,192,239731,12,0,243367
56,356,254277,6,0,B|456:356,1,400
317,275,257004,1,0
456,192,257913,2,0,B|56:192,1,400
195,109,260640,1,0
336,32,261550,6,0,B|400:120|256:192|112:264|176:352,2,400
464,128,266095,1,0
416,272,267004,2,0,B|328:336|256:192|184:48|96:112,1,400
48,256,270640,5,0
176,352,272459,1,4
336,352,273368,1,0
464,256,274277,1,0
464,96,275186,1,0
320,32,276095,2,0,B|368:96|352:184|256:236|160:184|144:96|192:32,1,400
48,96,278822,5,0
48,256,279731,1,0
176,352,280640,1,0
256,224,281550,2,0,B|256:24,3,200
416,48,285186,5,4
336,192,286095,1,0
448,304,287004,2,0,B|336:367|176:367|64:303,1,400
176,192,289731,1,0
64,80,290640,2,0,B|176:16|336:16|448:80,1,400
448,240,293368,5,0
336,368,294277,1,0
176,368,295186,1,0
64,240,296095,1,0
112,80,297004,1,0
256,16,297913,1,0
400,80,298822,1,0
256,192,299731,12,0,303367
