osu file format v14

[General]
AudioFilename: 3L - Hagetsu.mp3
AudioLeadIn: 0
PreviewTime: 58681
Countdown: 0
SampleSet: Normal
StackLeniency: 0.7
Mode: 1
LetterboxInBreaks: 0
WidescreenStoryboard: 0

[Editor]
DistanceSpacing: 0.5
BeatDivisor: 4
GridSize: 32
TimelineZoom: 2.1

[Metadata]
Title:Hagetsu
TitleUnicode:破月
Artist:3L
ArtistUnicode:3L
Creator:aabc271
Version:Futsuu
Source:東方萃夢想 ~ Immaterial and Missing Power.
Tags:Taiko 東方Project Touhou Suimusou ~ TH7.5 ZUN 砕月 Broken Moon Saigetsu 伊吹萃香 Ibuki Suika ALiCE'S EMOTiON 源屋 Minamotoya 安保 さゆり Sayuri Anpo あんぽりん Anporin C80 2011 RADIATA AECD-029
BeatmapID:1346499
BeatmapSetID:634613

[Difficulty]
HPDrainRate:6
CircleSize:5
OverallDifficulty:4
ApproachRate:7
SliderMultiplier:1.4
SliderTickRate:1

[Events]
//Background and Video events
0,0,"BG.png",0,0
//Break Periods
//Storyboard Layer 0 (Background)
//Storyboard Layer 1 (Fail)
//Storyboard Layer 2 (Pass)
//Storyboard Layer 3 (Foreground)
//Storyboard Sound Samples

[TimingPoints]
137,447.761194029851,4,1,0,88,1,0
137,-103.092783505155,4,1,0,88,0,0
9092,-103.092783505155,4,1,0,90,0,0
9539,-102.893890675241,4,1,0,90,0,0
9987,-102.695763799743,4,1,0,90,0,0
10883,-102.30179028133,4,1,0,90,0,0
11331,-102.105934907466,4,1,0,90,0,0
11778,-101.910828025478,4,1,0,90,0,0
12674,-101.522842639594,4,1,0,91,0,0
13122,-101.329955668144,4,1,0,91,0,0
13569,-101.137800252844,4,1,0,91,0,0
14465,-100.755667506297,4,1,0,92,0,0
14689,-100.660585089651,4,1,0,92,0,0
14913,-100.565681961031,4,1,0,92,0,0
15360,-100.376411543287,4,1,0,92,0,0
16256,-100,4,1,0,92,0,0
30584,-100,4,1,0,86,0,0
31480,-100.755667506297,4,1,0,86,0,0
31928,-101.137800252845,4,1,0,86,0,0
32375,-101.522842639594,4,1,0,86,0,0
33271,-102.30179028133,4,1,0,86,0,0
34166,-103.092783505155,4,1,0,86,0,0
44913,-101.010101010101,4,1,0,88,0,0
59241,-99.009900990099,4,1,0,92,0,1
86107,-99.009900990099,4,1,0,72,0,1
87898,-99.009900990099,4,1,0,86,0,0
88793,-100,4,1,0,86,0,0
89689,-101.010101010101,4,1,0,86,0,0
90584,-102.040816326531,4,1,0,86,0,0
91480,-103.092783505155,4,1,0,86,0,0
102226,-101.010101010101,4,1,0,88,0,0
116554,-99.009900990099,4,1,0,92,0,1
143420,-99.009900990099,4,1,0,72,0,1
145211,-99.009900990099,4,1,0,88,0,0

[HitObjects]
256,192,1928,5,4,0:0:0:0:
256,192,2375,5,8,0:0:0:0:
256,192,2823,5,0,0:0:0:0:
256,192,3719,1,0,0:0:0:0:
256,192,4166,5,8,0:0:0:0:
256,192,4614,5,0,0:0:0:0:
256,192,5510,1,0,0:0:0:0:
256,192,5957,5,8,0:0:0:0:
256,192,6405,5,0,0:0:0:0:
256,192,7301,1,0,0:0:0:0:
256,192,7525,1,0,0:0:0:0:
256,192,7748,5,8,0:0:0:0:
256,192,8196,1,8,0:0:0:0:
256,192,9092,5,0,0:0:0:0:
256,192,9539,5,8,0:0:0:0:
256,192,9987,5,0,0:0:0:0:
256,192,10883,1,0,0:0:0:0:
256,192,11331,5,8,0:0:0:0:
256,192,11778,5,0,0:0:0:0:
256,192,12674,1,0,0:0:0:0:
256,192,13122,5,8,0:0:0:0:
256,192,13569,5,0,0:0:0:0:
256,192,14465,5,8,0:0:0:0:
256,192,14689,1,8,0:0:0:0:
256,192,14913,5,0,0:0:0:0:
256,192,15360,5,8,0:0:0:0:
256,192,16256,5,4,0:0:0:0:
256,192,16704,5,8,0:0:0:0:
256,192,17151,5,0,0:0:0:0:
256,192,17487,5,8,0:0:0:0:
256,192,18047,5,0,0:0:0:0:
256,192,18495,5,8,0:0:0:0:
256,192,18942,5,0,0:0:0:0:
256,192,19838,1,0,0:0:0:0:
256,192,20286,5,8,0:0:0:0:
256,192,20734,5,0,0:0:0:0:
256,192,21069,5,8,0:0:0:0:
256,192,21629,5,0,0:0:0:0:
256,192,21853,1,0,0:0:0:0:
256,192,22077,5,8,0:0:0:0:
256,192,22525,1,8,0:0:0:0:
256,192,23420,5,0,0:0:0:0:
256,192,23868,5,8,0:0:0:0:
256,192,24316,5,0,0:0:0:0:
256,192,24651,5,8,0:0:0:0:
256,192,25211,1,8,0:0:0:0:
256,192,25659,5,0,0:0:0:0:
256,192,26107,5,8,0:0:0:0:
256,192,27002,5,0,0:0:0:0:
256,192,27450,5,8,0:0:0:0:
256,192,27898,1,8,0:0:0:0:
256,192,28234,5,0,0:0:0:0:
256,192,28793,1,0,0:0:0:0:
256,192,29017,1,0,0:0:0:0:
256,192,29241,5,8,0:0:0:0:
256,192,29689,1,8,0:0:0:0:
256,192,30584,1,12,0:0:0:0:
256,192,31480,1,8,0:0:0:0:
256,192,31928,5,0,0:0:0:0:
256,192,32375,5,8,0:0:0:0:
256,192,33271,5,0,0:0:0:0:
256,192,34166,1,0,0:0:0:0:
256,192,34838,5,8,0:0:0:0:
256,192,35062,5,0,0:0:0:0:
256,192,35510,1,0,0:0:0:0:
256,192,35957,5,8,0:0:0:0:
256,192,36405,1,8,0:0:0:0:
256,192,36853,1,8,0:0:0:0:
256,192,37748,1,8,0:0:0:0:
256,192,38644,5,0,0:0:0:0:
256,192,39092,5,8,0:0:0:0:
256,192,39539,1,8,0:0:0:0:
256,192,40435,1,8,0:0:0:0:
256,192,41331,5,0,0:0:0:0:
256,192,42002,1,0,0:0:0:0:
256,192,42226,5,8,0:0:0:0:
256,192,42674,5,0,0:0:0:0:
256,192,43122,5,8,0:0:0:0:
256,192,43569,5,0,0:0:0:0:
256,192,44017,5,8,0:0:0:0:
256,192,44913,1,12,0:0:0:0:
256,192,45360,1,8,0:0:0:0:
256,192,45584,5,0,0:0:0:0:
256,192,45808,5,8,0:0:0:0:
256,192,46704,5,0,0:0:0:0:
256,192,47151,5,8,0:0:0:0:
256,192,47375,5,0,0:0:0:0:
256,192,47599,5,8,0:0:0:0:
256,192,48495,5,0,0:0:0:0:
256,192,48942,5,8,0:0:0:0:
256,192,49166,5,0,0:0:0:0:
256,192,49390,5,8,0:0:0:0:
256,192,49838,1,8,0:0:0:0:
256,192,50286,5,0,0:0:0:0:
256,192,50734,5,8,0:0:0:0:
256,192,51181,5,0,0:0:0:0:
256,192,52077,5,8,0:0:0:0:
256,192,52525,5,0,0:0:0:0:
256,192,52748,5,8,0:0:0:0:
256,192,52972,5,0,0:0:0:0:
256,192,53868,1,0,0:0:0:0:
256,192,54316,5,8,0:0:0:0:
256,192,54539,5,0,0:0:0:0:
256,192,54763,1,0,0:0:0:0:
256,192,55659,1,0,0:0:0:0:
256,192,56107,5,8,0:0:0:0:
256,192,56554,1,8,0:0:0:0:
256,192,57002,1,8,0:0:0:0:
256,192,57450,5,0,0:0:0:0:
256,192,58122,1,0,0:0:0:0:
256,192,58345,5,8,0:0:0:0:
256,192,59241,1,12,0:0:0:0:
256,192,60137,1,8,0:0:0:0:
256,192,60472,5,0,0:0:0:0:
256,192,60808,1,0,0:0:0:0:
256,192,61032,5,8,0:0:0:0:
256,192,61480,1,8,0:0:0:0:
256,192,61928,1,8,0:0:0:0:
256,192,62823,1,8,0:0:0:0:
256,192,63719,1,8,0:0:0:0:
256,192,64054,1,8,0:0:0:0:
256,192,64390,5,0,0:0:0:0:
256,192,64614,5,8,0:0:0:0:
256,192,65062,1,8,0:0:0:0:
256,192,65510,5,0,0:0:0:0:
256,192,66405,5,8,0:0:0:0:
256,192,67301,1,8,0:0:0:0:
256,192,67748,5,0,0:0:0:0:
256,192,67972,5,8,0:0:0:0:
256,192,68420,1,8,0:0:0:0:
256,192,68868,1,8,0:0:0:0:
256,192,69316,5,0,0:0:0:0:
256,192,69763,2,0,L|256:0,2,176.749996493912
256,192,71107,5,8,0:0:0:0:
256,192,71554,2,0,L|256:0,2,176.749996493912
256,192,73569,5,12,0:0:0:0:
256,192,74465,1,8,0:0:0:0:
256,192,74801,5,0,0:0:0:0:
256,192,75137,1,0,0:0:0:0:
256,192,75360,5,8,0:0:0:0:
256,192,75808,1,8,0:0:0:0:
256,192,76256,1,8,0:0:0:0:
256,192,77151,1,8,0:0:0:0:
256,192,78047,1,8,0:0:0:0:
256,192,78383,1,8,0:0:0:0:
256,192,78719,5,0,0:0:0:0:
256,192,78942,5,8,0:0:0:0:
256,192,79390,1,8,0:0:0:0:
256,192,79838,5,0,0:0:0:0:
256,192,80734,5,8,0:0:0:0:
256,192,81181,5,0,0:0:0:0:
256,192,81405,5,8,0:0:0:0:
256,192,81629,5,0,0:0:0:0:
256,192,82525,1,0,0:0:0:0:
256,192,82972,5,8,0:0:0:0:
256,192,83196,5,0,0:0:0:0:
256,192,83420,1,0,0:0:0:0:
256,192,84316,1,0,0:0:0:0:
256,192,84763,5,8,0:0:0:0:
256,192,85211,1,8,0:0:0:0:
256,192,85435,5,0,0:0:0:0:
256,192,85659,5,8,0:0:0:0:
256,192,86107,12,0,87450,0:0:0:0:
256,192,87898,5,12,0:0:0:0:
256,192,88793,5,0,0:0:0:0:
256,192,89689,5,8,0:0:0:0:
256,192,90584,5,0,0:0:0:0:
256,192,91480,1,0,0:0:0:0:
256,192,92375,5,8,0:0:0:0:
256,192,92823,5,0,0:0:0:0:
256,192,93271,5,8,0:0:0:0:
256,192,94166,1,8,0:0:0:0:
256,192,95062,1,8,0:0:0:0:
256,192,95957,5,0,0:0:0:0:
256,192,96853,5,8,0:0:0:0:
256,192,97748,1,8,0:0:0:0:
256,192,98644,5,0,0:0:0:0:
256,192,99539,5,8,0:0:0:0:
256,192,99987,5,0,0:0:0:0:
256,192,100435,1,0,0:0:0:0:
256,192,101331,5,8,0:0:0:0:
256,192,102226,1,12,0:0:0:0:
256,192,102674,1,8,0:0:0:0:
256,192,102898,5,0,0:0:0:0:
256,192,103122,5,8,0:0:0:0:
256,192,104017,5,0,0:0:0:0:
256,192,104465,5,8,0:0:0:0:
256,192,104689,5,0,0:0:0:0:
256,192,104913,5,8,0:0:0:0:
256,192,105808,5,0,0:0:0:0:
256,192,106256,5,8,0:0:0:0:
256,192,106480,5,0,0:0:0:0:
256,192,106704,5,8,0:0:0:0:
256,192,107151,1,8,0:0:0:0:
256,192,107599,5,0,0:0:0:0:
256,192,108047,5,8,0:0:0:0:
256,192,108495,5,0,0:0:0:0:
256,192,109390,5,8,0:0:0:0:
256,192,109838,5,0,0:0:0:0:
256,192,110062,5,8,0:0:0:0:
256,192,110286,5,0,0:0:0:0:
256,192,111181,1,0,0:0:0:0:
256,192,111629,5,8,0:0:0:0:
256,192,111853,5,0,0:0:0:0:
256,192,112077,1,0,0:0:0:0:
256,192,112972,1,0,0:0:0:0:
256,192,113420,5,8,0:0:0:0:
256,192,113868,1,8,0:0:0:0:
256,192,114316,1,8,0:0:0:0:
256,192,114763,5,0,0:0:0:0:
256,192,115435,1,0,0:0:0:0:
256,192,115659,5,8,0:0:0:0:
256,192,116554,1,12,0:0:0:0:
256,192,117450,1,8,0:0:0:0:
256,192,117786,5,0,0:0:0:0:
256,192,118122,1,0,0:0:0:0:
256,192,118345,5,8,0:0:0:0:
256,192,118793,1,8,0:0:0:0:
256,192,119241,1,8,0:0:0:0:
256,192,120137,1,8,0:0:0:0:
256,192,121032,1,8,0:0:0:0:
256,192,121368,1,8,0:0:0:0:
256,192,121704,5,0,0:0:0:0:
256,192,121928,5,8,0:0:0:0:
256,192,122375,1,8,0:0:0:0:
256,192,122823,5,0,0:0:0:0:
256,192,123719,5,8,0:0:0:0:
256,192,124614,1,8,0:0:0:0:
256,192,125062,5,0,0:0:0:0:
256,192,125286,5,8,0:0:0:0:
256,192,125734,1,8,0:0:0:0:
256,192,126181,1,8,0:0:0:0:
256,192,126629,5,0,0:0:0:0:
256,192,127077,2,0,L|256:0,2,176.749996493912
256,192,128420,5,8,0:0:0:0:
256,192,128868,2,0,L|256:0,2,176.749996493912
256,192,130883,5,12,0:0:0:0:
256,192,131778,1,8,0:0:0:0:
256,192,132114,5,0,0:0:0:0:
256,192,132450,1,0,0:0:0:0:
256,192,132674,5,8,0:0:0:0:
256,192,133122,1,8,0:0:0:0:
256,192,133569,1,8,0:0:0:0:
256,192,134465,1,8,0:0:0:0:
256,192,135360,1,8,0:0:0:0:
256,192,135696,1,8,0:0:0:0:
256,192,136032,5,0,0:0:0:0:
256,192,136256,5,8,0:0:0:0:
256,192,136704,1,8,0:0:0:0:
256,192,137151,5,0,0:0:0:0:
256,192,138047,1,8,0:0:0:0:
256,192,138495,5,0,0:0:0:0:
256,192,138719,5,8,0:0:0:0:
256,192,138942,5,0,0:0:0:0:
256,192,139838,1,0,0:0:0:0:
256,192,140286,5,8,0:0:0:0:
256,192,140510,5,0,0:0:0:0:
256,192,140734,1,0,0:0:0:0:
256,192,141629,1,0,0:0:0:0:
256,192,142077,5,8,0:0:0:0:
256,192,142525,1,8,0:0:0:0:
256,192,142748,5,0,0:0:0:0:
256,192,142972,5,8,0:0:0:0:
256,192,143420,12,0,145211,0:0:0:0:
