osu file format v9

[General]
AudioFilename: comebacktome.mp3
AudioLeadIn: 1000
PreviewTime: 61729
Countdown: 0
SampleSet: Normal
StackLeniency: 0.7
Mode: 1
LetterboxInBreaks: 0

[Editor]
Bookmarks: -513,-108
DistanceSpacing: 1
BeatDivisor: 4
GridSize: 8

[Metadata]
Title:Come Back To Me
Artist:3L
Creator:orioncomet
Version:Taiko
Source:Touhou
Tags:keine kamishirasawa Nostalgic Blood of the East Old World Imperishable Night kioukiou kanpakyin NachoPiggy

[Difficulty]
HPDrainRate:5
CircleSize:6
OverallDifficulty:6
ApproachRate:5
SliderMultiplier:1.4
SliderTickRate:1

[Events]
//Background and Video events
0,0,"keine1.jpg"
//Break Periods
//Storyboard Layer 0 (Background)
//Storyboard Layer 1 (Fail)
//Storyboard Layer 2 (Pass)
//Storyboard Layer 3 (Foreground)
//Storyboard Sound Samples
//Background Colour Transformations
3,100,0,0,0

[TimingPoints]
1237,384.615384615385,4,1,0,60,1,0
62775,-100,4,1,0,60,0,1
87390,-100,4,1,0,60,0,0
124313,-100,4,1,0,60,0,1
148929,-100,4,1,0,60,0,0
161237,-133.333333333333,4,1,0,60,0,0
172390,-100,4,1,0,60,0,0
173544,-100,4,1,0,60,0,1
198160,-100,4,1,0,60,0,0

[Colours]
Combo1 : 1,197,254
Combo2 : 241,105,221
Combo3 : 170,201,48
Combo4 : 255,154,17

[HitObjects]
360,88,1237,1,0
360,88,1429,1,8
360,88,1621,1,8
360,88,1813,1,8
360,88,2198,1,0
360,88,2390,1,8
360,88,2775,1,0
360,88,2967,1,8
360,88,3160,1,8
360,88,3352,1,8
360,88,3737,1,0
360,88,3929,1,8
360,88,4313,1,0
360,88,4506,1,8
360,88,4698,1,8
360,88,4890,1,8
360,88,5275,1,0
360,88,5467,1,8
360,88,5852,1,0
360,88,6237,1,8
360,88,6429,1,0
360,88,6813,1,0
360,88,7006,1,8
360,88,7390,1,0
360,88,7583,1,8
360,88,7775,1,8
360,88,7967,1,8
360,88,8352,1,0
360,88,8544,1,8
360,88,8929,1,0
360,88,9121,1,8
360,88,9313,1,8
360,88,9506,1,8
360,88,9890,1,0
360,88,10083,1,8
360,88,10467,1,0
360,88,10660,1,8
360,88,10852,1,8
360,88,11044,1,8
360,88,11429,1,0
360,88,11621,1,8
360,88,12006,1,8
360,88,12198,1,0
360,88,12390,1,0
360,88,12583,1,8
360,88,12679,1,8
360,88,12775,1,8
360,88,12967,1,8
360,88,13063,1,8
360,88,13160,1,8
360,88,13352,1,8
360,88,13448,1,8
360,88,13544,1,8
360,88,13737,1,0
360,88,13833,1,0
360,88,13929,1,8
360,88,14025,1,0
360,88,14121,1,0
360,88,14217,1,8
360,88,14313,1,0
360,88,14506,1,0
360,88,14698,1,8
360,88,14890,1,0
360,88,15083,1,8
360,88,15275,1,0
360,88,15371,1,0
360,88,15467,1,8
360,88,15563,1,0
360,88,15660,1,0
360,88,15756,1,8
360,88,15852,1,0
360,88,16044,1,0
360,88,16237,1,8
360,88,16429,1,0
360,88,16621,1,8
360,88,16813,1,0
360,88,16910,1,0
360,88,17006,1,8
360,88,17102,1,0
360,88,17198,1,0
360,88,17294,1,8
360,88,17390,1,0
360,88,17583,1,0
360,88,17679,1,8
360,88,17775,1,8
360,88,17967,1,0
360,88,18160,1,8
360,88,18352,1,0
360,88,18448,1,0
360,88,18544,1,8
360,88,18737,1,0
360,88,18929,1,8
360,88,19121,1,8
360,88,19313,1,0
360,88,19698,5,8
360,88,19890,1,0
360,88,19987,1,0
360,88,20083,1,8
360,88,20179,1,0
360,88,20275,1,0
360,88,20371,1,8
360,88,20467,1,0
360,88,20756,1,0
360,88,20852,1,8
360,88,21044,1,0
360,88,21237,1,8
360,88,21429,1,0
360,88,21525,1,0
360,88,21621,1,8
360,88,21717,1,0
360,88,21813,1,0
360,88,21910,1,8
360,88,22006,1,0
360,88,22294,1,0
360,88,22390,1,8
360,88,22583,1,0
360,88,22775,1,8
360,88,23160,1,0
360,88,23352,1,0
360,88,23448,1,8
360,88,23544,1,8
360,88,23737,1,0
360,88,23833,1,8
360,88,23929,1,8
360,88,24121,1,8
360,88,24185,1,8
360,88,24249,1,8
360,88,24313,1,8
360,88,24890,1,0
360,88,25275,1,0
360,88,25467,1,8
360,88,25660,1,0
360,88,25852,1,8
360,88,26237,1,8
360,88,26429,1,8
360,88,26525,1,0
360,88,26621,1,8
360,88,26813,1,0
360,88,26910,1,0
360,88,27006,1,8
360,88,27198,1,0
360,88,27294,1,0
360,88,27390,1,8
360,88,27583,1,0
360,88,27679,1,8
360,88,27775,1,8
360,88,27967,1,0
360,88,28063,1,0
360,88,28160,1,8
360,88,28352,1,0
360,88,28737,1,0
360,88,28929,1,8
360,88,29025,1,0
360,88,29217,1,0
360,88,29313,1,8
360,88,29506,1,0
360,88,29698,1,8
360,88,30083,1,0
360,88,30275,1,0
360,88,30467,1,8
360,88,30660,1,0
360,88,30852,1,0
360,88,30948,1,0
360,88,31044,1,8
360,88,31237,1,8
360,88,31333,1,8
360,88,31429,1,0
360,88,31525,1,0
360,88,31621,1,8
360,88,31717,1,8
360,88,31813,1,0
360,88,31910,1,8
360,88,32006,1,0
360,88,32390,1,0
360,88,32775,1,8
360,88,32967,1,0
360,88,33352,1,0
360,88,33544,1,8
360,88,33737,1,0
360,88,34121,1,0
360,88,34313,1,8
360,88,34506,1,0
360,88,34698,1,8
360,88,34890,1,0
360,88,34987,1,0
360,88,35083,1,8
360,88,35275,1,8
360,88,35371,1,8
360,88,35467,1,8
360,88,35660,1,0
360,88,35756,1,0
360,88,35852,1,8
360,88,35948,1,8
360,88,36044,1,0
360,88,36140,1,0
360,88,36237,1,8
360,88,36429,1,4
360,88,36813,1,4
360,88,37198,1,12
360,88,37583,1,4
360,88,38160,1,8
360,88,38352,1,0
360,88,38448,1,0
360,88,38544,1,8
360,88,38737,1,0
360,88,38929,1,8
360,88,39025,1,0
360,88,39217,1,0
360,88,39313,1,8
360,88,39506,1,0
360,88,39698,1,8
360,88,40083,1,0
360,88,40275,1,8
360,88,40467,1,8
360,88,40660,1,0
360,88,40756,1,0
360,88,40852,1,8
360,88,41044,1,0
360,88,41237,1,0
360,88,41429,1,8
360,88,41525,1,0
360,88,41717,1,0
360,88,41813,1,8
360,88,42006,1,8
360,88,42198,1,0
360,88,42294,1,8
360,88,42487,1,8
360,88,42583,1,0
360,88,42775,1,0
360,88,42871,1,8
360,88,42967,1,8
360,88,43063,1,0
360,88,43160,1,8
360,88,43352,1,0
360,88,43544,1,8
360,88,43737,1,8
360,88,43929,1,0
360,88,44313,1,8
360,88,44698,1,0
360,88,44890,1,0
360,88,45083,1,8
360,88,45179,1,0
360,88,45371,1,8
360,88,45467,1,0
360,88,45660,1,0
360,88,45852,1,8
360,88,46237,1,0
360,88,46429,1,0
360,88,46525,1,0
360,88,46621,1,8
360,88,46813,1,0
360,88,47006,1,8
360,88,47102,1,0
360,88,47198,1,0
360,88,47294,1,8
360,88,47390,1,0
360,88,47775,1,0
360,88,48160,1,8
360,88,48352,1,8
360,88,48448,1,0
360,88,48544,1,0
360,88,48737,1,8
360,88,48833,1,0
360,88,48929,1,0
360,88,49121,1,8
360,88,49217,1,0
360,88,49410,1,0
360,88,49506,1,8
360,88,49698,1,0
360,88,49890,1,0
360,88,50083,1,8
360,88,50467,1,4
360,88,50756,1,0
360,88,50852,1,8
360,88,51044,1,0
360,88,51237,1,8
360,88,51429,1,0
360,88,51525,1,0
360,88,51621,1,8
360,88,51813,1,0
360,88,52006,1,8
360,88,52390,1,8
360,88,52583,1,0
360,88,52967,1,0
360,88,53160,1,8
360,88,53544,1,0
360,88,53737,1,0
360,88,53833,1,0
360,88,53929,1,8
360,88,54121,1,0
360,88,54217,1,0
360,88,54313,1,8
360,88,54506,1,0
360,88,54602,1,8
360,88,54698,1,0
360,88,54794,1,0
360,88,54890,1,8
360,88,55083,1,0
360,88,55275,1,0
360,88,55467,1,8
360,88,55660,1,0
360,88,56044,1,0
360,88,56237,1,8
360,88,56429,1,0
360,88,56525,1,0
360,88,56621,1,8
360,88,56813,1,8
360,88,56910,1,0
360,88,57006,1,0
360,88,57198,1,0
360,88,57390,1,8
360,88,57487,1,8
360,88,57583,1,0
360,88,57775,1,8
360,88,57871,1,8
360,88,57967,1,0
360,88,58160,1,8
360,88,58544,1,8
360,88,58737,1,0
360,88,59121,1,0
360,88,59313,1,0
360,88,59410,1,0
360,88,59506,1,8
360,88,59602,1,8
360,88,59698,1,0
360,88,59890,1,8
360,88,59987,1,8
360,88,60083,1,0
360,88,60179,1,0
360,88,60275,1,8
360,88,60467,1,8
360,88,60563,1,0
360,88,60756,1,0
360,88,60852,1,8
360,88,61044,1,8
360,88,61140,1,8
360,88,61237,1,8
360,88,61621,1,8
360,88,61813,1,0
360,88,61878,1,0
360,88,61942,1,0
360,88,62006,1,8
360,88,62198,1,0
360,88,62390,1,8
360,88,62583,1,0
360,88,62679,1,8
360,88,62775,1,8
360,88,62967,1,0
360,88,63063,1,8
360,88,63160,1,0
360,88,63352,1,0
360,88,63544,1,8
360,88,63640,1,0
360,88,63833,1,0
360,88,63929,1,8
360,88,64121,1,0
360,88,64313,1,8
360,88,64410,1,0
360,88,64506,1,0
360,88,64602,1,8
360,88,64698,1,0
360,88,64890,1,8
360,88,64987,1,0
360,88,65083,1,0
360,88,65275,1,8
360,88,65371,1,0
360,88,65563,1,0
360,88,65660,1,8
360,88,65852,1,0
360,88,66044,1,0
360,88,66140,1,0
360,88,66237,1,8
360,88,66429,1,0
360,88,66621,1,8
360,88,67006,1,8
360,88,67390,1,8
360,88,67583,1,0
360,88,67679,1,0
360,88,67775,1,8
360,88,67967,1,8
360,88,68063,1,8
360,88,68160,1,8
360,88,68256,1,8
360,88,68352,1,0
360,88,68448,1,8
360,88,68544,1,8
360,88,68640,1,8
360,88,68737,1,8
360,88,68929,1,8
360,88,69313,5,8
360,88,69506,1,0
360,88,69698,1,8
360,88,69794,1,0
360,88,69987,1,0
360,88,70083,1,8
360,88,70275,1,0
360,88,70467,1,8
360,88,70563,1,0
360,88,70756,1,8
360,88,70852,1,0
360,88,71044,1,0
360,88,71237,1,8
360,88,71333,1,0
360,88,71429,1,0
360,88,71621,1,0
360,88,71813,1,0
360,88,71910,1,0
360,88,72006,1,8
360,88,72390,1,0
360,88,72583,1,8
360,88,72775,1,0
360,88,72871,1,0
360,88,72967,1,8
360,88,73063,1,0
360,88,73160,1,8
360,88,73352,1,0
360,88,73544,1,0
360,88,73640,1,0
360,88,73737,1,8
360,88,73833,1,8
360,88,73929,1,0
360,88,74025,1,0
360,88,74121,1,8
360,88,74217,1,8
360,88,74313,1,8
360,88,74506,1,0
360,88,74698,1,8
360,88,74794,1,0
360,88,74890,1,0
360,88,75083,1,8
360,88,75467,1,0
360,88,75660,1,0
360,88,75852,1,8
360,88,75948,1,0
360,88,76140,1,0
360,88,76237,1,8
360,88,76429,1,0
360,88,76525,1,0
360,88,76621,1,8
360,88,77006,1,8
360,88,77198,1,0
360,88,77294,1,0
360,88,77390,1,8
360,88,77487,1,0
360,88,77583,1,0
360,88,77679,1,0
360,88,77775,1,8
360,88,77967,1,0
360,88,78160,1,8
360,88,78544,1,8
360,88,78929,1,8
360,88,79121,1,0
360,88,79313,1,8
360,88,79698,1,8
360,88,79890,1,0
360,88,79987,1,0
360,88,80083,1,8
360,88,80275,1,0
360,88,80371,1,0
360,88,80467,1,8
360,88,80660,1,0
360,88,80852,1,8
360,88,81237,1,8
360,88,81429,1,0
360,88,81525,1,0
360,88,81717,1,0
360,88,81813,1,8
360,88,82006,1,8
360,88,82102,1,0
360,88,82198,1,0
360,88,82294,1,0
360,88,82390,1,8
360,88,82583,1,0
360,88,82775,1,8
360,88,82967,1,0
360,88,83063,1,0
360,88,83160,1,8
360,88,83352,1,0
360,88,83448,1,0
360,88,83544,1,8
360,88,83737,1,0
360,88,83929,1,8
360,88,84313,1,8
360,88,84506,1,0
360,88,84602,1,0
360,88,84698,1,8
360,88,84890,1,0
360,88,85083,1,8
360,88,85179,1,0
360,88,85371,1,0
360,88,85467,1,8
360,88,85660,1,0
360,88,85756,1,0
360,88,85852,1,8
360,88,86044,1,8
360,88,86140,1,8
360,88,86237,1,0
360,88,86333,1,8
360,88,86429,1,8
360,88,86621,1,8
360,88,86813,1,0
360,88,86910,1,8
360,88,87006,1,0
360,88,87198,1,8
360,88,87390,5,0
360,88,87775,1,0
360,88,87967,1,8
360,88,88160,1,8
360,88,88352,1,0
360,88,88737,1,8
360,88,88929,1,0
360,88,89121,1,0
360,88,89313,1,8
360,88,89506,1,0
360,88,89602,1,0
360,88,89698,1,8
360,88,89890,1,0
360,88,89987,1,0
360,88,90083,1,8
360,88,90275,1,0
360,88,90467,1,8
360,88,90660,1,0
360,88,90756,1,0
360,88,90852,1,8
360,88,90948,1,8
360,88,91044,1,0
360,88,91237,1,0
360,88,91429,1,0
360,88,91525,1,0
360,88,91621,1,0
360,88,91717,1,8
360,88,91813,1,0
360,88,92006,1,8
360,88,92198,1,0
360,88,92294,1,0
360,88,92390,1,8
360,88,92583,1,8
360,88,92679,1,8
360,88,92775,1,0
360,88,92871,1,8
360,88,92967,1,8
360,88,93063,1,0
360,88,93160,1,8
360,88,93256,1,8
360,88,93352,1,0
360,88,93448,1,8
360,88,93544,1,8
360,88,93929,1,0
360,88,94121,1,0
360,88,94313,1,0
360,88,94506,1,0
360,88,94890,1,0
360,88,95083,1,8
360,88,95275,1,0
360,88,95371,1,0
360,88,95467,1,8
360,88,95660,1,8
360,88,95852,1,8
360,88,95948,1,0
360,88,96044,1,8
360,88,96140,1,0
360,88,96237,1,8
360,88,96429,1,0
360,88,96525,1,8
360,88,96621,1,8
360,88,97006,1,0
360,88,97198,1,8
360,88,97294,1,8
360,88,97390,1,8
360,88,97583,1,8
360,88,97679,1,8
360,88,97775,1,8
360,88,97967,1,4
360,88,98352,1,4
360,88,98737,1,4
360,88,99121,1,4
360,88,99698,5,8
360,88,99890,1,0
360,88,99987,1,0
360,88,100083,1,8
360,88,100275,1,0
360,88,100371,1,0
360,88,100467,1,8
360,88,100660,1,0
360,88,100756,1,0
360,88,100852,1,8
360,88,100948,1,0
360,88,101044,1,0
360,88,101140,1,8
360,88,101237,1,8
360,88,101333,1,0
360,88,101429,1,0
360,88,101621,1,8
360,88,101813,1,0
360,88,102198,1,0
360,88,102390,1,8
360,88,102583,1,0
360,88,102679,1,0
360,88,102775,1,8
360,88,102967,1,0
360,88,103063,1,8
360,88,103160,1,8
360,88,103352,1,0
360,88,103544,1,8
360,88,103929,1,8
360,88,104121,1,0
360,88,104313,1,8
360,88,104410,1,0
360,88,104602,1,0
360,88,104698,1,8
360,88,104890,1,0
360,88,105083,1,8
360,88,105179,1,0
360,88,105370,1,0
360,88,105467,1,8
360,88,105660,1,0
360,88,105852,1,8
360,88,106237,1,8
360,88,106429,1,0
360,88,106525,1,0
360,88,106621,1,8
360,88,106813,1,0
360,88,107006,1,8
360,88,107198,1,0
360,88,107294,1,0
360,88,107390,1,8
360,88,107583,1,0
360,88,107775,1,0
360,88,107871,1,0
360,88,107967,1,8
360,88,108063,1,8
360,88,108160,1,0
360,88,108352,1,0
360,88,108544,1,8
360,88,108929,1,12
360,88,109313,1,8
360,88,109506,1,0
360,88,109698,1,8
360,88,110083,1,0
360,88,110275,1,8
360,88,110371,1,8
360,88,110467,1,0
360,88,110659,1,8
360,88,110756,1,8
360,88,110852,1,0
360,88,111044,1,8
360,88,111140,1,8
360,88,111237,1,0
360,88,111333,1,8
360,88,111429,1,0
360,88,111525,1,0
360,88,111621,1,8
360,88,111717,1,0
360,88,111813,1,0
360,88,111910,1,0
360,88,112006,1,8
360,88,112294,1,0
360,88,112390,1,8
360,88,112583,1,0
360,88,112775,1,8
360,88,112967,1,0
360,88,113063,1,8
360,88,113256,1,0
360,88,113352,1,8
360,88,113544,1,0
360,88,113640,1,8
360,88,113737,1,0
360,88,113929,1,0
360,88,114121,1,8
360,88,114217,1,8
360,88,114313,1,0
360,88,114506,1,0
360,88,114698,1,8
360,88,115083,1,8
360,88,115275,1,0
360,88,115371,1,8
360,88,115563,1,0
360,88,115660,1,8
360,88,115852,1,0
360,88,115948,1,8
360,88,116044,1,8
360,88,116237,1,0
360,88,116333,1,0
360,88,116429,1,0
360,88,116525,1,0
360,88,116621,1,8
360,88,116813,1,0
360,88,117006,1,8
360,88,117198,1,0
360,88,117583,1,0
360,88,117775,1,8
360,88,117967,1,0
360,88,118063,1,0
360,88,118160,1,8
360,88,118352,1,0
360,88,118448,1,8
360,88,118640,1,0
360,88,118737,1,8
360,88,118929,1,0
360,88,119121,1,8
360,88,119313,1,8
360,88,119410,1,0
360,88,119602,1,0
360,88,119698,1,8
360,88,119890,1,0
360,88,119987,1,0
360,88,120083,1,8
360,88,120275,1,0
360,88,120371,1,0
360,88,120467,1,8
360,88,120660,1,0
360,88,120852,1,8
360,88,120948,1,0
360,88,121044,1,8
360,88,121140,1,8
360,88,121237,1,0
360,88,121429,1,0
360,88,121621,1,0
360,88,121717,1,0
360,88,121813,1,0
360,88,121910,1,0
360,88,122006,1,8
360,88,122198,1,0
360,88,122294,1,8
360,88,122390,1,8
360,88,122583,1,0
360,88,122775,1,4
360,88,123352,1,0
360,88,123544,1,8
360,88,123737,1,0
360,88,123833,1,0
360,88,123929,1,8
360,88,124121,1,0
360,88,124313,1,8
360,88,124506,5,0
360,88,124602,1,0
360,88,124698,1,8
360,88,124890,1,0
360,88,125083,1,8
360,88,125467,1,8
360,88,125660,1,0
360,88,125852,1,8
360,88,126044,1,0
360,88,126140,1,0
360,88,126237,1,8
360,88,126429,1,0
360,88,126525,1,0
360,88,126621,1,8
360,88,126813,1,8
360,88,126910,1,8
360,88,127006,1,0
360,88,127102,1,8
360,88,127198,1,8
360,88,127390,1,8
360,88,127775,1,8
360,88,128160,1,0
360,88,128544,1,8
360,88,128929,1,8
360,88,129121,1,0
360,88,129217,1,0
360,88,129313,1,8
360,88,129506,1,0
360,88,129602,1,0
360,88,129698,1,8
360,88,129890,1,0
360,88,129987,1,8
360,88,130083,1,8
360,88,130179,1,0
360,88,130275,1,0
360,88,130371,1,8
360,88,130467,1,8
360,88,130660,1,0
360,88,130756,1,0
360,88,130852,1,8
360,88,131044,1,0
360,88,131237,1,8
360,88,131333,1,0
360,88,131525,1,0
360,88,131621,1,8
360,88,131813,1,0
360,88,131910,1,0
360,88,132006,1,8
360,88,132198,1,0
360,88,132390,1,8
360,88,132775,1,8
360,88,133160,1,8
360,88,133544,1,8
360,88,133640,1,0
360,88,133737,1,8
360,88,133833,1,0
360,88,133929,1,0
360,88,134121,1,8
360,88,134313,1,8
360,88,134506,1,0
360,88,134602,1,0
360,88,134698,1,0
360,88,134890,1,0
360,88,134987,1,0
360,88,135083,1,8
360,88,135275,1,8
360,88,135467,1,8
360,88,135660,1,0
360,88,136237,1,8
360,88,136429,1,0
360,88,136621,1,8
360,88,136813,1,0
360,88,136910,1,0
360,88,137006,1,8
360,88,137198,1,0
360,88,137390,1,8
360,88,137487,1,0
360,88,137679,1,0
360,88,137775,1,8
336,80,137967,1,0
336,80,138160,1,8
336,80,138352,1,0
336,80,138448,1,0
336,80,138544,1,8
336,80,138737,1,0
336,80,138929,1,8
336,80,139025,1,0
336,80,139121,1,0
336,80,139313,1,0
336,80,139410,1,0
336,80,139506,1,8
336,80,139698,1,8
336,80,139890,1,0
336,80,140083,1,8
336,80,140179,1,0
336,80,140371,1,0
336,80,140467,1,8
336,80,140660,1,0
336,80,140852,1,0
336,80,140948,1,0
336,80,141044,1,0
336,80,141140,1,0
336,80,141237,1,8
336,80,141429,1,0
336,80,141525,1,0
336,80,141621,1,8
336,80,141717,1,8
336,80,141813,1,0
336,80,141910,1,0
336,80,142006,1,0
336,80,142102,1,8
336,80,142198,1,8
336,80,142294,1,8
336,80,142390,1,0
320,64,142583,1,0
320,64,142775,1,8
320,64,142967,1,0
320,64,143063,1,0
320,64,143160,1,8
320,64,143352,1,0
320,64,143544,1,8
320,64,143640,1,0
320,64,143833,1,0
336,80,143929,1,8
320,64,144121,1,0
320,64,144313,1,8
320,64,144698,1,8
320,64,144890,1,0
320,64,145083,1,8
320,64,145467,1,8
320,64,145852,1,8
320,64,146044,1,8
320,64,146140,1,8
320,64,146237,1,0
320,64,146429,1,8
320,64,146525,1,8
320,64,146621,1,0
320,64,146813,1,8
320,64,146910,1,8
320,64,147006,1,0
320,64,147102,1,0
320,64,147198,1,8
320,64,147390,1,8
320,64,147583,1,0
320,64,147679,1,0
320,64,147775,1,8
320,64,147967,1,0
320,64,148160,1,8
320,64,148544,1,8
256,192,148929,12,0,152006
320,64,152390,5,8
320,64,152583,1,0
320,64,152679,1,0
320,64,152775,1,8
320,64,152967,1,0
320,64,153160,1,8
320,64,153352,1,0
320,64,153448,1,8
320,64,153544,1,8
320,64,153640,1,0
320,64,153737,1,0
320,64,153833,1,8
320,64,153929,1,0
320,64,154121,1,8
320,64,154217,1,8
320,64,154313,1,0
320,64,154410,1,8
320,64,154506,1,8
320,64,154602,1,0
320,64,154698,1,0
320,64,154794,1,8
320,64,154890,1,0
320,64,154987,1,0
320,64,155083,1,8
320,64,155467,1,8
320,64,155660,1,0
320,64,155756,1,0
320,64,155852,1,8
320,64,156044,1,8
320,64,156237,1,0
320,64,156333,1,8
320,64,156429,1,0
320,64,156621,1,8
320,64,156813,1,8
320,64,156910,1,0
320,64,157006,1,0
320,64,157198,1,0
320,64,157390,1,8
320,64,157487,1,0
320,64,157583,1,0
320,64,157775,1,8
320,64,157967,1,0
320,64,158352,1,0
320,64,158448,1,0
320,64,158544,1,8
320,64,158737,1,8
320,64,158833,1,8
320,64,158929,1,8
320,64,159121,1,8
320,64,159217,1,8
320,64,159313,1,0
320,64,159506,1,4
320,64,159890,1,4
320,64,160275,1,4
320,64,160660,1,4
392,104,161237,5,8
392,104,161621,1,0
392,104,161813,1,0
392,104,162006,1,8
392,104,162294,1,0
392,104,162583,1,0
392,104,162775,1,8
392,104,163160,1,0
392,104,163544,1,8
392,104,163929,1,8
392,104,164121,1,0
392,104,164506,1,0
392,104,164698,1,8
392,104,164890,1,0
392,104,165083,1,8
392,104,165371,1,0
392,104,165660,1,0
392,104,165852,1,8
392,104,166044,1,0
392,104,166237,1,8
392,104,166429,1,0
392,104,167006,1,8
392,104,167198,1,0
392,104,167390,1,8
392,104,167583,1,0
392,104,167679,1,0
392,104,167775,1,8
392,104,167967,1,0
392,104,168160,1,0
392,104,168352,1,8
392,104,168448,1,0
392,104,168640,1,0
392,104,168737,1,8
392,104,168929,1,0
392,104,169025,1,0
392,104,169121,1,0
392,104,169217,1,0
392,104,169313,1,8
392,104,169506,1,8
392,104,169890,1,0
392,104,170083,1,8
392,104,170467,1,8
392,104,170660,1,8
392,104,170756,1,8
392,104,170852,1,0
392,104,171044,1,8
392,104,171140,1,8
392,104,171237,1,0
392,104,171429,1,0
392,104,171525,1,8
392,104,171717,1,0
392,104,171813,1,8
392,104,172006,1,8
392,104,172390,1,8
392,104,172487,1,8
392,104,172583,1,0
392,104,172679,1,8
392,104,172775,1,0
392,104,172967,1,0
392,104,173160,1,8
392,104,173352,1,0
392,104,173448,1,0
392,104,173544,1,8
392,104,173737,1,0
392,104,173833,1,0
392,104,173929,1,8
392,104,174025,1,8
392,104,174121,1,8
392,104,174313,1,0
392,104,174698,1,8
392,104,174890,1,0
392,104,175083,1,8
392,104,175275,1,0
392,104,175371,1,0
392,104,175467,1,8
392,104,175660,1,0
392,104,175756,1,0
392,104,175852,1,8
392,104,176044,1,0
392,104,176140,1,0
392,104,176237,1,8
392,104,176429,1,0
392,104,176621,1,8
392,104,176717,1,8
392,104,176813,1,8
392,104,176910,1,8
392,104,177006,1,8
392,104,177198,1,0
392,104,177390,1,8
392,104,177775,1,8
392,104,177967,1,0
392,104,178063,1,0
392,104,178160,1,8
392,104,178352,1,0
392,104,178448,1,0
392,104,178544,1,8
392,104,178640,1,0
392,104,178737,1,0
392,104,178833,1,8
392,104,178929,1,0
392,104,179025,1,0
392,104,179121,1,8
392,104,179217,1,8
392,104,179313,1,0
392,104,179506,1,0
392,104,179698,1,8
392,104,179794,1,0
392,104,179890,1,8
392,104,179987,1,0
392,104,180083,1,0
392,104,180275,1,0
392,104,180467,1,8
392,104,180563,1,0
392,104,180660,1,0
392,104,180852,1,8
392,104,181044,1,0
392,104,181237,1,8
392,104,181333,1,0
392,104,181525,1,0
392,104,181621,1,8
392,104,181813,1,0
392,104,181910,1,0
392,104,182006,1,8
392,104,182198,1,0
392,104,182390,1,8
392,104,182775,1,8
392,104,183160,1,0
392,104,183352,1,0
392,104,183544,1,8
392,104,183833,1,8
392,104,184121,1,8
392,104,184313,1,0
392,104,184410,1,0
392,104,184506,1,8
392,104,184602,1,8
392,104,184698,1,0
392,104,184890,1,0
392,104,185275,1,0
392,104,185371,1,0
392,104,185467,1,8
392,104,185660,1,0
392,104,185852,1,8
392,104,186044,1,0
392,104,186140,1,0
392,104,186237,1,0
416,112,186429,1,0
392,104,186525,1,0
392,104,186621,1,8
392,104,186813,1,0
392,104,187006,1,8
392,104,187198,1,8
392,104,187294,1,0
392,104,187390,1,0
392,104,187775,1,8
392,104,187967,1,0
392,104,188160,1,8
392,104,188256,1,0
392,104,188352,1,0
392,104,188544,1,8
392,104,188737,1,0
392,104,188833,1,0
392,104,188929,1,8
392,104,189121,1,0
392,104,189313,1,8
392,104,189698,1,8
392,104,189890,1,0
392,104,189987,1,0
392,104,190083,1,8
392,104,190275,1,0
392,104,190467,1,8
392,104,190660,1,8
392,104,190756,1,8
392,104,190852,1,8
392,104,191044,1,0
392,104,191140,1,0
392,104,191237,1,8
392,104,191333,1,0
392,104,191429,1,8
392,104,191525,1,8
392,104,191621,1,0
392,104,191717,1,8
392,104,191813,1,8
392,104,191910,1,0
392,104,192006,1,0
392,104,192198,1,0
392,104,192294,1,0
392,104,192390,1,8
392,104,192583,1,0
392,104,192679,1,0
392,104,192775,1,8
392,104,192967,1,0
392,104,193160,1,8
392,104,193352,1,0
392,104,193544,1,8
392,104,193640,1,0
392,104,193737,1,0
392,104,193929,1,8
392,104,194121,1,0
392,104,194313,1,8
392,104,194410,1,0
392,104,194506,1,0
392,104,194698,1,8
392,104,195083,1,4
392,104,195467,1,8
392,104,195660,1,0
392,104,195756,1,8
392,104,195948,1,8
392,104,196044,1,0
392,104,196237,1,8
392,104,196429,1,0
392,104,196621,1,8
392,104,196717,1,0
392,104,196910,1,0
392,104,197006,1,8
392,104,197198,1,0
392,104,197294,1,0
392,104,197390,1,8
392,104,197583,1,0
392,104,197679,1,0
392,104,197775,1,8
392,104,197871,1,8
392,104,197967,1,0
256,192,198160,12,0,200467
