osu file format v12

[General]
AudioFilename: 06 3L - Be Happy.mp3
AudioLeadIn: 1000
PreviewTime: 76457
Countdown: 0
SampleSet: Normal
StackLeniency: 0.7
Mode: 0
LetterboxInBreaks: 1

[Editor]
DistanceSpacing: 2
BeatDivisor: 4
GridSize: 4

[Metadata]
Title:Be Happy*
TitleUnicode:Be Happy☆
Artist:3L
ArtistUnicode:3L
Creator:cRyo[iceeicee]
Version:Hard
Source:
Tags:M3-29 Mythol SUPER EURO SMASH Vol.1 Tsukasa OnosakiHito aabc271 Lundlerol collab
BeatmapID:207533
BeatmapSetID:51247

[Difficulty]
HPDrainRate:6
CircleSize:4
OverallDifficulty:6
ApproachRate:7
SliderMultiplier:1.6
SliderTickRate:1

[Events]
//Background and Video events
0,0,"BG.jpg",0,0
//Break Periods
2,104559,109725
2,179179,184155
//Storyboard Layer 0 (Background)
//Storyboard Layer 1 (Fail)
//Storyboard Layer 2 (Pass)
//Storyboard Layer 3 (Foreground)
//Storyboard Sound Samples
//Background Colour Transformations
3,100,163,162,255

[TimingPoints]
1258,379.746835443038,4,1,0,45,1,0
3346,-100,4,2,1,45,0,0
8473,-100,4,1,0,25,0,0
8805,-100,4,1,0,35,0,0
9042,-100,4,2,1,45,0,0
14928,-100,4,1,2,35,0,0
15071,-100,4,1,1,45,0,0
16970,-100,4,2,1,45,0,0
17070,-100,4,1,1,45,0,0
18109,-100,4,2,1,45,0,0
18209,-100,4,1,1,45,0,0
18489,-100,4,2,1,45,0,0
18589,-100,4,1,1,45,0,0
18868,-100,4,2,1,45,0,0
18968,-100,4,1,2,45,0,0
19248,-100,4,2,2,45,0,0
19348,-100,4,1,1,45,0,0
22666,-100,4,2,1,45,0,0
22766,-100,4,1,2,45,0,0
23045,-100,4,2,1,45,0,0
23145,-100,4,1,1,45,0,0
23852,-100,4,1,2,45,0,0
24564,-100,4,2,1,45,0,0
24664,-100,4,1,2,45,0,0
24944,-100,4,2,1,45,0,0
25044,-100,4,1,2,45,0,0
25277,-100,4,1,1,35,0,0
26273,-100,4,2,1,55,0,0
26368,-100,4,1,2,45,0,0
39327,-100,4,2,1,45,0,0
39564,-100,4,1,1,45,0,0
39664,-100,4,2,1,45,0,0
39944,-100,4,1,1,45,0,0
40044,-100,4,2,1,45,0,0
40324,-100,4,1,1,45,0,0
40424,-100,4,2,1,45,0,0
40704,-100,4,1,1,45,0,0
40804,-100,4,2,1,45,0,0
41083,-100,4,1,1,45,0,0
41183,-100,4,2,1,45,0,0
41463,-100,4,1,1,45,0,0
41563,-100,4,2,1,45,0,0
41843,-100,4,1,1,45,0,0
41943,-100,4,2,1,45,0,0
42223,-100,4,1,1,45,0,0
42323,-100,4,2,1,45,0,0
42602,-100,4,1,1,45,0,0
42702,-100,4,2,1,45,0,0
42982,-100,4,1,1,45,0,0
43082,-100,4,2,1,45,0,0
43362,-100,4,1,1,45,0,0
43462,-100,4,2,1,45,0,0
43742,-100,4,1,1,45,0,0
43842,-100,4,2,1,45,0,0
44121,-100,4,1,1,45,0,0
44221,-100,4,2,1,45,0,0
44501,-100,4,1,1,45,0,0
44601,-100,4,2,1,45,0,0
44881,-100,4,1,1,45,0,0
44981,-100,4,2,1,45,0,0
45261,-100,4,1,1,45,0,0
45361,-100,4,2,1,45,0,0
45640,-100,4,1,2,45,0,0
45740,-100,4,2,1,45,0,0
46020,-100,4,1,1,45,0,0
46120,-100,4,2,1,45,0,0
46400,-100,4,1,1,45,0,0
46500,-100,4,2,1,45,0,0
46780,-100,4,1,1,45,0,0
46880,-100,4,2,1,45,0,0
47159,-100,4,1,1,45,0,0
47259,-100,4,2,1,45,0,0
47539,-100,4,1,1,45,0,0
47639,-100,4,2,1,45,0,0
47919,-100,4,1,1,45,0,0
48019,-100,4,2,1,50,0,0
48299,-100,4,1,1,45,0,0
48399,-100,4,2,1,50,0,0
48678,-100,4,1,1,45,0,0
48778,-100,4,2,1,50,0,0
49058,-100,4,1,1,45,0,0
49158,-100,4,2,1,50,0,0
49438,-100,4,1,1,45,0,0
49538,-100,4,1,2,45,0,0
51479,-100,4,2,1,45,0,0
51716,-100,4,1,1,45,0,0
51816,-100,4,2,1,45,0,0
52096,-100,4,1,1,45,0,0
52196,-100,4,2,1,45,0,0
52476,-100,4,1,1,45,0,0
52576,-100,4,2,1,45,0,0
53235,-100,4,1,1,45,0,0
53335,-100,4,2,1,45,0,0
53615,-100,4,1,1,45,0,0
53715,-100,4,2,1,45,0,0
53995,-100,4,1,1,45,0,0
54375,-100,4,1,1,45,0,0
54475,-100,4,2,1,45,0,0
54754,-100,4,1,1,45,0,0
54854,-100,4,2,1,45,0,0
55134,-100,4,1,1,45,0,0
55234,-100,4,2,1,45,0,0
55514,-100,4,1,1,45,0,0
55614,-100,4,2,1,45,0,0
55894,-100,4,1,1,45,0,0
55994,-100,4,2,1,45,0,0
56273,-100,4,1,1,45,0,0
56373,-100,4,2,1,45,0,0
56653,-100,4,1,1,45,0,0
56753,-100,4,2,1,45,0,0
57033,-100,4,1,1,45,0,0
57413,-100,4,1,1,45,0,0
57513,-100,4,2,1,45,0,0
57792,-100,4,1,2,45,0,0
57892,-100,4,2,1,45,0,0
58172,-100,4,1,1,45,0,0
58272,-100,4,2,1,45,0,0
58552,-100,4,1,1,45,0,0
58652,-100,4,2,1,45,0,0
58932,-100,4,1,1,45,0,0
59032,-100,4,2,1,45,0,0
59311,-100,4,1,1,45,0,0
59411,-100,4,2,1,45,0,0
59691,-100,4,1,1,45,0,0
59791,-100,4,2,1,45,0,0
60308,-100,4,1,1,45,0,0
60451,-100,4,1,1,45,0,0
60551,-100,4,2,1,45,0,0
60830,-100,4,1,1,45,0,0
60930,-100,4,2,1,45,0,0
61210,-100,4,1,1,45,0,0
61310,-100,4,2,1,45,0,0
61590,-100,4,1,2,45,0,0
63489,-100,4,1,1,45,0,0
63589,-100,4,2,1,45,0,0
63868,-100,4,1,1,45,0,0
63968,-100,4,2,1,45,0,0
64248,-100,4,1,1,45,0,0
64348,-100,4,2,1,45,0,0
64628,-100,4,1,1,45,0,0
64728,-100,4,2,1,45,0,0
65008,-100,4,1,1,45,0,0
65108,-100,4,2,1,45,0,0
65387,-100,4,1,1,45,0,0
65487,-100,4,2,1,45,0,0
65767,-100,4,1,1,45,0,0
65867,-100,4,2,1,45,0,0
66147,-100,4,1,1,45,0,0
66247,-100,4,2,1,45,0,0
66527,-100,4,1,1,45,0,0
66627,-100,4,2,1,45,0,0
66906,-100,4,1,1,45,0,0
67006,-100,4,2,1,45,0,0
67286,-100,4,1,1,45,0,0
67386,-100,4,2,1,45,0,0
67666,-100,4,1,1,45,0,0
67766,-100,4,2,1,45,0,0
68045,-100,4,1,1,45,0,0
68145,-100,4,2,1,45,0,0
68425,-100,4,1,1,45,0,0
68525,-100,4,2,1,45,0,0
68805,-100,4,1,1,45,0,0
68905,-100,4,2,1,45,0,0
69185,-100,4,1,1,45,0,0
69285,-100,4,2,1,45,0,0
69564,-100,4,1,1,45,0,0
69664,-100,4,2,1,45,0,0
69944,-100,4,1,1,45,0,0
70044,-100,4,2,1,45,0,0
70324,-100,4,1,1,45,0,0
70424,-100,4,2,1,45,0,0
70704,-100,4,1,1,45,0,0
70804,-100,4,2,1,45,0,0
71083,-100,4,1,1,45,0,0
71183,-100,4,2,1,45,0,0
71463,-100,4,1,1,45,0,0
71563,-100,4,2,1,45,0,0
71843,-100,4,1,1,45,0,0
71943,-100,4,2,1,45,0,0
72223,-100,4,1,1,45,0,0
72323,-100,4,2,1,45,0,0
72555,-100,4,1,2,45,0,0
76827,-100,4,2,1,65,0,0
77207,-100,4,1,2,45,0,1
80577,-100,4,1,1,45,0,1
80677,-100,4,1,2,45,0,1
92729,-100,4,1,1,45,0,1
92829,-100,4,1,2,45,0,1
100324,-100,4,2,1,45,0,1
100424,-100,4,1,2,45,0,1
101511,-100,4,1,2,45,0,0
113758,-100,4,2,1,45,0,0
113995,-100,4,1,1,45,0,0
114095,-100,4,2,1,45,0,0
114375,-100,4,1,1,45,0,0
114475,-100,4,2,1,45,0,0
114754,-100,4,1,1,45,0,0
114854,-100,4,2,1,45,0,0
115134,-100,4,1,1,45,0,0
115234,-100,4,2,1,45,0,0
115514,-100,4,1,1,45,0,0
115614,-100,4,2,1,45,0,0
115894,-100,4,1,1,45,0,0
115994,-100,4,2,1,45,0,0
116273,-100,4,1,1,45,0,0
116373,-100,4,2,1,45,0,0
116653,-100,4,1,1,45,0,0
116753,-100,4,2,1,45,0,0
117033,-100,4,1,1,45,0,0
117133,-100,4,2,1,45,0,0
117413,-100,4,1,1,45,0,0
117513,-100,4,2,1,45,0,0
117792,-100,4,1,1,45,0,0
117892,-100,4,2,1,45,0,0
118552,-100,4,1,1,45,0,0
118652,-100,4,2,1,45,0,0
118932,-100,4,1,1,45,0,0
119032,-100,4,2,1,45,0,0
119311,-100,4,1,1,45,0,0
119411,-100,4,2,1,45,0,0
119691,-100,4,1,1,45,0,0
119791,-100,4,2,1,45,0,0
120071,-100,4,1,1,45,0,0
120171,-100,4,2,1,45,0,0
120451,-100,4,1,1,45,0,0
120551,-100,4,2,1,45,0,0
120830,-100,4,1,1,45,0,0
120930,-100,4,2,1,45,0,0
121210,-100,4,1,1,45,0,0
121310,-100,4,2,1,45,0,0
121590,-100,4,1,1,45,0,0
121690,-100,4,2,1,45,0,0
121970,-100,4,1,1,45,0,0
122070,-100,4,2,1,45,0,0
122729,-100,4,1,1,45,0,0
122829,-100,4,2,1,45,0,0
123109,-100,4,1,1,45,0,0
123209,-100,4,2,1,45,0,0
123489,-100,4,1,1,45,0,0
123589,-100,4,2,1,45,0,0
123868,-100,4,1,1,45,0,0
123963,-100,4,1,2,45,0,0
125909,-100,4,2,1,45,0,0
126147,-100,4,1,1,45,0,0
126247,-100,4,2,1,45,0,0
126527,-100,4,1,1,45,0,0
126627,-100,4,2,1,45,0,0
126906,-100,4,1,1,45,0,0
127006,-100,4,2,1,45,0,0
127666,-100,4,1,1,45,0,0
127766,-100,4,2,1,45,0,0
128045,-100,4,1,1,45,0,0
128145,-100,4,2,1,45,0,0
128425,-100,4,1,1,45,0,0
128905,-100,4,1,1,45,0,0
129185,-100,4,2,1,45,0,0
129285,-100,4,1,1,45,0,0
129564,-100,4,1,1,45,0,0
129664,-100,4,2,1,45,0,0
129944,-100,4,1,1,45,0,0
130044,-100,4,2,1,45,0,0
130704,-100,4,1,1,45,0,0
132323,-100,4,2,1,45,0,0
132602,-100,4,1,1,45,0,0
132702,-100,4,2,1,45,0,0
132982,-100,4,1,1,45,0,0
133082,-100,4,2,1,45,0,0
133362,-100,4,1,1,45,0,0
133462,-100,4,2,1,45,0,0
133742,-100,4,1,1,45,0,0
133842,-100,4,2,1,45,0,0
134121,-100,4,1,1,45,0,0
134221,-100,4,2,1,45,0,0
134881,-100,4,1,1,45,0,0
134981,-100,4,2,1,45,0,0
135261,-100,4,1,1,45,0,0
135361,-100,4,2,1,45,0,0
135640,-100,4,1,1,45,0,0
135740,-100,4,2,1,45,0,0
136020,-100,4,1,1,45,0,0
136115,-100,4,1,2,45,0,0
138778,-100,4,2,1,45,0,0
139058,-100,4,1,1,45,0,0
139158,-100,4,2,1,45,0,0
139438,-100,4,1,1,45,0,0
141437,-100,4,2,1,45,0,0
141716,-100,4,1,1,45,0,0
141816,-100,4,2,1,45,0,0
142096,-100,4,1,1,45,0,0
142196,-100,4,2,1,45,0,0
142476,-100,4,1,1,45,0,0
144475,-100,4,2,1,45,0,0
144754,-100,4,1,1,45,0,0
144854,-100,4,2,1,45,0,0
145134,-100,4,1,1,45,0,0
145234,-100,4,2,1,45,0,0
145514,-100,4,1,1,45,0,0
145614,-100,4,2,1,45,0,0
145894,-100,4,1,1,45,0,0
145994,-100,4,2,1,45,0,0
146273,-100,4,1,1,45,0,0
146373,-100,4,2,1,45,0,0
146653,-100,4,1,2,45,0,0
151258,-100,4,2,1,55,0,0
151637,-100,4,1,2,45,0,1
155008,-100,4,1,1,45,0,1
155108,-100,4,1,2,45,0,1
167159,-100,4,1,1,45,0,1
167259,-100,4,1,2,45,0,1
175941,-100,4,1,2,45,0,0
187808,-133.333333333333,4,2,1,45,0,0
188852,-100,4,1,2,45,0,1
191463,-100,4,1,1,45,0,1
191563,-100,4,1,2,45,0,1
203615,-100,4,1,1,45,0,1
203715,-100,4,1,2,45,0,1
211210,-100,4,2,1,45,0,1
211310,-100,4,1,2,45,0,1
212397,-100,4,1,2,45,0,0
213916,-100,4,1,1,45,0,1
213963,-100,4,1,1,45,0,0

[Colours]
Combo1 : 255,255,28
Combo2 : 9,213,207
Combo3 : 255,66,255

[HitObjects]
256,192,1258,12,4,2777,0:0:0:0:
120,84,3536,5,2,0:0:0:0:
192,192,4295,1,2,0:0:0:0:
320,192,5055,1,2,0:0:0:0:
392,84,5814,1,8,0:0:0:0:
256,52,7333,1,8,0:0:0:0:
256,192,8663,5,0,0:0:0:0:
256,192,8852,1,4,0:0:0:0:
192,104,9612,5,2,0:0:0:0:
168,256,10371,1,2,0:0:0:0:
320,280,11131,1,2,0:0:0:0:
344,128,11890,1,8,0:0:0:0:
256,192,13409,1,4,0:0:0:0:
256,192,13599,12,4,14928,0:0:0:0:
172,96,15308,21,4,0:0:0:0:
340,96,15688,1,2,0:0:0:0:
256,244,16068,1,0,0:0:0:0:
88,296,16447,6,0,B|33:277|14:207|52:164,1,160,2|0,0:0|0:0,0:0:0:0:
100,92,17017,1,0,0:0:0:0:
188,100,17207,2,0,B|220:148|292:148|324:100,1,160,2|4,0:0|0:0,0:0:0:0:
463,241,17966,6,0,B|462:282|438:317,1,80,2|0,0:0|0:0,0:0:0:0:
353,340,18346,2,0,B|317:318|299:280,1,80,0|0,0:0|0:0,0:0:0:0:
320,196,18726,2,0,B|356:175|398:179,1,80,0|0,0:0|0:0,0:0:0:0:
387,93,19106,2,0,B|428:96|465:76,2,80,0|0|2,0:0|0:0|0:0,0:0:0:0:
304,68,19675,5,0,0:0:0:0:
220,88,19865,2,0,B|180:80,1,40
76,132,20150,2,0,B|116:140,1,40
188,192,20435,1,0,0:0:0:0:
256,248,20625,2,0,B|256:288,3,40
256,332,21004,6,0,B|299:370|369:351|388:296,1,160,4|0,0:0|0:0,0:0:0:0:
480,148,21764,2,0,B|461:93|391:74|348:112,1,160,2|0,0:0|0:0,0:0:0:0:
188,180,22523,2,0,B|148:196|108:192,1,80,2|0,0:0|0:0,0:0:0:0:
36,144,22903,2,0,B|16:184|20:228,1,80
64,300,23283,2,0,B|107:338|177:319|196:264,1,160,2|0,0:0|0:0,0:0:0:0:
448,300,24042,6,0,B|405:338|335:319|316:264,1,160,12|0,0:0|0:0,0:0:0:0:
256,200,24612,1,2,0:0:0:0:
256,112,24802,2,0,B|256:24,2,80,0|2|0,0:0|0:0|0:0,0:0:0:0:
168,124,25371,5,6,0:0:0:0:
256,276,25751,1,6,0:0:0:0:
344,124,26131,1,6,0:0:0:0:
344,124,26321,1,4,0:0:0:0:
168,124,27080,6,0,B|124:120|88:136,2,80,2|0|2,0:0|0:0|0:0,0:0:0:0:
248,164,27650,2,0,B|288:172|336:152,1,80,2|0,0:0|0:0,0:0:0:0:
466,211,28030,2,0,B|426:203|388:220,1,80,2|0,0:0|0:0,0:0:0:0:
316,272,28409,6,2,B|273:310|203:291|184:236,1,160,2|2,0:0|0:0,0:0:0:0:
160,152,28979,1,2,0:0:0:0:
128,72,29169,2,2,B|73:91|54:161|92:204,1,160
164,288,29739,1,0,0:0:0:0:
256,352,29928,2,2,B|260:312|260:312|248:296|248:296|264:280|264:280|248:264|248:264|264:240|264:240|256:224|256:224|260:200|260:200|252:180|252:180|264:160|264:160|252:136|252:136|264:112|264:112|256:88|256:88|256:60,1,320,2|0,0:0|0:0,0:0:0:0:
56,124,31068,5,2,0:0:0:0:
128,72,31258,1,2,0:0:0:0:
212,100,31447,2,2,B|292:128|372:80,1,160
448,48,32017,1,2,0:0:0:0:
488,128,32207,2,2,B|504:208|472:284,1,160
392,320,32777,1,2,0:0:0:0:
308,340,32966,2,2,B|280:332|264:312|264:312|244:328|244:328|220:300|220:300|200:324|200:324|176:304|176:304|152:332|100:360|12:324|12:232,1,400,0|0,0:0|0:0,0:0:0:0:
64,136,34106,6,0,B|104:120|142:123,1,80,2|2,0:0|0:0,0:0:0:0:
232,136,34485,1,2,0:0:0:0:
316,160,34675,1,2,0:0:0:0:
372,92,34865,1,2,0:0:0:0:
288,68,35055,1,2,0:0:0:0:
232,136,35245,2,2,B|213:191|256:249|313:245,1,160,2|0,0:0|0:0,0:0:0:0:
396,212,35814,1,2,0:0:0:0:
468,164,36004,5,0,0:0:0:0:
468,164,36099,1,0,0:0:0:0:
468,164,36194,2,0,B|484:200|472:244,2,80,2|2|2,0:0|0:0|0:0,0:0:0:0:
344,139,36764,2,0,B|296:171|296:244|344:276,1,160,2|2,0:0|0:0,0:0:0:0:
256,192,37523,12,0,39232,0:0:0:0:
212,112,39422,6,0,B|172:104|132:120,2,80,2|0|2,0:0|0:0|0:0,0:0:0:0:
300,112,39992,2,0,B|340:104|380:120,2,80,0|2|0,0:0|0:0|0:0,0:0:0:0:
256,188,40561,2,0,B|256:284,1,80,4|0,0:0|0:0,0:0:0:0:
256,356,40941,1,2,0:0:0:0:
328,304,41131,6,0,B|368:304|408:284,1,80,0|2,0:0|0:0,0:0:0:0:
184,304,41511,2,0,B|144:304|104:284,1,80
256,268,41890,2,0,B|256:188,1,80
324,132,42270,2,0,B|291:83|218:83|187:131,2,160,0|2|0,0:0|0:0|0:0,0:0:0:0:
384,196,43220,2,0,B|420:184|462:185,1,80,2|0,0:0|0:0,0:0:0:0:
500,264,43599,2,0,B|474:315|402:323|364:280,1,160,4|0,0:0|0:0,0:0:0:0:
300,220,44169,6,0,B|260:216|220:227,1,80
140,264,44549,2,0,B|96:268|60:252,1,80
68,164,44928,2,0,B|120:152|156:172|156:172|172:148|224:136,2,160,0|2|8,0:0|0:0|0:0,0:0:0:0:
56,76,45878,2,0,B|92:56|136:60,1,80
220,56,46258,5,2,0:0:0:0:
304,76,46447,1,0,0:0:0:0:
372,132,46637,2,0,B|380:172|368:212,1,80,4|0,0:0|0:0,0:0:0:0:
288,284,47017,2,0,B|280:244|292:204,1,80,2|0,0:0|0:0,0:0:0:0:
440,220,47397,2,0,B|448:260|436:300,1,80,2|0,0:0|0:0,0:0:0:0:
356,340,47777,2,0,B|320:386|248:382|219:333,1,160,4|2,0:0|0:0,0:0:0:0:
164,264,48346,5,0,0:0:0:0:
108,332,48536,1,2,0:0:0:0:
164,264,48726,1,0,0:0:0:0:
92,216,48916,5,2,0:0:0:0:
64,132,49106,1,0,0:0:0:0:
100,52,49295,1,2,0:0:0:0:
188,40,49485,1,0,0:0:0:0:
256,96,49675,6,0,B|233:157|281:189|257:253,2,160,2|2|2,0:0|0:0|0:0,0:0:0:0:
256,96,50814,1,2,0:0:0:0:
256,96,51004,1,2,0:0:0:0:
340,72,51194,2,0,B|352:20,2,40,0|0|4,0:0|0:0|0:0,0:0:0:0:
392,144,51574,6,0,B|400:184|384:228,1,80,2|0,0:0|0:0,0:0:0:0:
308,264,51954,1,2,0:0:0:0:
384,312,52144,2,0,B|424:316|464:296,2,80,0|2|0,0:0|0:0|0:0,0:0:0:0:
308,356,52713,2,0,B|224:372|152:332,1,160,4|2,0:0|0:0,0:0:0:0:
84,276,53283,5,0,0:0:0:0:
88,188,53473,1,0,0:0:0:0:
164,148,53663,2,0,B|172:188|160:228,1,80,2|0,0:0|0:0,0:0:0:0:
12,220,54042,2,0,B|4:180|16:140,1,80
92,96,54422,6,0,B|108:44|72:20|72:20|36:48|-4:40,2,160,0|2|0,0:0|0:0|0:0,0:0:0:0:
164,148,55371,2,0,B|204:144|244:160,1,80,2|0,0:0|0:0,0:0:0:0:
345,225,55751,2,0,B|382:269|362:338|308:356,1,160,4|0,0:0|0:0,0:0:0:0:
204,356,56321,2,0,B|149:338|129:269|166:225,2,160
256,284,57270,5,0,0:0:0:0:
256,284,57365,1,0,0:0:0:0:
256,284,57460,2,0,B|256:124,1,160,0|4,0:0|0:0,0:0:0:0:
204,52,58030,2,0,B|160:48|124:64,1,80,0|0,0:0|0:0,0:0:0:0:
52,112,58409,5,2,0:0:0:0:
60,200,58599,1,0,0:0:0:0:
144,242,58789,2,0,B|156:204|140:164,1,80,4|0,0:0|0:0,0:0:0:0:
68,288,59169,5,2,0:0:0:0:
140,336,59359,1,0,0:0:0:0:
220,300,59549,2,0,B|256:288|299:292,1,80,4|0,0:0|0:0,0:0:0:0:
408,304,59928,2,0,B|440:224|420:140,1,160,4|0,0:0|0:0,0:0:0:0:
340,116,60498,6,0,B|352:32,1,80,4|2,0:0|0:0,0:0:0:0:
256,156,60878,2,0,B|256:72,1,80,0|2,0:0|0:0,0:0:0:0:
172,116,61258,2,0,B|160:32,2,80,0|2|0,0:0|0:0|0:0,0:0:0:0:
168,220,61827,6,0,B|136:248,2,40
256,272,62207,2,0,B|256:312,2,40
344,220,62587,2,0,B|376:248,2,40
256,156,62966,1,2,0:0:0:0:
256,156,63156,1,2,0:0:0:0:
468,72,63536,6,0,B|505:116|485:185|431:203,1,160,4|0,0:0|0:0,0:0:0:0:
344,220,64106,2,0,B|328:260|329:299,1,80,4|0,0:0|0:0,0:0:0:0:
396,356,64485,1,2,0:0:0:0:
452,288,64675,1,0,0:0:0:0:
431,203,64865,1,2,0:0:0:0:
372,136,65055,6,0,B|288:156|216:120,1,160,2|0,0:0|0:0,0:0:0:0:
100,252,65814,2,0,B|184:232|256:268,1,160,2|0,0:0|0:0,0:0:0:0:
431,203,66574,2,0,B|459:119|427:47,1,160,2|0,0:0|0:0,0:0:0:0:
340,44,67144,1,0,0:0:0:0:
256,76,67333,2,0,B|232:76|212:64,3,40,0|2|2|2,0:0|0:0|0:0|0:0,0:0:0:0:
172,60,67713,2,0,B|148:60|128:72,4,40,0|2|2|2|0,0:0|0:0|0:0|0:0|0:0,0:0:0:0:
256,216,68473,6,0,B|237:270|168:290|124:253,2,160,2|2|2,0:0|0:0|0:0,0:0:0:0:
376,52,69612,2,0,B|430:70|450:139|413:183,1,160,4|0,0:0|0:0,0:0:0:0:
334,225,70182,2,0,B|296:212|256:216,1,80,4|0,0:0|0:0,0:0:0:0:
172,240,70561,1,2,0:0:0:0:
88,212,70751,1,0,0:0:0:0:
24,152,70941,6,0,B|20:112|36:72,1,80,4|0,0:0|0:0,0:0:0:0:
140,28,71321,2,0,B|144:68|128:108,1,80,2|0,0:0|0:0,0:0:0:0:
228,164,71701,2,0,B|224:124|240:84,1,80,2|0,0:0|0:0,0:0:0:0:
320,52,72080,5,4,0:0:0:0:
404,72,72270,1,0,0:0:0:0:
448,148,72460,1,0,0:0:0:0:
440,236,72650,2,0,B|421:290|352:310|308:273,1,160,6|0,0:0|0:0,0:0:0:0:
228,236,73220,2,0,B|188:228|148:238,1,80,2|0,0:0|0:0,0:0:0:0:
284,148,73599,2,0,B|324:156|363:145,1,80,2|0,0:0|0:0,0:0:0:0:
228,60,73979,6,0,B|148:36|68:72,1,160,2|0,0:0|0:0,0:0:0:0:
36,184,74549,1,0,0:0:0:0:
100,288,74739,2,0,B|184:312|256:276,1,160,2|2,0:0|0:0,0:0:0:0:
256,276,75308,1,2,0:0:0:0:
256,192,75688,12,4,76827,0:0:0:0:
228,84,77207,22,0,B|188:104|144:96,1,80,6|0,0:0|0:0,0:0:0:0:
64,84,77587,1,2,0:0:0:0:
36,168,77777,2,0,B|25:207|33:247,1,80,2|0,0:0|0:0,0:0:0:0:
84,320,78156,1,2,0:0:0:0:
172,340,78346,1,2,0:0:0:0:
256,316,78536,1,0,0:0:0:0:
320,252,78726,6,0,B|336:212|328:164,1,80,2|0,0:0|0:0,0:0:0:0:
256,136,79106,2,0,B|209:141|178:121,1,80,2|0,0:0|0:0,0:0:0:0:
328,88,79485,2,0,B|362:56|398:54,1,80,2|0,0:0|0:0,0:0:0:0:
488,108,79865,1,2,0:0:0:0:
460,210,80055,2,0,B|416:247|347:227|328:172,1,160,2|0,0:0|0:0,0:0:0:0:
236,60,80625,2,0,B|181:78|161:147|198:191,1,160,4|0,0:0|0:0,0:0:0:0:
256,260,81194,5,2,0:0:0:0:
340,280,81384,1,0,0:0:0:0:
424,304,81574,2,0,B|410:359|344:386|296:354,1,160,2|2,0:0|0:0,0:0:0:0:
256,260,82144,1,0,0:0:0:0:
215,354,82333,2,0,B|167:386|101:359|88:304,1,160,2|2,0:0|0:0,0:0:0:0:
84,216,82903,1,2,0:0:0:0:
84,196,82998,1,0,0:0:0:0:
84,176,83093,1,0,0:0:0:0:
84,156,83188,1,0,0:0:0:0:
84,136,83283,6,0,B|48:100|64:48|64:48|36:48|0:24,2,160,6|2|0,0:0|0:0|0:0,0:0:0:0:
148,76,84232,1,2,0:0:0:0:
236,60,84422,1,0,0:0:0:0:
320,88,84612,2,0,B|332:128|328:168,1,80,2|4,0:0|0:0,0:0:0:0:
256,256,84992,2,0,B|244:216|248:176,1,80,2|0,0:0|0:0,0:0:0:0:
404,164,85371,2,0,B|416:204|412:244,1,80,2|0,0:0|0:0,0:0:0:0:
396,332,85751,5,2,0:0:0:0:
312,356,85941,1,2,0:0:0:0:
224,352,86131,1,0,0:0:0:0:
140,320,86321,6,0,B|124:280|128:240,1,80,2|0,0:0|0:0,0:0:0:0:
200,190,86701,2,0,B|203:151|187:111,1,80,6|0,0:0|0:0,0:0:0:0:
116,60,87080,2,0,B|80:40|36:44,2,80,2|0|2,0:0|0:0|0:0,0:0:0:0:
188,112,87650,6,0,B|219:160|292:160|325:111,2,160,2|2|2,0:0|0:0|0:0,0:0:0:0:
256,276,88789,1,2,0:0:0:0:
336,316,88979,2,0,B|376:304,3,40,2|0|0|0,0:0|0:0|0:0|0:0,0:0:0:0:
416,288,89359,6,0,B|428:248|420:204,1,80,6|0,0:0|0:0,0:0:0:0:
408,120,89739,1,2,0:0:0:0:
324,92,89928,2,0,B|280:100|244:84,1,80,2|0,0:0|0:0,0:0:0:0:
160,60,90308,1,2,0:0:0:0:
92,116,90498,1,0,0:0:0:0:
88,204,90688,1,2,0:0:0:0:
128,284,90878,6,0,B|176:316|242:289|255:234,1,160,2|2,0:0|0:0,0:0:0:0:
384,100,91637,2,0,B|336:68|270:95|257:150,1,160,2|2,0:0|0:0,0:0:0:0:
340,176,92207,2,0,B|388:208|454:181|467:126,1,160,2|0,0:0|0:0,0:0:0:0:
384,100,92777,2,0,B|440:256,1,160,4|0,0:0|0:0,0:0:0:0:
420,336,93346,5,2,0:0:0:0:
336,360,93536,1,0,0:0:0:0:
256,328,93726,2,0,B|192:352|148:316|148:316|92:348,2,160,2|2|2,0:0|0:0|0:0,0:0:0:0:
256,152,94865,1,2,0:0:0:0:
256,152,95055,1,2,0:0:0:0:
316,88,95245,5,0,0:0:0:0:
316,88,95340,1,0,0:0:0:0:
316,88,95435,2,0,B|359:125|352:196|302:223,1,160,2|4,0:0|0:0,0:0:0:0:
209,224,96004,2,0,B|159:196|152:125|196:88,1,160,2|2,0:0|0:0,0:0:0:0:
256,20,96574,1,0,0:0:0:0:
316,88,96764,6,0,B|343:137|414:145|452:101,1,160,2|2,0:0|0:0,0:0:0:0:
388,40,97333,1,0,0:0:0:0:
388,40,97523,2,0,B|360:204,1,160,2|2,0:0|0:0,0:0:0:0:
300,264,98093,5,2,0:0:0:0:
212,264,98283,1,0,0:0:0:0:
128,240,98473,2,0,B|109:294|152:351|209:349,1,160,2|0,0:0|0:0,0:0:0:0:
302,349,99042,2,0,B|359:351|402:294|384:240,2,160,2|2|2,0:0|0:0|0:0,0:0:0:0:
300,172,100182,6,0,B|323:139|386:129,2,80,2|0|0,0:0|0:0|0:0,0:0:0:0:
212,172,100751,2,0,B|188:139|125:129,1,80,2|0,0:0|0:0,0:0:0:0:
184,56,101131,2,0,B|236:68|256:88|256:88|276:68|328:56,1,160,2|6,0:0|0:0,0:0:0:0:
256,192,101701,12,4,104359,0:0:0:0:
256,128,110625,6,0,B|256:44,2,80,2|2|0,0:0|0:0|0:0,0:0:0:0:
296,208,111194,2,0,B|336:216|372:196,1,80,2|0,0:0|0:0,0:0:0:0:
216,208,111574,2,0,B|176:216|140:196,1,80,2|0,0:0|0:0,0:0:0:0:
68,144,111954,6,0,B|31:188|51:257|105:276,2,160,2|2|2,0:0|0:0|0:0,0:0:0:0:
68,144,113093,2,2,B|220:88,1,160,2|0,0:0|2:0,0:0:0:0:
316,64,113663,6,0,B|356:136|332:224,1,160,4|0,0:0|0:0,0:0:0:0:
256,264,114232,1,2,0:0:0:0:
172,232,114422,2,0,B|160:272|180:312,2,80,0|2|0,0:0|0:0|0:0,0:0:0:0:
240,176,114992,2,0,B|252:136|233:98,1,80,4|0,0:0|0:0,0:0:0:0:
160,52,115371,1,2,0:0:0:0:
144,140,115561,2,0,B|100:177|31:157|12:103,2,160,0|2|0,0:0|0:0|0:0,0:0:0:0:
313,89,116701,6,0,B|353:84|391:103,1,80
426,184,117081,2,0,B|409:222|374:245,1,80,2|0,0:0|0:0,0:0:0:0:
288,236,117461,2,0,B|262:203|260:161,2,80,0|2|0,0:0|0:0|0:0,0:0:0:0:
325,315,118030,2,0,B|292:364|219:364|188:316,1,160,4|0,0:0|0:0,0:0:0:0:
156,236,118599,6,0,B|119:255|99:292,1,80
14,275,118979,2,0,B|19:235|-1:197,1,80
60,136,119359,2,0,B|98:156|137:151,1,80
188,76,119739,6,0,B|120:19|38:49,2,160,4|2|0,0:0|0:0|0:0,0:0:0:0:
256,132,120688,1,2,0:0:0:0:
324,76,120878,1,0,0:0:0:0:
408,104,121068,2,0,B|424:144|416:188,1,80,4|0,0:0|0:0,0:0:0:0:
332,200,121447,2,0,B|296:216|272:252,1,80,2|0,0:0|0:0,0:0:0:0:
384,272,121827,2,0,B|400:307|436:331,1,80,2|0,0:0|0:0,0:0:0:0:
316,332,122207,2,0,B|236:368|160:320,1,160,4|2,0:0|0:0,0:0:0:0:
96,264,122777,5,0,0:0:0:0:
36,200,122966,1,2,0:0:0:0:
120,180,123156,1,0,0:0:0:0:
184,120,123346,5,2,0:0:0:0:
256,72,123536,1,0,0:0:0:0:
328,120,123726,1,2,0:0:0:0:
256,172,123916,1,0,0:0:0:0:
188,228,124106,6,0,B|220:276|292:276|324:228,2,160,2|2|2,0:0|0:0|0:0,0:0:0:0:
256,72,125245,1,2,0:0:0:0:
256,72,125435,1,2,0:0:0:0:
168,68,125625,2,0,B|136:44,2,40,0|0|4,0:0|0:0|0:0,0:0:0:0:
198,150,126004,6,0,B|203:193|187:229,1,80,2|0,0:0|0:0,0:0:0:0:
108,272,126384,1,2,0:0:0:0:
180,324,126574,2,0,B|220:316|256:336,2,80,0|2|0,0:0|0:0|0:0,0:0:0:0:
48,324,127144,6,0,B|11:280|31:211|92:196,1,160,4|2,0:0|0:0,0:0:0:0:
172,160,127713,2,0,B|180:120|164:80,1,80,0|2,0:0|0:0,0:0:0:0:
256,104,128093,2,0,B|256:20,1,80,0|2,0:0|0:0,0:0:0:0:
340,160,128473,2,0,B|332:120|348:80,1,80
468,64,128852,6,0,B|505:108|485:177|431:196,1,160,0|4,0:0|0:0,0:0:0:0:
360,244,129422,1,0,0:0:0:0:
344,332,129612,2,0,B|384:336|428:304,2,80,0|2|0,0:0|0:0|0:0,0:0:0:0:
256,312,130182,2,0,B|236:244|276:220|256:152,1,160,4|0,0:0|0:0,0:0:0:0:
256,64,130751,5,0,0:0:0:0:
100,192,131131,1,0,0:0:0:0:
256,312,131511,1,0,0:0:0:0:
412,192,131890,6,0,B|328:216|256:172,1,160,0|4,0:0|0:0,0:0:0:0:
192,112,132460,2,0,B|152:108|112:124,1,80,0|0,0:0|0:0,0:0:0:0:
36,164,132840,1,2,0:0:0:0:
32,252,133030,1,0,0:0:0:0:
104,304,133220,6,0,B|144:308|184:292,1,80,4|0,0:0|0:0,0:0:0:0:
264,260,133599,1,2,0:0:0:0:
348,284,133789,1,0,0:0:0:0:
432,252,133979,2,2,B|448:212|440:168,1,80,4|0,0:0|0:0,0:0:0:0:
416,88,134359,2,0,B|348:136|264:108,1,160,2|2,0:0|0:0,0:0:0:0:
180,80,134928,5,4,0:0:0:0:
104,124,135118,1,2,0:0:0:0:
180,168,135308,1,0,0:0:0:0:
104,212,135498,1,2,0:0:0:0:
180,256,135688,1,0,0:0:0:0:
104,300,135878,1,2,0:0:0:0:
180,344,136068,1,0,0:0:0:0:
256,300,136258,6,0,B|272:292|300:292,2,40
376,324,136637,2,0,B|398:324|414:316,2,40
476,256,137017,2,0,B|488:240|496:208,2,40
488,136,137397,1,2,0:0:0:0:
488,136,137587,1,2,0:0:0:0:
388,120,137777,5,0,0:0:0:0:
388,120,137871,1,0,0:0:0:0:
388,120,137966,2,0,B|344:157|275:137|256:83,2,160,4|0|0,0:0|0:0|0:0,0:0:0:0:
448,56,138916,1,2,0:0:0:0:
488,136,139106,1,0,0:0:0:0:
468,220,139295,1,2,0:0:0:0:
396,268,139485,6,0,B|352:305|283:285|264:231,1,160,2|0,0:0|0:0,0:0:0:0:
116,116,140245,2,0,B|160:79|229:99|248:153,1,160,2|0,0:0|0:0,0:0:0:0:
240,240,140814,1,0,0:0:0:0:
196,316,141004,6,0,B|152:353|83:333|64:279,1,160,2|0,0:0|0:0,0:0:0:0:
48,192,141574,1,0,0:0:0:0:
126,154,141764,2,0,B|126:134|116:116,3,40,0|2|2|2,0:0|0:0|0:0|0:0,0:0:0:0:
100,76,142144,2,0,B|100:56|110:37,4,40,0|2|2|2|0,0:0|0:0|0:0|0:0|0:0,0:0:0:0:
188,228,142903,6,0,B|220:276|292:276|324:228,2,160,2|2|2,0:0|0:0|0:0,0:0:0:0:
348,152,144042,2,0,B|402:170|421:240|383:283,1,160,4|0,0:0|0:0,0:0:0:0:
308,332,144612,2,0,B|268:344|228:340,1,80,4|0,0:0|0:0,0:0:0:0:
140,328,144992,1,2,0:0:0:0:
80,264,145182,1,0,0:0:0:0:
144,204,145371,6,0,B|112:176|70:176,1,80,4|0,0:0|0:0,0:0:0:0:
204,268,145751,2,0,B|245:268|277:240,1,80,2|0,0:0|0:0,0:0:0:0:
312,92,146131,2,0,B|291:129|300:172,1,80,2|0,0:0|0:0,0:0:0:0:
364,228,146511,1,4,0:0:0:0:
452,216,146701,1,0,0:0:0:0:
484,136,146890,1,0,0:0:0:0:
443,56,147080,6,0,B|424:111|355:130|312:92,1,160,2|0,0:0|0:0,0:0:0:0:
200,92,147650,2,0,B|156:130|87:111|68:56,1,160,2|2,0:0|0:0,0:0:0:0:
68,57,148220,1,0,0:0:0:0:
148,20,148409,2,2,B|108:176,1,160,2|0,0:0|0:0,0:0:0:0:
116,264,148979,5,2,0:0:0:0:
188,312,149169,2,0,B|220:360|292:360|324:312,1,160,2|2,0:0|0:0,0:0:0:0:
396,264,149739,1,2,0:0:0:0:
256,192,150118,12,4,151258,0:0:0:0:
172,76,151637,6,0,B|204:148|184:236,1,160,6|2,0:0|0:0,0:0:0:0:
100,264,152207,2,0,B|184:244|256:276,1,160,2|2,0:0|0:0,0:0:0:0:
340,308,152777,1,2,0:0:0:0:
428,296,152966,1,0,0:0:0:0:
476,224,153156,6,0,B|488:184|480:140,1,80,2|0,0:0|0:0,0:0:0:0:
328,68,153536,2,0,B|316:108|324:152,1,80,2|0,0:0|0:0,0:0:0:0:
402,184,153916,2,0,B|383:239|314:258|271:220,1,160,2|0,0:0|0:0,0:0:0:0:
192,184,154485,2,0,B|211:129|280:110|323:148,1,160,2|0,0:0|0:0,0:0:0:0:
352,280,155055,2,0,B|333:335|264:354|221:316,1,160,4|0,0:0|0:0,0:0:0:0:
144,272,155625,5,2,0:0:0:0:
120,188,155814,1,0,0:0:0:0:
84,108,156004,2,0,B|29:127|10:196|48:239,1,160,2|2,0:0|0:0,0:0:0:0:
144,272,156574,1,0,0:0:0:0:
144,272,156764,2,0,B|200:259|228:193|195:146,1,160,2|2,0:0|0:0,0:0:0:0:
168,64,157333,1,2,0:0:0:0:
184,56,157428,1,0,0:0:0:0:
204,52,157523,1,0,0:0:0:0:
224,52,157618,1,0,0:0:0:0:
244,56,157713,6,0,B|292:80|320:52|320:52|368:64|360:108,1,160,6|0,0:0|0:0,0:0:0:0:
328,192,158283,2,0,B|320:231|332:271,1,80,2|0,0:0|0:0,0:0:0:0:
392,344,158663,1,2,0:0:0:0:
472,308,158852,1,0,0:0:0:0:
480,220,159042,6,0,B|487:180|475:140,1,80,2|4,0:0|0:0,0:0:0:0:
416,72,159422,2,0,B|376:64|336:76,1,80,2|0,0:0|0:0,0:0:0:0:
252,100,159802,2,0,B|208:112|156:88,1,80,2|0,0:0|0:0,0:0:0:0:
92,60,160182,1,2,0:0:0:0:
52,136,160371,1,2,0:0:0:0:
80,220,160561,1,0,0:0:0:0:
136,288,160751,6,0,B|176:300|216:284,1,80,2|0,0:0|0:0,0:0:0:0:
334,188,161131,2,0,B|294:176|256:192,1,80,2|0,0:0|0:0,0:0:0:0:
296,272,161511,1,2,0:0:0:0:
380,296,161701,1,2,0:0:0:0:
460,260,161890,1,0,0:0:0:0:
472,172,162080,6,0,B|476:128|448:96|448:96|480:80|496:32,2,160,2|2|2,0:0|0:0|0:0,0:0:0:0:
384,156,163030,2,0,B|340:168|304:152,1,80
220,128,163409,1,0,0:0:0:0:
204,120,163504,1,0,0:0:0:0:
184,116,163599,1,0,0:0:0:0:
164,116,163694,1,0,0:0:0:0:
144,120,163789,6,0,B|120:152|116:200,1,80,6|0,0:0|0:0,0:0:0:0:
124,284,164169,1,0,0:0:0:0:
184,348,164359,2,0,B|208:316|212:268,1,80,2|0,0:0|0:0,0:0:0:0:
300,273,164739,2,0,B|304:316|328:348,2,80,2|0|2,0:0|0:0|0:0,0:0:0:0:
340,196,165308,6,0,B|348:156|364:120,1,80,2|0,0:0|0:0,0:0:0:0:
256,136,165688,2,0,B|256:32,1,80,2|0,0:0|0:0,0:0:0:0:
172,196,166068,2,0,B|164:156|148:120,1,80,2|0,0:0|0:0,0:0:0:0:
32,152,166447,1,2,0:0:0:0:
32,152,166637,2,0,B|-6:195|13:264|68:283,1,160,2|0,0:0|0:0,0:0:0:0:
156,288,167207,2,0,B|220:296|256:260|256:260|316:276,1,160,4|0,0:0|0:0,0:0:0:0:
404,264,167777,5,2,0:0:0:0:
428,180,167966,1,0,0:0:0:0:
460,100,168156,2,0,B|515:119|534:188|496:231,2,160,2|2|2,0:0|0:0|0:0,0:0:0:0:
256,60,169295,1,2,0:0:0:0:
256,60,169485,1,2,0:0:0:0:
256,148,169675,5,0,0:0:0:0:
256,148,169770,1,0,0:0:0:0:
256,148,169865,2,0,B|256:232,1,80,2|0,0:0|0:0,0:0:0:0:
220,308,170245,1,4,0:0:0:0:
136,328,170435,2,0,B|81:309|62:240|100:197,1,160,2|0,0:0|0:0,0:0:0:0:
168,136,171004,1,0,0:0:0:0:
256,148,171194,6,0,B|299:186|368:167|387:112,1,160,2|0,0:0|0:0,0:0:0:0:
308,72,171764,1,0,0:0:0:0:
220,68,171954,2,0,B|177:30|108:49|89:104,1,160,2|2,0:0|0:0,0:0:0:0:
64,188,172523,2,0,B|56:228|64:272,1,80,2|0,0:0|0:0,0:0:0:0:
124,332,172903,6,0,B|167:370|236:351|255:296,1,160,2|0,0:0|0:0,0:0:0:0:
324,240,173473,2,0,B|292:192|220:192|188:240,2,160,2|2|2,0:0|0:0|0:0,0:0:0:0:
300,64,174612,6,0,B|344:60|377:85,2,80,2|2|0,0:0|0:0|0:0,0:0:0:0:
212,64,175182,2,0,B|167:60|134:85,1,80,2|0,0:0|0:0,0:0:0:0:
188,168,175561,2,0,B|220:216|292:216|324:168,1,160,2|6,0:0|0:0,0:0:0:0:
256,192,176131,12,4,178979,0:0:0:0:
256,44,185055,38,0,B|256:84,3,40,2|0|0|0,0:0|0:0|0:0|0:0,0:0:0:0:
256,128,185435,2,0,B|256:172,3,40,2|0|0|0,0:0|0:0|0:0|0:0,0:0:0:0:
256,212,185814,2,0,B|256:256,3,40,2|0|0|0,0:0|0:0|0:0|0:0,0:0:0:0:
256,296,186194,2,0,B|256:336,3,40,2|0|2|0,0:0|0:0|0:0|0:0,0:0:0:0:
256,192,186574,12,0,187713,0:0:0:0:
80,106,188093,6,0,P|140:98|204:138,1,120.000004577637,2|0,0:0|0:0,0:0:0:0:
192,124,188663,2,0,P|224:122|264:110,1,60.0000022888184,2|0,0:0|0:0,0:0:0:0:
340,68,189042,5,0,0:0:0:0:
436,72,189232,1,2,0:0:0:0:
488,152,189422,1,0,0:0:0:0:
456,244,189612,2,0,B|412:256|368:236,1,80,2|0,0:0|0:0,0:0:0:0:
256,176,189992,2,0,B|300:164|344:184,1,80,2|0,0:0|0:0,0:0:0:0:
324,296,190371,2,0,B|280:308|236:288,1,80,2|0,0:0|0:0,0:0:0:0:
184,228,190751,5,2,0:0:0:0:
184,228,190941,2,0,B|165:283|96:302|53:264,1,160,2|0,0:0|0:0,0:0:0:0:
24,148,191511,2,0,B|43:93|112:74|155:112,1,160,4|0,0:0|0:0,0:0:0:0:
236,148,192080,5,2,0:0:0:0:
320,172,192270,1,0,0:0:0:0:
391,120,192460,2,0,B|429:163|410:232|355:251,1,160,2|2,0:0|0:0,0:0:0:0:
256,284,193030,1,0,0:0:0:0:
157,251,193220,2,0,B|102:232|83:163|121:120,1,160,2|2,0:0|0:0,0:0:0:0:
188,60,193789,1,2,0:0:0:0:
208,56,193884,1,0,0:0:0:0:
228,56,193979,1,0,0:0:0:0:
248,56,194074,1,0,0:0:0:0:
268,60,194169,6,0,B|316:44|352:80|352:80|380:60|416:80,1,160,2|0,0:0|0:0,0:0:0:0:
460,156,194739,2,0,B|464:196|448:236,1,80,2|0,0:0|0:0,0:0:0:0:
380,288,195118,1,2,0:0:0:0:
292,272,195308,1,0,0:0:0:0:
256,192,195498,2,0,B|236:124|276:100|256:32,2,160,2|2|2,0:0|0:0|0:0,0:0:0:0:
112,292,196637,5,2,0:0:0:0:
52,228,196827,1,2,0:0:0:0:
88,148,197017,1,0,0:0:0:0:
176,172,197207,6,0,B|180:128|160:92,1,80,2|0,0:0|0:0,0:0:0:0:
64,60,197587,2,0,B|28:74|4:112,1,80,6|0,0:0|0:0,0:0:0:0:
52,228,197966,1,2,0:0:0:0:
112,292,198156,1,0,0:0:0:0:
200,284,198346,1,2,0:0:0:0:
256,216,198536,6,0,B|272:204|300:200,2,40,2|0|0,0:0|0:0|0:0,0:0:0:0:
360,152,198916,2,0,B|372:168|374:188,2,40,2|0|0,0:0|0:0|0:0,0:0:0:0:
396,268,199295,2,0,B|416:265|432:253,2,40,2|0|0,0:0|0:0|0:0,0:0:0:0:
316,320,199675,1,2,0:0:0:0:
296,328,199770,1,0,0:0:0:0:
276,332,199865,1,0,0:0:0:0:
256,336,199960,1,0,0:0:0:0:
236,332,200055,1,0,0:0:0:0:
216,328,200150,1,0,0:0:0:0:
196,320,200245,6,0,B|152:304|116:316,2,80,6|0|2,0:0|0:0|0:0,0:0:0:0:
256,256,200814,2,0,B|276:188|236:164|256:96,1,160,2|2,0:0|0:0,0:0:0:0:
320,40,201384,1,2,0:0:0:0:
408,56,201574,1,0,0:0:0:0:
456,128,201764,6,0,B|460:168|448:208,1,80,2|0,0:0|0:0,0:0:0:0:
352,292,202144,2,0,B|348:252|360:212,1,80,2|0,0:0|0:0,0:0:0:0:
280,112,202523,2,0,B|268:152|272:192,1,80,2|0,0:0|0:0,0:0:0:0:
256,296,202903,1,2,0:0:0:0:
256,296,203093,2,0,B|213:334|144:315|125:260,1,160,2|0,0:0|0:0,0:0:0:0:
168,100,203663,2,0,B|223:119|242:188|204:231,1,160,4|0,0:0|0:0,0:0:0:0:
125,260,204232,5,2,0:0:0:0:
112,172,204422,1,0,0:0:0:0:
40,120,204612,2,0,B|-8:150|-9:222|38:255,2,160,2|2|0,0:0|0:0|0:0,0:0:0:0:
256,60,205751,1,2,0:0:0:0:
256,60,205941,1,2,0:0:0:0:
256,148,206131,5,0,0:0:0:0:
256,148,206226,1,0,0:0:0:0:
256,148,206321,2,0,B|256:228,1,80,2|0,0:0|0:0,0:0:0:0:
196,292,206701,1,4,0:0:0:0:
112,268,206890,2,0,B|104:224|120:184,1,80,2|0,0:0|0:0,0:0:0:0:
172,120,207270,1,2,0:0:0:0:
256,148,207460,1,0,0:0:0:0:
340,120,207650,6,0,B|352:24,1,80,2|0,0:0|0:0,0:0:0:0:
256,148,208030,2,0,B|256:60,1,80,2|0,0:0|0:0,0:0:0:0:
172,120,208409,2,0,B|160:24,1,80,2|0,0:0|0:0,0:0:0:0:
80,92,208789,5,2,0:0:0:0:
32,176,208979,1,2,0:0:0:0:
52,272,209169,1,0,0:0:0:0:
124,336,209359,2,0,B|167:374|236:355|255:300,1,160,2|0,0:0|0:0,0:0:0:0:
324,244,209928,2,0,B|292:196|220:196|188:244,2,160,2|2|2,0:0|0:0|0:0,0:0:0:0:
256,44,211068,5,2,0:0:0:0:
188,100,211258,2,0,B|220:148|292:148|324:100,2,160,2|2|2,0:0|0:0|0:0,0:0:0:0:
256,192,212397,12,4,213916,0:0:0:0:
