osu file format v12

[General]
AudioFilename: 06 3L - Be Happy.mp3
AudioLeadIn: 0
PreviewTime: 76435
Countdown: 0
SampleSet: Soft
StackLeniency: 0.7
Mode: 3
LetterboxInBreaks: 0
SpecialStyle: 0
WidescreenStoryboard: 1

[Editor]
Bookmarks: 162312,185048,186567
DistanceSpacing: 1
BeatDivisor: 4
GridSize: 16

[Metadata]
Title:Be Happy*
TitleUnicode:Be Happy☆
Artist:3L
ArtistUnicode:3L
Creator:Reikosaka
Version:Hard
Source:
Tags:SUPER EURO SMASH VOL.1 tsukasa yatoki eurobeat
BeatmapID:346833
BeatmapSetID:138907

[Difficulty]
HPDrainRate:8
CircleSize:7
OverallDifficulty:7
ApproachRate:5
SliderMultiplier:1.5
SliderTickRate:1

[Events]
//Background and Video events
0,0,"be happy.jpg",0,0
//Break Periods
//Storyboard Layer 0 (Background)
//Storyboard Layer 1 (Fail)
//Storyboard Layer 2 (Pass)
//Storyboard Layer 3 (Foreground)
//Storyboard Sound Samples
Sample,167249,0,"bell-1.wav",40
//Background Colour Transformations
3,100,163,162,255

[TimingPoints]
2819,379.746835443038,4,2,1,40,1,0
26363,-117.647058823529,4,2,1,40,0,0
26932,-100,4,2,1,40,0,0
76869,-117.647058823529,4,2,1,40,0,0
77249,-100,4,2,1,40,0,1
89021,-100,4,2,1,40,0,0
89401,-100,4,2,1,40,0,1
101553,-100,4,2,1,40,0,0
151300,-111.111111111111,4,2,1,40,0,0
151679,-100,4,2,1,40,0,1
163451,-100,4,2,1,40,0,0
163831,-100,4,2,1,40,0,1
175983,-100,4,2,1,40,0,0
188135,-133.333333333333,4,2,1,40,0,0
188894,-100,4,2,1,40,0,0
189654,-100,4,2,1,40,0,1
199907,-100,4,2,1,40,0,0
200287,-100,4,2,1,40,0,1
212439,-100,4,2,1,40,0,0
213578,-117.647058823529,4,2,1,40,0,0
213958,-100,4,2,1,40,0,0
226110,-117.647058823529,4,2,1,40,0,0
237692,-133.333333333333,4,2,1,40,0,0

[HitObjects]
402,192,2819,128,0,3578:0:0:0:0:
109,192,2819,1,0,0:0:0:0:
329,192,3578,128,0,4337:0:0:0:0:
182,192,3578,1,0,0:0:0:0:
475,192,4337,128,0,5097:0:0:0:0:
109,192,4337,1,0,0:0:0:0:
256,192,5097,128,0,5856:0:0:0:0:
36,192,5097,1,0,0:0:0:0:
109,192,5856,1,0,0:0:0:70:bell-1.wav
329,192,5856,1,0,0:0:0:0:
182,192,7375,1,0,0:0:0:0:
329,192,7375,1,0,0:0:0:0:
109,192,8705,1,0,0:0:0:0:
109,192,8894,1,0,0:0:0:0:
329,192,8894,1,0,0:0:0:0:
475,192,9654,1,0,0:0:0:0:
109,192,9654,128,0,10413:0:0:0:0:
182,192,10413,128,0,11173:0:0:0:0:
329,192,10413,1,0,0:0:0:0:
36,192,11173,128,0,11932:0:0:0:0:
402,192,11173,1,0,0:0:0:0:
329,192,11932,1,0,0:0:0:40:Reverb Bell.wav
109,192,13451,1,0,0:0:0:70:bell-2.wav
402,192,13451,1,0,0:0:0:0:
329,192,14211,128,0,14970:0:0:0:0:
109,192,14970,1,0,0:0:0:0:
182,192,14970,1,0,0:0:0:0:
256,192,15350,1,0,0:0:0:40:normalfinish.wav
402,192,15540,1,0,0:0:0:0:
256,192,15730,1,0,0:0:0:40:bell-1.wav
182,192,15730,1,0,0:0:0:0:
36,192,15920,1,0,0:0:0:0:
329,192,16110,1,0,0:0:0:0:
182,192,16300,1,0,0:0:0:0:
402,192,16489,1,0,0:0:0:0:
475,192,16489,1,0,0:0:0:40:bell-1.wav
256,192,16679,1,0,0:0:0:0:
36,192,16869,1,0,0:0:0:0:
329,192,17059,1,0,0:0:0:0:
109,192,17249,1,0,0:0:0:0:
182,192,17249,1,0,0:0:0:40:bell-1.wav
475,192,17439,1,0,0:0:0:0:
36,192,17629,1,0,0:0:0:40:normalfinish.wav
402,192,17819,1,0,0:0:0:0:
256,192,18008,1,0,0:0:0:0:
182,192,18008,1,0,0:0:0:40:bell-1.wav
402,192,18198,1,0,0:0:0:0:
109,192,18388,1,0,0:0:0:0:
329,192,18578,1,0,0:0:0:0:
36,192,18768,1,0,0:0:0:0:
256,192,18958,1,0,0:0:0:0:
402,192,19148,1,0,0:0:0:0:
182,192,19337,1,0,0:0:0:0:
475,192,19527,1,0,0:0:0:40:bell-1.wav
402,192,19527,1,0,0:0:0:0:
109,192,19717,1,0,0:0:0:0:
256,192,19907,1,0,0:0:0:40:drum.wav
402,192,20002,1,0,0:0:0:40:drum.wav
36,192,20192,1,0,0:0:0:40:drum.wav
256,192,20287,1,0,0:0:0:40:drum.wav
475,192,20477,1,0,0:0:0:0:
109,192,20667,1,0,0:0:0:40:drum.wav
182,192,20762,1,0,0:0:0:40:drum.wav
256,192,20856,1,0,0:0:0:40:drum.wav
329,192,20951,1,0,0:0:0:40:drum.wav
36,192,21046,1,0,0:0:0:40:normalfinish.wav
402,192,21046,1,0,0:0:0:40:drum.wav
475,192,21236,1,0,0:0:0:0:
109,192,21426,1,0,0:0:0:0:
256,192,21616,1,0,0:0:0:0:
402,192,21806,1,0,0:0:0:40:bell-1.wav
182,192,21806,1,0,0:0:0:0:
36,192,21996,1,0,0:0:0:0:
402,192,22186,1,0,0:0:0:0:
256,192,22375,1,0,0:0:0:0:
109,192,22565,1,0,0:0:0:40:bell-1.wav
329,192,22565,1,0,0:0:0:0:
475,192,22755,1,0,0:0:0:0:
256,192,22945,1,0,0:0:0:0:
109,192,23135,1,0,0:0:0:0:
329,192,23325,1,0,0:0:0:0:
402,192,23325,1,0,0:0:0:40:bell-1.wav
36,192,23515,1,0,0:0:0:0:
256,192,23705,1,0,0:0:0:0:
402,192,23894,1,0,0:0:0:0:
109,192,24084,1,0,0:0:0:40:Reverb Bell.wav
182,192,24084,1,0,0:0:0:40:softfinish.wav
329,192,24464,1,0,0:0:0:0:
329,192,24844,1,0,0:0:0:0:
109,192,25224,1,0,0:0:0:0:
329,192,25413,1,0,0:0:0:0:
475,192,25413,1,0,0:0:0:0:
256,192,25413,1,0,0:0:0:0:
109,192,25793,1,0,0:0:0:0:
182,192,25793,1,0,0:0:0:0:
329,192,25793,1,0,0:0:0:0:
36,192,26173,1,0,0:0:0:0:
109,192,26173,1,0,0:0:0:0:
256,192,26173,1,0,0:0:0:0:
329,192,26363,1,0,0:0:0:0:
402,192,26363,128,0,26932:0:0:0:0:
182,192,27122,1,0,0:0:0:0:
109,192,27312,1,0,0:0:0:0:
36,192,27502,1,0,0:0:0:0:
329,192,27692,1,0,0:0:0:0:
475,192,27692,128,0,27882:0:0:0:0:
182,192,27882,1,0,0:0:0:0:
329,192,28072,1,0,0:0:0:0:
36,192,28072,128,0,28262:0:0:0:0:
182,192,28262,1,0,0:0:0:0:
402,192,28451,1,0,0:0:0:0:
256,192,28451,128,0,28831:0:0:0:0:
36,192,28831,1,0,0:0:0:0:
182,192,29021,1,0,0:0:0:0:
402,192,29211,128,0,29591:0:0:0:0:
182,192,29401,1,0,0:0:0:0:
36,192,29591,1,0,0:0:0:0:
256,192,29781,1,0,0:0:0:0:
475,192,29970,1,0,0:0:0:0:
109,192,30160,1,0,0:0:0:0:
402,192,30350,1,0,0:0:0:0:
109,192,30540,1,0,0:0:0:0:
329,192,30730,1,0,0:0:0:0:
36,192,30920,1,0,0:0:0:0:
256,192,31110,1,0,0:0:0:0:
402,192,31300,1,0,0:0:0:0:
475,192,31489,128,0,31869:0:0:0:0:
109,192,31489,1,0,0:0:0:0:
256,192,31869,1,0,0:0:0:0:
329,192,32059,1,0,0:0:0:0:
402,192,32249,128,0,32629:0:0:0:0:
36,192,32249,1,0,0:0:0:0:
182,192,32629,1,0,0:0:0:0:
256,192,32819,1,0,0:0:0:0:
329,192,33008,1,0,0:0:0:40:drum.wav
109,192,33103,1,0,0:0:0:40:drum.wav
329,192,33198,1,0,0:0:0:40:drum.wav
36,192,33388,1,0,0:0:0:0:
256,192,33578,1,0,0:0:0:40:normalfinish.wav
182,192,33578,1,0,0:0:0:0:
402,192,33768,1,0,0:0:0:0:
109,192,33958,1,0,0:0:0:0:
329,192,34148,1,0,0:0:0:0:
182,192,34337,1,0,0:0:0:0:
402,192,34527,1,0,0:0:0:0:
109,192,34717,1,0,0:0:0:0:
475,192,34907,1,0,0:0:0:0:
36,192,35097,1,0,0:0:0:0:
256,192,35287,128,0,35856:0:0:0:0:
109,192,35856,1,0,0:0:0:0:
402,192,35856,1,0,0:0:0:0:
475,192,36236,1,0,0:0:0:0:
36,192,36236,1,0,0:0:0:0:
402,192,36426,1,0,0:0:0:0:
109,192,36426,1,0,0:0:0:0:
475,192,36616,1,0,0:0:0:0:
182,192,36616,1,0,0:0:0:0:
402,192,36806,1,0,0:0:0:0:
36,192,36806,1,0,0:0:0:0:
256,192,36996,1,0,0:0:0:0:
109,192,37186,1,0,0:0:0:0:
329,192,37375,1,0,0:0:0:0:
475,192,37565,1,0,0:0:0:0:
182,192,37755,1,0,0:0:0:0:
256,192,37803,1,0,0:0:0:0:
329,192,37850,1,0,0:0:0:0:
402,192,37898,1,0,0:0:0:0:
475,192,37945,1,0,0:0:0:0:
36,192,38040,1,0,0:0:0:40:drum.wav
109,192,38135,1,0,0:0:0:40:drum.wav
182,192,38230,1,0,0:0:0:40:drum.wav
256,192,38325,1,0,0:0:0:40:drum.wav
182,192,38515,1,0,0:0:0:0:
329,192,38515,1,0,0:0:0:0:
475,192,38705,1,0,0:0:0:0:
256,192,38894,1,0,0:0:0:0:
329,192,38894,1,0,0:0:0:40:softfinish.wav
182,192,39084,1,0,0:0:0:0:
36,192,39274,1,0,0:0:0:40:softfinish.wav
109,192,39274,1,0,0:0:0:0:
329,192,39464,1,0,0:0:0:0:
402,192,39654,1,0,0:0:0:0:
475,192,39654,1,0,0:0:0:0:
182,192,39844,1,0,0:0:0:0:
329,192,40034,1,0,0:0:0:0:
402,192,40224,1,0,0:0:0:0:
109,192,40413,1,0,0:0:0:0:
329,192,40413,1,0,0:0:0:0:
182,192,40603,1,0,0:0:0:40:bell-1.wav
256,192,40793,1,0,0:0:0:0:
475,192,40793,1,0,0:0:0:0:
329,192,40983,1,0,0:0:0:0:
256,192,41173,1,0,0:0:0:0:
109,192,41173,1,0,0:0:0:0:
182,192,41363,1,0,0:0:0:0:
109,192,41553,1,0,0:0:0:40:bell-1.wav
36,192,41553,1,0,0:0:0:0:
182,192,41743,1,0,0:0:0:0:
256,192,41932,1,0,0:0:0:45:bell-1.wav
475,192,41932,1,0,0:0:0:0:
109,192,42122,1,0,0:0:0:0:
256,192,42217,1,0,0:0:0:0:
402,192,42312,1,0,0:0:0:0:
182,192,42502,1,0,0:0:0:0:
109,192,42692,1,0,0:0:0:40:bell-1.wav
36,192,42692,1,0,0:0:0:0:
256,192,42882,1,0,0:0:0:0:
329,192,43072,1,0,0:0:0:0:
402,192,43072,1,0,0:0:0:0:
182,192,43262,1,0,0:0:0:0:
402,192,43451,1,0,0:0:0:0:
475,192,43451,1,0,0:0:0:0:
109,192,43641,1,0,0:0:0:45:bell-1.wav
256,192,43831,1,0,0:0:0:0:
36,192,43831,1,0,0:0:0:0:
109,192,44021,1,0,0:0:0:0:
402,192,44211,1,0,0:0:0:0:
182,192,44211,1,0,0:0:0:0:
475,192,44401,1,0,0:0:0:0:
256,192,44591,1,0,0:0:0:40:drum.wav
109,192,44686,1,0,0:0:0:40:drum.wav
256,192,44781,1,0,0:0:0:40:drum.wav
475,192,44970,1,0,0:0:0:0:
402,192,44970,1,0,0:0:0:0:
36,192,45160,1,0,0:0:0:0:
36,192,45350,1,0,0:0:0:0:
329,192,45350,1,0,0:0:0:40:bell-1.wav
256,192,45540,1,0,0:0:0:0:
109,192,45730,1,0,0:0:0:40:normalfinish.wav
182,192,45730,1,0,0:0:0:0:
402,192,45730,1,0,0:0:0:0:
256,192,45920,1,0,0:0:0:0:
329,192,46110,1,0,0:0:0:0:
475,192,46110,1,0,0:0:0:0:
182,192,46300,1,0,0:0:0:0:
109,192,46489,1,0,0:0:0:0:
256,192,46489,1,0,0:0:0:0:
329,192,46679,1,0,0:0:0:40:bell-1.wav
402,192,46869,1,0,0:0:0:0:
475,192,46869,1,0,0:0:0:0:
329,192,47059,1,0,0:0:0:0:
256,192,47249,1,0,0:0:0:0:
36,192,47249,1,0,0:0:0:0:
182,192,47439,1,0,0:0:0:40:bell-1.wav
109,192,47629,1,0,0:0:0:0:
475,192,47629,1,0,0:0:0:0:
256,192,47819,1,0,0:0:0:40:bell-1.wav
329,192,48008,1,0,0:0:0:0:
402,192,48008,1,0,0:0:0:0:
36,192,48198,1,0,0:0:0:40:drum.wav
256,192,48293,1,0,0:0:0:40:drum.wav
475,192,48388,1,0,0:0:0:40:normalfinish.wav
109,192,48578,1,0,0:0:0:0:
402,192,48768,1,0,0:0:0:0:
36,192,48958,1,0,0:0:0:0:
256,192,49148,1,0,0:0:0:0:
109,192,49337,1,0,0:0:0:0:
256,192,49527,1,0,0:0:0:0:
402,192,49717,1,0,0:0:0:0:
475,192,49717,1,0,0:0:0:0:
329,192,50097,1,0,0:0:0:0:
109,192,50097,1,0,0:0:0:0:
329,192,50477,1,0,0:0:0:0:
182,192,50477,1,0,0:0:0:0:
402,192,50856,1,0,0:0:0:0:
329,192,50856,1,0,0:0:0:0:
402,192,51046,1,0,0:0:0:0:
329,192,51046,1,0,0:0:0:0:
36,192,51236,1,0,0:0:0:40:drum.wav
109,192,51284,1,0,0:0:0:40:drum.wav
182,192,51331,1,0,0:0:0:40:drum.wav
256,192,51379,1,0,0:0:0:40:drum.wav
329,192,51426,1,0,0:0:0:40:drum.wav
36,192,51616,1,0,0:0:0:0:
402,192,51806,1,0,0:0:0:0:
109,192,51996,1,0,0:0:0:0:
475,192,52186,1,0,0:0:0:0:
36,192,52375,1,0,0:0:0:0:
402,192,52565,1,0,0:0:0:0:
256,192,52755,1,0,0:0:0:40:bell-1.wav
109,192,52945,1,0,0:0:0:0:
475,192,53135,1,0,0:0:0:0:
256,192,53325,1,0,0:0:0:0:
36,192,53515,1,0,0:0:0:0:
402,192,53705,1,0,0:0:0:40:bell-1.wav
109,192,53894,1,0,0:0:0:0:
329,192,54084,1,0,0:0:0:40:bell-1.wav
36,192,54274,1,0,0:0:0:40:drum.wav
256,192,54369,1,0,0:0:0:40:drum.wav
475,192,54464,1,0,0:0:0:40:drum.wav
256,192,54654,1,0,0:0:0:0:
475,192,54844,1,0,0:0:0:0:
36,192,54844,1,0,0:0:0:40:bell-1.wav
329,192,55034,1,0,0:0:0:0:
256,192,55224,1,0,0:0:0:0:
109,192,55224,1,0,0:0:0:0:
109,192,55413,1,0,0:0:0:0:
256,192,55603,1,0,0:0:0:0:
329,192,55793,1,0,0:0:0:0:
36,192,55793,1,0,0:0:0:40:bell-1.wav
402,192,55983,1,0,0:0:0:0:
475,192,56173,1,0,0:0:0:0:
109,192,56363,1,0,0:0:0:0:
402,192,56553,1,0,0:0:0:0:
182,192,56743,1,0,0:0:0:40:drum.wav
475,192,56837,1,0,0:0:0:40:drum.wav
182,192,56932,1,0,0:0:0:40:drum.wav
256,192,57122,1,0,0:0:0:0:
36,192,57122,1,0,0:0:0:0:
475,192,57312,1,0,0:0:0:40:drum.wav
329,192,57407,1,0,0:0:0:40:drum.wav
182,192,57502,1,0,0:0:0:40:drum.wav
36,192,57692,1,0,0:0:0:0:
109,192,57882,1,0,0:0:0:40:normalfinish.wav
329,192,57882,1,0,0:0:0:0:
402,192,57882,1,0,0:0:0:0:
36,192,58072,1,0,0:0:0:0:
256,192,58262,1,0,0:0:0:0:
329,192,58262,1,0,0:0:0:0:
182,192,58451,1,0,0:0:0:0:
109,192,58641,1,0,0:0:0:0:
36,192,58641,1,0,0:0:0:0:
256,192,58831,1,0,0:0:0:40:bell-1.wav
329,192,59021,1,0,0:0:0:0:
475,192,59021,1,0,0:0:0:0:
402,192,59211,1,0,0:0:0:0:
329,192,59401,1,0,0:0:0:0:
109,192,59401,1,0,0:0:0:0:
256,192,59591,1,0,0:0:0:40:bell-1.wav
182,192,59781,1,0,0:0:0:0:
109,192,59781,1,0,0:0:0:0:
256,192,59970,1,0,0:0:0:40:bell-1.wav
329,192,60160,1,0,0:0:0:0:
402,192,60160,1,0,0:0:0:0:
36,192,60350,1,0,0:0:0:40:drum.wav
256,192,60445,1,0,0:0:0:40:drum.wav
402,192,60540,1,0,0:0:0:40:normalfinish.wav
109,192,60730,1,0,0:0:0:0:
475,192,60920,1,0,0:0:0:0:
256,192,61110,1,0,0:0:0:0:
36,192,61300,1,0,0:0:0:0:
402,192,61489,1,0,0:0:0:0:
109,192,61679,1,0,0:0:0:0:
402,192,61869,128,0,62249:0:0:0:0:
109,192,62249,128,0,62629:0:0:0:0:
329,192,62629,128,0,63008:0:0:0:0:
182,192,63008,1,0,0:0:0:0:
182,192,63198,1,0,0:0:0:0:
475,192,63388,1,0,0:0:0:40:drum.wav
402,192,63436,1,0,0:0:0:40:drum.wav
329,192,63483,1,0,0:0:0:40:drum.wav
256,192,63531,1,0,0:0:0:40:drum.wav
182,192,63578,1,0,0:0:0:40:softfinish.wav
36,192,63768,1,0,0:0:0:0:
109,192,63958,1,0,0:0:0:0:
182,192,64148,1,0,0:0:0:40:bell-1.wav
256,192,64337,1,0,0:0:0:0:
475,192,64527,1,0,0:0:0:0:
109,192,64717,1,0,0:0:0:0:
182,192,64907,1,0,0:0:0:0:
475,192,65097,1,0,0:0:0:40:bell-1.wav
36,192,65192,1,0,0:0:0:0:
402,192,65287,1,0,0:0:0:0:
182,192,65382,1,0,0:0:0:0:
475,192,65477,1,0,0:0:0:0:
36,192,65572,1,0,0:0:0:0:
256,192,65667,1,0,0:0:0:0:
402,192,65762,1,0,0:0:0:0:
109,192,65856,1,0,0:0:0:40:bell-1.wav
329,192,65951,1,0,0:0:0:0:
475,192,66046,1,0,0:0:0:0:
256,192,66141,1,0,0:0:0:0:
109,192,66236,1,0,0:0:0:0:
475,192,66426,1,0,0:0:0:0:
256,192,66521,1,0,0:0:0:0:
36,192,66616,1,0,0:0:0:40:bell-1.wav
402,192,66996,1,0,0:0:0:0:
475,192,66996,1,0,0:0:0:40:bell-1.wav
109,192,67375,1,0,0:0:0:0:
182,192,67375,1,0,0:0:0:0:
256,192,67755,1,0,0:0:0:0:
329,192,67755,1,0,0:0:0:40:bell-1.wav
109,192,68135,1,0,0:0:0:0:
36,192,68135,1,0,0:0:0:0:
475,192,68515,1,0,0:0:0:40:bell-1.wav
109,192,68894,1,0,0:0:0:40:bell-1.wav
256,192,69274,1,0,0:0:0:40:bell-1.wav
36,192,69654,1,0,0:0:0:40:normalfinish.wav
109,192,69654,1,0,0:0:0:40:bell-1.wav
329,192,69844,1,0,0:0:0:0:
182,192,70034,1,0,0:0:0:0:
402,192,70034,1,0,0:0:0:0:
256,192,70224,1,0,0:0:0:0:
109,192,70413,1,0,0:0:0:0:
182,192,70413,1,0,0:0:0:0:
402,192,70603,1,0,0:0:0:0:
256,192,70793,1,0,0:0:0:0:
475,192,70793,1,0,0:0:0:0:
402,192,70983,1,0,0:0:0:40:bell-1.wav
329,192,71173,1,0,0:0:0:0:
109,192,71173,1,0,0:0:0:0:
256,192,71363,1,0,0:0:0:0:
109,192,71553,1,0,0:0:0:0:
182,192,71553,1,0,0:0:0:0:
329,192,71743,1,0,0:0:0:40:bell-1.wav
36,192,71932,1,0,0:0:0:0:
109,192,71932,1,0,0:0:0:0:
402,192,72122,1,0,0:0:0:40:bell-1.wav
182,192,72312,1,0,0:0:0:0:
402,192,72502,1,0,0:0:0:40:drum.wav
256,192,72597,1,0,0:0:0:40:drum.wav
109,192,72692,1,0,0:0:0:40:softfinish.wav
329,192,72882,1,0,0:0:0:0:
36,192,73072,1,0,0:0:0:0:
475,192,73262,1,0,0:0:0:0:
109,192,73451,1,0,0:0:0:0:
402,192,73641,1,0,0:0:0:0:
329,192,73831,1,0,0:0:0:0:
256,192,73831,1,0,0:0:0:0:
36,192,74021,1,0,0:0:0:0:
109,192,74211,1,0,0:0:0:40:bell-1.wav
182,192,74211,1,0,0:0:0:0:
402,192,74401,1,0,0:0:0:0:
256,192,74591,1,0,0:0:0:0:
402,192,74591,1,0,0:0:0:0:
109,192,74781,1,0,0:0:0:0:
475,192,74781,1,0,0:0:0:0:
36,192,75160,1,0,0:0:0:0:
402,192,75350,1,0,0:0:0:0:
36,192,75350,1,0,0:0:0:0:
109,192,75730,128,0,76869:0:0:0:40:bell-2.wav
329,192,75730,128,0,76869:0:0:0:0:
402,192,76869,1,0,0:0:0:0:
475,192,77249,1,0,0:0:0:0:
36,192,77249,1,0,0:0:0:0:
182,192,77439,1,0,0:0:0:0:
475,192,77629,1,0,0:0:0:0:
109,192,77819,1,0,0:0:0:0:
329,192,78008,1,0,0:0:0:0:
256,192,78198,1,0,0:0:0:0:
109,192,78388,1,0,0:0:0:0:
256,192,78578,1,0,0:0:0:0:
329,192,78768,1,0,0:0:0:0:
402,192,78768,1,0,0:0:0:0:
36,192,78958,1,0,0:0:0:0:
402,192,79148,1,0,0:0:0:0:
475,192,79148,1,0,0:0:0:0:
109,192,79337,1,0,0:0:0:0:
329,192,79527,1,0,0:0:0:0:
402,192,79527,1,0,0:0:0:0:
182,192,79717,1,0,0:0:0:0:
256,192,79907,1,0,0:0:0:0:
329,192,79907,1,0,0:0:0:0:
109,192,80097,1,0,0:0:0:40:drum.wav
182,192,80192,1,0,0:0:0:40:drum.wav
256,192,80287,1,0,0:0:0:40:softfinish.wav
36,192,80287,1,0,0:0:0:40:drum.wav
402,192,80477,1,0,0:0:0:0:
109,192,80667,1,0,0:0:0:40:bell-1.wav
329,192,80667,1,0,0:0:0:0:
256,192,80856,1,0,0:0:0:0:
182,192,81046,1,0,0:0:0:0:
109,192,81046,1,0,0:0:0:0:
256,192,81236,1,0,0:0:0:0:
329,192,81426,1,0,0:0:0:0:
475,192,81426,1,0,0:0:0:0:
402,192,81616,1,0,0:0:0:0:
329,192,81806,1,0,0:0:0:0:
109,192,81806,1,0,0:0:0:0:
256,192,81996,1,0,0:0:0:0:
182,192,82186,1,0,0:0:0:0:
36,192,82186,1,0,0:0:0:0:
109,192,82375,1,0,0:0:0:0:
475,192,82565,1,0,0:0:0:0:
256,192,82660,1,0,0:0:0:0:
109,192,82755,1,0,0:0:0:0:
329,192,82945,1,0,0:0:0:0:
475,192,82945,1,0,0:0:0:0:
36,192,83040,1,0,0:0:0:40:drum.wav
109,192,83135,1,0,0:0:0:40:drum.wav
182,192,83230,1,0,0:0:0:40:drum.wav
256,192,83325,1,0,0:0:0:40:softfinish.wav
475,192,83515,1,0,0:0:0:0:
109,192,83705,1,0,0:0:0:0:
182,192,83705,1,0,0:0:0:0:
256,192,83894,1,0,0:0:0:0:
402,192,84084,1,0,0:0:0:0:
475,192,84084,1,0,0:0:0:0:
329,192,84274,1,0,0:0:0:0:
256,192,84464,1,0,0:0:0:0:
36,192,84464,1,0,0:0:0:0:
182,192,84654,1,0,0:0:0:0:
36,192,84844,1,0,0:0:0:40:softfinish.wav
109,192,84844,1,0,0:0:0:0:
182,192,85034,1,0,0:0:0:0:
256,192,85224,1,0,0:0:0:0:
402,192,85224,1,0,0:0:0:0:
329,192,85413,1,0,0:0:0:0:
402,192,85603,1,0,0:0:0:0:
475,192,85603,1,0,0:0:0:0:
109,192,85793,1,0,0:0:0:0:
329,192,85983,1,0,0:0:0:0:
109,192,86173,1,0,0:0:0:0:
329,192,86363,1,0,0:0:0:0:
475,192,86363,1,0,0:0:0:0:
36,192,86553,1,0,0:0:0:0:
256,192,86743,1,0,0:0:0:40:softfinish.wav
402,192,86743,1,0,0:0:0:0:
182,192,86743,1,0,0:0:0:0:
109,192,86932,1,0,0:0:0:0:
182,192,87122,1,0,0:0:0:0:
329,192,87122,1,0,0:0:0:0:
475,192,87312,1,0,0:0:0:0:
36,192,87502,1,0,0:0:0:0:
256,192,87502,1,0,0:0:0:0:
402,192,87692,1,0,0:0:0:0:
329,192,87882,1,0,0:0:0:0:
256,192,87929,1,0,0:0:0:0:
182,192,87977,1,0,0:0:0:0:
109,192,88024,1,0,0:0:0:0:
36,192,88072,1,0,0:0:0:0:
475,192,88167,1,0,0:0:0:40:drum.wav
402,192,88262,1,0,0:0:0:40:drum.wav
329,192,88356,1,0,0:0:0:40:drum.wav
256,192,88451,1,0,0:0:0:40:drum.wav
182,192,88546,1,0,0:0:0:40:drum.wav
109,192,88641,1,0,0:0:0:40:drum.wav
402,192,88831,1,0,0:0:0:0:
329,192,88831,1,0,0:0:0:0:
329,192,89021,1,0,0:0:0:0:
402,192,89021,1,0,0:0:0:0:
36,192,89116,1,0,0:0:0:40:drum.wav
109,192,89211,1,0,0:0:0:40:drum.wav
182,192,89306,1,0,0:0:0:40:drum.wav
36,192,89401,1,0,0:0:0:40:drum.wav
256,192,89401,1,0,0:0:0:0:
475,192,89591,1,0,0:0:0:0:
182,192,89781,1,0,0:0:0:0:
329,192,89970,1,0,0:0:0:0:
36,192,90160,1,0,0:0:0:0:
256,192,90350,1,0,0:0:0:0:
402,192,90540,1,0,0:0:0:0:
256,192,90730,1,0,0:0:0:0:
109,192,90920,1,0,0:0:0:0:
182,192,90920,1,0,0:0:0:0:
475,192,91110,1,0,0:0:0:0:
109,192,91300,1,0,0:0:0:0:
36,192,91300,1,0,0:0:0:0:
475,192,91489,1,0,0:0:0:0:
256,192,91679,1,0,0:0:0:0:
182,192,91679,1,0,0:0:0:0:
402,192,91869,1,0,0:0:0:0:
109,192,92059,1,0,0:0:0:0:
182,192,92059,1,0,0:0:0:0:
329,192,92249,1,0,0:0:0:40:drum.wav
256,192,92344,1,0,0:0:0:40:drum.wav
475,192,92439,1,0,0:0:0:40:softfinish.wav
182,192,92439,1,0,0:0:0:40:drum.wav
109,192,92629,1,0,0:0:0:0:
182,192,92819,1,0,0:0:0:0:
402,192,92819,1,0,0:0:0:30:bell-1.wav
256,192,93008,1,0,0:0:0:0:
402,192,93198,1,0,0:0:0:0:
329,192,93198,1,0,0:0:0:0:
256,192,93388,1,0,0:0:0:0:
36,192,93578,1,0,0:0:0:0:
182,192,93578,1,0,0:0:0:0:
109,192,93768,1,0,0:0:0:0:
402,192,93958,1,0,0:0:0:0:
182,192,93958,1,0,0:0:0:0:
256,192,94148,1,0,0:0:0:0:
475,192,94337,1,0,0:0:0:0:
329,192,94337,1,0,0:0:0:0:
402,192,94527,1,0,0:0:0:0:
36,192,94717,1,0,0:0:0:40:drum.wav
256,192,94812,1,0,0:0:0:40:drum.wav
402,192,94907,1,0,0:0:0:40:drum.wav
36,192,95097,1,0,0:0:0:0:
182,192,95097,1,0,0:0:0:0:
475,192,95192,1,0,0:0:0:40:drum.wav
402,192,95287,1,0,0:0:0:40:drum.wav
329,192,95382,1,0,0:0:0:40:drum.wav
256,192,95477,1,0,0:0:0:40:drum.wav
36,192,95667,1,0,0:0:0:0:
402,192,95856,1,0,0:0:0:40:normalfinish.wav
256,192,95856,1,0,0:0:0:0:
475,192,95856,1,0,0:0:0:0:
182,192,96046,1,0,0:0:0:0:
36,192,96236,1,0,0:0:0:0:
109,192,96236,1,0,0:0:0:0:
182,192,96426,1,0,0:0:0:0:
475,192,96616,1,0,0:0:0:0:
256,192,96616,1,0,0:0:0:0:
329,192,96806,1,0,0:0:0:0:
475,192,96996,1,0,0:0:0:40:normalfinish.wav
402,192,96996,1,0,0:0:0:0:
329,192,97186,1,0,0:0:0:0:
109,192,97375,1,0,0:0:0:0:
256,192,97375,1,0,0:0:0:0:
182,192,97565,1,0,0:0:0:0:
36,192,97755,1,0,0:0:0:0:
109,192,97755,1,0,0:0:0:0:
402,192,97945,1,0,0:0:0:0:
182,192,98135,1,0,0:0:0:0:
475,192,98325,1,0,0:0:0:0:
109,192,98515,1,0,0:0:0:0:
329,192,98515,128,0,98894:0:0:0:0:
182,192,98705,1,0,0:0:0:0:
36,192,98894,1,0,0:0:0:0:
256,192,99084,128,0,99464:0:0:0:0:
475,192,99084,1,0,0:0:0:0:
402,192,99274,1,0,0:0:0:0:
182,192,99464,1,0,0:0:0:0:
475,192,99654,1,0,0:0:0:0:
182,192,99844,1,0,0:0:0:0:
109,192,99844,1,0,0:0:0:0:
329,192,100224,1,0,0:0:0:0:
256,192,100224,1,0,0:0:0:0:
109,192,100603,1,0,0:0:0:0:
182,192,100603,1,0,0:0:0:0:
402,192,100983,1,0,0:0:0:0:
475,192,100983,1,0,0:0:0:0:
36,192,101173,1,0,0:0:0:0:
329,192,101268,1,0,0:0:0:0:
109,192,101363,1,0,0:0:0:0:
402,192,101458,1,0,0:0:0:0:
36,192,101553,1,0,0:0:0:0:
256,192,101743,1,0,0:0:0:0:
475,192,101932,1,0,0:0:0:0:
182,192,102122,1,0,0:0:0:0:
109,192,102122,128,0,102312:0:0:0:0:
475,192,102312,1,0,0:0:0:0:
402,192,102502,128,0,102692:0:0:0:0:
36,192,102502,1,0,0:0:0:0:
329,192,102692,1,0,0:0:0:0:
109,192,102882,1,0,0:0:0:0:
256,192,102882,128,0,103262:0:0:0:0:
475,192,103262,1,0,0:0:0:0:
329,192,103451,1,0,0:0:0:0:
109,192,103641,128,0,104021:0:0:0:0:
182,192,103641,1,0,0:0:0:0:
329,192,103831,1,0,0:0:0:0:
475,192,104021,1,0,0:0:0:0:
256,192,104211,1,0,0:0:0:0:
36,192,104401,128,0,105160:0:0:0:0:
475,192,104591,1,0,0:0:0:0:
109,192,104781,1,0,0:0:0:0:
402,192,104970,1,0,0:0:0:0:
256,192,105160,1,0,0:0:0:0:
475,192,105350,1,0,0:0:0:0:
182,192,105540,1,0,0:0:0:0:
109,192,105730,1,0,0:0:0:0:
36,192,105920,128,0,106300:0:0:0:0:
402,192,105920,1,0,0:0:0:0:
256,192,106300,1,0,0:0:0:0:
182,192,106489,1,0,0:0:0:0:
475,192,106679,1,0,0:0:0:0:
109,192,106679,128,0,107059:0:0:0:0:
329,192,107059,1,0,0:0:0:0:
256,192,107249,1,0,0:0:0:0:
36,192,107439,1,0,0:0:0:0:
402,192,107534,1,0,0:0:0:0:
182,192,107629,1,0,0:0:0:0:
475,192,107819,1,0,0:0:0:0:
256,192,108008,1,0,0:0:0:40:normalfinish.wav
329,192,108008,1,0,0:0:0:0:
36,192,108198,1,0,0:0:0:0:
475,192,108388,1,0,0:0:0:0:
109,192,108578,1,0,0:0:0:0:
402,192,108768,1,0,0:0:0:0:
36,192,108958,1,0,0:0:0:0:
475,192,109148,1,0,0:0:0:0:
109,192,109337,1,0,0:0:0:0:
402,192,109527,1,0,0:0:0:0:
256,192,109717,128,0,110287:0:0:0:0:
475,192,110287,1,0,0:0:0:0:
36,192,110287,1,0,0:0:0:0:
475,192,110667,1,0,0:0:0:40:softfinish.wav
36,192,110667,1,0,0:0:0:0:
402,192,110856,1,0,0:0:0:0:
109,192,110856,1,0,0:0:0:0:
36,192,111046,1,0,0:0:0:0:
329,192,111046,1,0,0:0:0:0:
109,192,111236,1,0,0:0:0:0:
256,192,111426,1,0,0:0:0:0:
475,192,111616,1,0,0:0:0:0:
256,192,111806,1,0,0:0:0:0:
36,192,111996,1,0,0:0:0:0:
329,192,112186,1,0,0:0:0:0:
256,192,112233,1,0,0:0:0:0:
182,192,112281,1,0,0:0:0:0:
109,192,112328,1,0,0:0:0:0:
36,192,112375,1,0,0:0:0:0:
475,192,112470,1,0,0:0:0:40:drum.wav
402,192,112565,1,0,0:0:0:40:drum.wav
329,192,112660,1,0,0:0:0:40:drum.wav
256,192,112755,1,0,0:0:0:40:drum.wav
109,192,112945,1,0,0:0:0:0:
475,192,112945,1,0,0:0:0:40:softfinish.wav
182,192,113135,1,0,0:0:0:0:
256,192,113325,1,0,0:0:0:40:softfinish.wav
36,192,113325,1,0,0:0:0:0:
329,192,113515,1,0,0:0:0:0:
475,192,113705,1,0,0:0:0:40:normalfinish.wav
402,192,113705,1,0,0:0:0:0:
36,192,113894,1,0,0:0:0:0:
329,192,114084,1,0,0:0:0:0:
109,192,114274,1,0,0:0:0:0:
256,192,114464,1,0,0:0:0:0:
475,192,114654,1,0,0:0:0:0:
182,192,114844,1,0,0:0:0:0:
109,192,114844,1,0,0:0:0:0:
402,192,115034,1,0,0:0:0:40:bell-1.wav
256,192,115224,1,0,0:0:0:0:
329,192,115224,1,0,0:0:0:0:
402,192,115413,1,0,0:0:0:0:
402,192,115603,1,0,0:0:0:0:
109,192,115793,1,0,0:0:0:0:
182,192,115793,1,0,0:0:0:0:
329,192,115983,1,0,0:0:0:40:bell-1.wav
329,192,116173,1,0,0:0:0:0:
36,192,116363,1,0,0:0:0:40:bell-1.wav
109,192,116553,1,0,0:0:0:0:
256,192,116648,1,0,0:0:0:0:
475,192,116743,1,0,0:0:0:0:
402,192,116932,1,0,0:0:0:0:
402,192,117122,1,0,0:0:0:40:bell-1.wav
109,192,117312,1,0,0:0:0:0:
256,192,117502,1,0,0:0:0:0:
256,192,117692,1,0,0:0:0:0:
36,192,117882,1,0,0:0:0:0:
182,192,117882,1,0,0:0:0:0:
329,192,118072,1,0,0:0:0:40:bell-1.wav
402,192,118262,1,0,0:0:0:0:
475,192,118262,1,0,0:0:0:0:
109,192,118451,1,0,0:0:0:0:
109,192,118641,1,0,0:0:0:0:
256,192,118831,1,0,0:0:0:0:
402,192,119021,1,0,0:0:0:0:
182,192,119116,1,0,0:0:0:0:
402,192,119211,1,0,0:0:0:0:
329,192,119401,1,0,0:0:0:0:
36,192,119401,1,0,0:0:0:0:
475,192,119591,1,0,0:0:0:40:drum.wav
256,192,119686,1,0,0:0:0:40:drum.wav
109,192,119781,1,0,0:0:0:40:softfinish.wav
475,192,119970,1,0,0:0:0:0:
36,192,120160,1,0,0:0:0:0:
402,192,120350,1,0,0:0:0:40:bell-1.wav
109,192,120540,1,0,0:0:0:0:
475,192,120730,1,0,0:0:0:0:
36,192,120920,1,0,0:0:0:0:
256,192,121110,1,0,0:0:0:40:bell-1.wav
402,192,121300,1,0,0:0:0:0:
109,192,121489,1,0,0:0:0:0:
329,192,121679,1,0,0:0:0:0:
36,192,121869,1,0,0:0:0:40:bell-1.wav
402,192,122059,1,0,0:0:0:0:
182,192,122249,1,0,0:0:0:40:bell-1.wav
329,192,122439,1,0,0:0:0:0:
256,192,122439,1,0,0:0:0:0:
109,192,122629,1,0,0:0:0:0:
182,192,122724,1,0,0:0:0:0:
256,192,122819,1,0,0:0:0:40:softfinish.wav
475,192,123008,1,0,0:0:0:0:
109,192,123198,1,0,0:0:0:0:
402,192,123388,1,0,0:0:0:0:
36,192,123578,1,0,0:0:0:0:
475,192,123768,1,0,0:0:0:0:
109,192,123958,1,0,0:0:0:0:
182,192,123958,1,0,0:0:0:0:
402,192,124148,1,0,0:0:0:0:
329,192,124148,1,0,0:0:0:0:
36,192,124527,1,0,0:0:0:0:
182,192,124527,1,0,0:0:0:0:
329,192,124907,1,0,0:0:0:0:
475,192,124907,1,0,0:0:0:0:
109,192,125287,1,0,0:0:0:0:
182,192,125287,1,0,0:0:0:0:
109,192,125477,1,0,0:0:0:0:
182,192,125477,1,0,0:0:0:0:
475,192,125667,1,0,0:0:0:40:drum.wav
402,192,125714,1,0,0:0:0:40:drum.wav
329,192,125762,1,0,0:0:0:40:drum.wav
256,192,125809,1,0,0:0:0:40:drum.wav
182,192,125856,1,0,0:0:0:40:normalfinish.wav
475,192,126046,1,0,0:0:0:0:
329,192,126236,1,0,0:0:0:0:
256,192,126426,1,0,0:0:0:0:
109,192,126616,1,0,0:0:0:0:
402,192,126806,1,0,0:0:0:0:
256,192,126996,1,0,0:0:0:0:
182,192,127186,1,0,0:0:0:40:bell-1.wav
36,192,127375,1,0,0:0:0:0:
109,192,127375,1,0,0:0:0:0:
329,192,127565,1,0,0:0:0:0:
402,192,127755,1,0,0:0:0:0:
182,192,127945,1,0,0:0:0:0:
256,192,127945,1,0,0:0:0:0:
402,192,128135,1,0,0:0:0:40:bell-1.wav
475,192,128325,1,0,0:0:0:0:
36,192,128515,1,0,0:0:0:0:
402,192,128705,1,0,0:0:0:40:drum.wav
329,192,128800,1,0,0:0:0:40:drum.wav
256,192,128894,1,0,0:0:0:40:drum.wav
109,192,129084,1,0,0:0:0:0:
475,192,129274,1,0,0:0:0:0:
182,192,129274,1,0,0:0:0:40:bell-1.wav
36,192,129464,1,0,0:0:0:0:
256,192,129654,1,0,0:0:0:0:
402,192,129654,1,0,0:0:0:0:
402,192,129844,1,0,0:0:0:0:
256,192,130034,1,0,0:0:0:0:
475,192,130224,1,0,0:0:0:0:
182,192,130224,1,0,0:0:0:40:bell-1.wav
36,192,130413,1,0,0:0:0:0:
475,192,130603,1,0,0:0:0:0:
402,192,130793,1,0,0:0:0:0:
329,192,130793,1,0,0:0:0:0:
256,192,130983,1,0,0:0:0:0:
329,192,131173,1,0,0:0:0:40:drum.wav
109,192,131268,1,0,0:0:0:40:drum.wav
402,192,131363,1,0,0:0:0:40:drum.wav
475,192,131553,1,0,0:0:0:0:
182,192,131553,1,0,0:0:0:0:
36,192,131743,1,0,0:0:0:40:drum.wav
256,192,131837,1,0,0:0:0:40:drum.wav
402,192,131932,1,0,0:0:0:40:drum.wav
475,192,132122,1,0,0:0:0:0:
329,192,132312,1,0,0:0:0:40:normalfinish.wav
402,192,132312,1,0,0:0:0:0:
182,192,132312,1,0,0:0:0:0:
36,192,132502,1,0,0:0:0:0:
256,192,132692,1,0,0:0:0:0:
475,192,132882,1,0,0:0:0:40:bell-1.wav
402,192,133072,1,0,0:0:0:0:
256,192,133262,1,0,0:0:0:0:
109,192,133451,1,0,0:0:0:0:
36,192,133641,1,0,0:0:0:40:bell-1.wav
475,192,133831,1,0,0:0:0:0:
109,192,134021,1,0,0:0:0:0:
402,192,134211,1,0,0:0:0:0:
36,192,134401,1,0,0:0:0:40:bell-1.wav
475,192,134591,1,0,0:0:0:0:
256,192,134781,1,0,0:0:0:40:bell-1.wav
36,192,134970,1,0,0:0:0:40:softfinish.wav
109,192,134970,1,0,0:0:0:0:
402,192,135160,1,0,0:0:0:0:
256,192,135160,1,0,0:0:0:0:
36,192,135350,1,0,0:0:0:0:
182,192,135350,1,0,0:0:0:0:
329,192,135540,1,0,0:0:0:0:
402,192,135540,1,0,0:0:0:0:
182,192,135730,1,0,0:0:0:0:
109,192,135730,1,0,0:0:0:0:
475,192,135920,1,0,0:0:0:0:
402,192,135920,1,0,0:0:0:0:
256,192,136110,1,0,0:0:0:0:
36,192,136110,1,0,0:0:0:0:
402,192,136300,1,0,0:0:0:0:
329,192,136300,1,0,0:0:0:0:
36,192,136489,1,0,0:0:0:40:drum.wav
109,192,136584,1,0,0:0:0:40:drum.wav
182,192,136679,1,0,0:0:0:40:drum.wav
256,192,136774,1,0,0:0:0:40:drum.wav
329,192,136869,1,0,0:0:0:40:drum.wav
36,192,136964,1,0,0:0:0:40:drum.wav
402,192,137059,1,0,0:0:0:40:drum.wav
109,192,137154,1,0,0:0:0:40:drum.wav
475,192,137249,1,0,0:0:0:40:drum.wav
329,192,137439,1,0,0:0:0:0:
182,192,137629,1,0,0:0:0:0:
402,192,137629,1,0,0:0:0:0:
36,192,137819,1,0,0:0:0:40:drum.wav
109,192,137866,1,0,0:0:0:40:drum.wav
182,192,137913,1,0,0:0:0:40:drum.wav
256,192,137961,1,0,0:0:0:40:drum.wav
329,192,138008,1,0,0:0:0:40:drum.wav
475,192,138198,1,0,0:0:0:0:
402,192,138388,1,0,0:0:0:0:
329,192,138578,1,0,0:0:0:40:bell-1.wav
36,192,138768,1,0,0:0:0:0:
109,192,138958,1,0,0:0:0:0:
256,192,139148,1,0,0:0:0:0:
475,192,139337,1,0,0:0:0:0:
36,192,139527,1,0,0:0:0:40:bell-1.wav
402,192,139622,1,0,0:0:0:0:
109,192,139717,1,0,0:0:0:0:
329,192,139812,1,0,0:0:0:0:
36,192,139907,1,0,0:0:0:0:
402,192,140002,1,0,0:0:0:0:
109,192,140097,1,0,0:0:0:0:
256,192,140192,1,0,0:0:0:0:
475,192,140287,1,0,0:0:0:40:bell-1.wav
36,192,140382,1,0,0:0:0:0:
256,192,140477,1,0,0:0:0:0:
402,192,140572,1,0,0:0:0:0:
109,192,140667,1,0,0:0:0:0:
329,192,140856,1,0,0:0:0:0:
182,192,141046,1,0,0:0:0:0:
475,192,141046,1,0,0:0:0:40:bell-1.wav
36,192,141426,1,0,0:0:0:0:
109,192,141426,1,0,0:0:0:40:bell-1.wav
402,192,141806,1,0,0:0:0:0:
329,192,141806,1,0,0:0:0:0:
182,192,142186,1,0,0:0:0:0:
256,192,142186,1,0,0:0:0:40:bell-1.wav
475,192,142565,1,0,0:0:0:0:
402,192,142565,1,0,0:0:0:0:
36,192,142945,1,0,0:0:0:40:bell-1.wav
402,192,143325,1,0,0:0:0:40:bell-1.wav
256,192,143705,1,0,0:0:0:40:bell-1.wav
475,192,144084,1,0,0:0:0:40:softfinish.wav
182,192,144084,1,0,0:0:0:0:
109,192,144084,1,0,0:0:0:40:bell-1.wav
402,192,144274,1,0,0:0:0:0:
329,192,144464,1,0,0:0:0:0:
182,192,144464,1,0,0:0:0:0:
256,192,144654,1,0,0:0:0:0:
182,192,144844,1,0,0:0:0:0:
109,192,144844,1,0,0:0:0:0:
402,192,145034,1,0,0:0:0:0:
36,192,145224,1,0,0:0:0:0:
402,192,145413,1,0,0:0:0:40:bell-1.wav
109,192,145603,1,0,0:0:0:0:
36,192,145603,1,0,0:0:0:0:
182,192,145793,1,0,0:0:0:0:
256,192,145983,1,0,0:0:0:0:
402,192,145983,1,0,0:0:0:0:
329,192,146173,1,0,0:0:0:0:
402,192,146363,1,0,0:0:0:0:
475,192,146363,1,0,0:0:0:0:
36,192,146553,1,0,0:0:0:0:
329,192,146743,1,0,0:0:0:40:bell-1.wav
109,192,146932,1,0,0:0:0:40:drum.wav
402,192,147027,1,0,0:0:0:40:drum.wav
182,192,147122,1,0,0:0:0:40:softfinish.wav
256,192,147122,1,0,0:0:0:0:
36,192,147312,1,0,0:0:0:0:
475,192,147502,1,0,0:0:0:0:
109,192,147692,1,0,0:0:0:0:
475,192,147882,1,0,0:0:0:0:
36,192,148072,1,0,0:0:0:0:
402,192,148262,1,0,0:0:0:0:
109,192,148451,1,0,0:0:0:0:
475,192,148641,1,0,0:0:0:0:
256,192,148831,1,0,0:0:0:0:
109,192,149021,1,0,0:0:0:0:
36,192,149211,1,0,0:0:0:0:
402,192,149211,1,0,0:0:0:0:
402,192,149591,1,0,0:0:0:0:
182,192,149591,1,0,0:0:0:0:
109,192,149781,1,0,0:0:0:0:
475,192,149781,1,0,0:0:0:0:
36,192,150160,1,0,0:0:0:0:
402,192,150160,128,0,151300:0:0:0:0:
109,192,150350,1,0,0:0:0:0:
182,192,150350,1,0,0:0:0:0:
256,192,150730,1,0,0:0:0:0:
182,192,151110,1,0,0:0:0:0:
182,192,151300,1,0,0:0:0:0:
475,192,151300,1,0,0:0:0:0:
36,192,151679,1,0,0:0:0:0:
329,192,151679,1,0,0:0:0:0:
182,192,151869,1,0,0:0:0:0:
402,192,152059,1,0,0:0:0:0:
182,192,152249,1,0,0:0:0:0:
475,192,152439,1,0,0:0:0:0:
256,192,152629,1,0,0:0:0:0:
36,192,152819,1,0,0:0:0:0:
402,192,153008,1,0,0:0:0:0:
109,192,153198,1,0,0:0:0:0:
182,192,153198,1,0,0:0:0:0:
402,192,153388,1,0,0:0:0:0:
36,192,153578,1,0,0:0:0:0:
182,192,153578,1,0,0:0:0:0:
329,192,153768,1,0,0:0:0:0:
109,192,153958,1,0,0:0:0:0:
182,192,153958,1,0,0:0:0:0:
329,192,154148,1,0,0:0:0:0:
182,192,154337,1,0,0:0:0:0:
475,192,154337,1,0,0:0:0:0:
402,192,154527,1,0,0:0:0:0:
256,192,154622,1,0,0:0:0:40:drum.wav
36,192,154717,1,0,0:0:0:0:
182,192,154907,1,0,0:0:0:0:
329,192,155097,1,0,0:0:0:40:bell-1.wav
36,192,155097,1,0,0:0:0:0:
182,192,155287,1,0,0:0:0:0:
475,192,155477,1,0,0:0:0:0:
329,192,155667,1,0,0:0:0:0:
256,192,155856,1,0,0:0:0:0:
402,192,156046,1,0,0:0:0:0:
36,192,156236,1,0,0:0:0:0:
402,192,156426,1,0,0:0:0:0:
109,192,156616,1,0,0:0:0:0:
256,192,156616,1,0,0:0:0:0:
475,192,156806,1,0,0:0:0:0:
36,192,156996,1,0,0:0:0:40:drum.wav
256,192,157091,1,0,0:0:0:40:drum.wav
402,192,157186,1,0,0:0:0:40:drum.wav
109,192,157375,1,0,0:0:0:0:
182,192,157375,1,0,0:0:0:0:
475,192,157470,1,0,0:0:0:40:drum.wav
402,192,157565,1,0,0:0:0:40:drum.wav
329,192,157660,1,0,0:0:0:40:drum.wav
256,192,157755,1,0,0:0:0:40:softfinish.wav
475,192,157755,1,0,0:0:0:0:
109,192,157945,1,0,0:0:0:0:
402,192,158135,1,0,0:0:0:0:
36,192,158325,1,0,0:0:0:0:
256,192,158515,1,0,0:0:0:0:
402,192,158705,1,0,0:0:0:0:
36,192,158894,1,0,0:0:0:0:
182,192,159084,1,0,0:0:0:0:
475,192,159274,1,0,0:0:0:40:softfinish.wav
402,192,159274,1,0,0:0:0:0:
256,192,159464,1,0,0:0:0:0:
36,192,159654,1,0,0:0:0:0:
475,192,159844,1,0,0:0:0:0:
256,192,160034,1,0,0:0:0:0:
402,192,160224,1,0,0:0:0:0:
109,192,160413,1,0,0:0:0:0:
402,192,160603,1,0,0:0:0:0:
36,192,160793,1,0,0:0:0:0:
402,192,160983,1,0,0:0:0:0:
109,192,161173,1,0,0:0:0:40:softfinish.wav
182,192,161173,1,0,0:0:0:0:
475,192,161363,1,0,0:0:0:0:
36,192,161553,1,0,0:0:0:0:
402,192,161743,1,0,0:0:0:0:
256,192,161932,1,0,0:0:0:0:
36,192,162122,1,0,0:0:0:0:
182,192,162312,1,0,0:0:0:0:
256,192,162360,1,0,0:0:0:0:
329,192,162407,1,0,0:0:0:0:
402,192,162455,1,0,0:0:0:0:
475,192,162502,1,0,0:0:0:0:
36,192,162597,1,0,0:0:0:40:drum.wav
109,192,162692,1,0,0:0:0:40:drum.wav
182,192,162787,1,0,0:0:0:40:drum.wav
256,192,162882,1,0,0:0:0:40:drum.wav
329,192,162977,1,0,0:0:0:40:drum.wav
402,192,163072,1,0,0:0:0:40:drum.wav
182,192,163262,1,0,0:0:0:0:
109,192,163262,1,0,0:0:0:0:
109,192,163451,1,0,0:0:0:0:
182,192,163451,1,0,0:0:0:0:
402,192,163546,1,0,0:0:0:40:drum.wav
329,192,163641,1,0,0:0:0:40:drum.wav
256,192,163736,1,0,0:0:0:40:drum.wav
182,192,163831,1,0,0:0:0:40:drum.wav
475,192,163831,1,0,0:0:0:0:
402,192,164021,1,0,0:0:0:0:
256,192,164211,1,0,0:0:0:0:
36,192,164401,1,0,0:0:0:0:
182,192,164591,1,0,0:0:0:0:
475,192,164781,1,0,0:0:0:0:
256,192,164970,1,0,0:0:0:0:
109,192,165160,1,0,0:0:0:0:
329,192,165350,1,0,0:0:0:0:
256,192,165350,1,0,0:0:0:0:
36,192,165540,1,0,0:0:0:0:
402,192,165730,1,0,0:0:0:0:
256,192,165730,1,0,0:0:0:0:
109,192,165920,1,0,0:0:0:0:
475,192,166110,1,0,0:0:0:0:
256,192,166110,1,0,0:0:0:0:
36,192,166300,1,0,0:0:0:0:
402,192,166489,1,0,0:0:0:0:
329,192,166489,1,0,0:0:0:0:
36,192,166679,1,0,0:0:0:40:drum.wav
256,192,166774,1,0,0:0:0:40:drum.wav
36,192,166869,1,0,0:0:0:40:softfinish.wav
402,192,167059,1,0,0:0:0:0:
329,192,167249,1,0,0:0:0:40:bell-1.wav
182,192,167439,1,0,0:0:0:0:
475,192,167629,1,0,0:0:0:0:
36,192,167819,1,0,0:0:0:0:
256,192,168008,1,0,0:0:0:0:
329,192,168198,1,0,0:0:0:0:
475,192,168388,1,0,0:0:0:0:
109,192,168578,1,0,0:0:0:0:
475,192,168768,1,0,0:0:0:0:
36,192,168958,1,0,0:0:0:0:
256,192,169148,1,0,0:0:0:0:
109,192,169337,1,0,0:0:0:0:
475,192,169527,1,0,0:0:0:40:drum.wav
36,192,169622,1,0,0:0:0:40:drum.wav
109,192,169717,1,0,0:0:0:40:drum.wav
182,192,169812,1,0,0:0:0:40:drum.wav
256,192,169907,1,0,0:0:0:40:drum.wav
36,192,169907,1,0,0:0:0:0:
329,192,170097,1,0,0:0:0:0:
402,192,170287,1,0,0:0:0:40:normalfinish.wav
475,192,170287,1,0,0:0:0:0:
109,192,170287,1,0,0:0:0:0:
329,192,170477,1,0,0:0:0:0:
36,192,170667,1,0,0:0:0:0:
256,192,170856,1,0,0:0:0:0:
109,192,171046,1,0,0:0:0:0:
475,192,171236,1,0,0:0:0:0:
36,192,171426,1,0,0:0:0:40:softfinish.wav
182,192,171426,1,0,0:0:0:0:
402,192,171616,1,0,0:0:0:0:
256,192,171806,1,0,0:0:0:0:
109,192,171996,1,0,0:0:0:0:
329,192,172186,1,0,0:0:0:0:
475,192,172375,1,0,0:0:0:0:
182,192,172565,1,0,0:0:0:0:
36,192,172755,1,0,0:0:0:0:
329,192,172945,1,0,0:0:0:0:
109,192,173135,1,0,0:0:0:0:
256,192,173325,1,0,0:0:0:0:
475,192,173515,1,0,0:0:0:0:
329,192,173705,1,0,0:0:0:0:
109,192,173894,1,0,0:0:0:0:
402,192,174084,1,0,0:0:0:0:
36,192,174274,1,0,0:0:0:0:
402,192,174274,1,0,0:0:0:0:
109,192,174654,1,0,0:0:0:0:
329,192,174654,1,0,0:0:0:0:
36,192,174654,1,0,0:0:0:0:
182,192,175034,1,0,0:0:0:0:
402,192,175034,1,0,0:0:0:0:
475,192,175034,1,0,0:0:0:0:
475,192,175413,1,0,0:0:0:0:
109,192,175413,1,0,0:0:0:0:
256,192,175603,1,0,0:0:0:0:
256,192,175793,1,0,0:0:0:0:
402,192,175983,1,0,0:0:0:0:
329,192,176173,1,0,0:0:0:0:
256,192,176363,1,0,0:0:0:0:
182,192,176553,128,0,176743:0:0:0:0:
36,192,176932,1,0,0:0:0:0:
182,192,177122,1,0,0:0:0:0:
402,192,177312,128,0,177502:0:0:0:0:
109,192,177692,1,0,0:0:0:0:
182,192,177882,1,0,0:0:0:0:
256,192,178072,128,0,178262:0:0:0:0:
475,192,178451,128,0,178641:0:0:0:0:
36,192,178831,1,0,0:0:0:0:
402,192,178926,1,0,0:0:0:0:
182,192,179021,128,0,179401:0:0:0:0:
109,192,179401,1,0,0:0:0:0:
36,192,179591,1,0,0:0:0:0:
256,192,179686,1,0,0:0:0:0:
402,192,179781,1,0,0:0:0:0:
109,192,179875,1,0,0:0:0:0:
475,192,179970,1,0,0:0:0:0:
182,192,180160,1,0,0:0:0:0:
402,192,180255,1,0,0:0:0:0:
182,192,180350,1,0,0:0:0:0:
36,192,180540,1,0,0:0:0:0:
329,192,180635,1,0,0:0:0:0:
36,192,180730,1,0,0:0:0:0:
256,192,180825,1,0,0:0:0:0:
475,192,180920,1,0,0:0:0:0:
36,192,181015,1,0,0:0:0:0:
402,192,181110,1,0,0:0:0:0:
109,192,181205,1,0,0:0:0:0:
329,192,181300,1,0,0:0:0:0:
182,192,181394,1,0,0:0:0:0:
402,192,181489,1,0,0:0:0:0:
109,192,181584,1,0,0:0:0:0:
475,192,181679,1,0,0:0:0:0:
256,192,181774,1,0,0:0:0:0:
36,192,181869,1,0,0:0:0:0:
182,192,182059,1,0,0:0:0:0:
475,192,182249,1,0,0:0:0:0:
109,192,182439,1,0,0:0:0:40:normalfinish.wav
402,192,182629,128,0,183008:0:0:0:0:
256,192,183008,1,0,0:0:0:0:
182,192,183198,1,0,0:0:0:0:
109,192,183388,128,0,183768:0:0:0:0:
182,192,183768,1,0,0:0:0:0:
329,192,183958,1,0,0:0:0:0:
402,192,184148,128,0,184527:0:0:0:0:
36,192,184527,1,0,0:0:0:0:
256,192,184717,128,0,184907:0:0:0:0:
36,192,185097,1,0,0:0:0:0:
109,192,185192,1,0,0:0:0:0:
182,192,185287,1,0,0:0:0:0:
256,192,185382,1,0,0:0:0:0:
475,192,185477,1,0,0:0:0:0:
109,192,185572,1,0,0:0:0:0:
402,192,185667,1,0,0:0:0:0:
109,192,185762,1,0,0:0:0:0:
475,192,185856,1,0,0:0:0:0:
256,192,185951,1,0,0:0:0:0:
36,192,186046,1,0,0:0:0:0:
402,192,186141,1,0,0:0:0:0:
36,192,186236,1,0,0:0:0:0:
256,192,186331,1,0,0:0:0:0:
475,192,186426,1,0,0:0:0:0:
402,192,186521,1,0,0:0:0:0:
109,192,186616,128,0,188135:0:0:0:0:
329,192,186616,1,0,0:0:0:0:
402,192,187565,128,0,188135:0:0:0:0:
109,192,188894,5,0,0:0:0:0:
256,192,188894,1,0,0:0:0:0:
475,192,188894,1,0,0:0:0:0:
182,192,189084,1,0,0:0:0:0:
256,192,189274,1,0,0:0:0:0:
36,192,189274,1,0,0:0:0:0:
402,192,189274,1,0,0:0:0:0:
329,192,189464,1,0,0:0:0:0:
109,192,189654,1,0,0:0:0:0:
256,192,189654,1,0,0:0:0:0:
475,192,189654,1,0,0:0:0:0:
36,192,189844,1,0,0:0:0:40:drum.wav
109,192,189891,1,0,0:0:0:40:drum.wav
182,192,189939,1,0,0:0:0:40:drum.wav
256,192,189986,1,0,0:0:0:40:drum.wav
329,192,190034,1,0,0:0:0:40:drum.wav
36,192,190224,1,0,0:0:0:0:
475,192,190413,1,0,0:0:0:0:
329,192,190413,1,0,0:0:0:0:
109,192,190603,1,0,0:0:0:0:
256,192,190793,1,0,0:0:0:0:
402,192,190793,1,0,0:0:0:0:
36,192,190983,1,0,0:0:0:0:
109,192,191173,1,0,0:0:0:40:softfinish.wav
182,192,191173,1,0,0:0:0:0:
256,192,191363,1,0,0:0:0:0:
329,192,191553,1,0,0:0:0:40:bell-1.wav
402,192,191553,1,0,0:0:0:0:
475,192,191743,1,0,0:0:0:0:
402,192,191932,1,0,0:0:0:0:
182,192,191932,1,0,0:0:0:0:
329,192,192122,1,0,0:0:0:0:
256,192,192312,1,0,0:0:0:0:
475,192,192312,1,0,0:0:0:0:
182,192,192502,1,0,0:0:0:0:
109,192,192692,1,0,0:0:0:0:
36,192,192692,1,0,0:0:0:0:
475,192,192882,1,0,0:0:0:0:
182,192,193072,1,0,0:0:0:0:
256,192,193072,1,0,0:0:0:0:
329,192,193262,1,0,0:0:0:0:
109,192,193451,1,0,0:0:0:40:drum.wav
402,192,193546,1,0,0:0:0:40:drum.wav
182,192,193641,1,0,0:0:0:40:drum.wav
329,192,193831,1,0,0:0:0:0:
109,192,193831,1,0,0:0:0:0:
36,192,194021,1,0,0:0:0:40:drum.wav
256,192,194116,1,0,0:0:0:40:drum.wav
475,192,194211,1,0,0:0:0:40:softfinish.wav
36,192,194401,1,0,0:0:0:0:
402,192,194591,1,0,0:0:0:0:
329,192,194591,1,0,0:0:0:0:
256,192,194781,1,0,0:0:0:0:
36,192,194970,1,0,0:0:0:0:
109,192,194970,1,0,0:0:0:0:
182,192,195160,1,0,0:0:0:0:
329,192,195350,1,0,0:0:0:0:
475,192,195350,1,0,0:0:0:0:
256,192,195540,1,0,0:0:0:0:
182,192,195730,1,0,0:0:0:40:softfinish.wav
109,192,195730,1,0,0:0:0:0:
256,192,195920,1,0,0:0:0:0:
402,192,196110,1,0,0:0:0:0:
475,192,196110,1,0,0:0:0:0:
329,192,196300,1,0,0:0:0:0:
256,192,196489,1,0,0:0:0:0:
109,192,196489,1,0,0:0:0:0:
182,192,196679,1,0,0:0:0:0:
109,192,196869,1,0,0:0:0:0:
36,192,196869,1,0,0:0:0:0:
402,192,197059,1,0,0:0:0:0:
36,192,197249,1,0,0:0:0:0:
329,192,197439,1,0,0:0:0:0:
109,192,197629,1,0,0:0:0:40:softfinish.wav
475,192,197819,1,0,0:0:0:0:
36,192,198008,1,0,0:0:0:0:
329,192,198198,1,0,0:0:0:0:
109,192,198388,1,0,0:0:0:0:
402,192,198578,1,0,0:0:0:0:
36,192,198768,1,0,0:0:0:0:
109,192,198815,1,0,0:0:0:0:
182,192,198863,1,0,0:0:0:0:
256,192,198910,1,0,0:0:0:0:
329,192,198958,1,0,0:0:0:0:
36,192,199053,1,0,0:0:0:40:drum.wav
475,192,199148,1,0,0:0:0:40:drum.wav
109,192,199243,1,0,0:0:0:40:drum.wav
475,192,199337,1,0,0:0:0:40:drum.wav
256,192,199432,1,0,0:0:0:40:drum.wav
36,192,199527,1,0,0:0:0:40:drum.wav
329,192,199717,1,0,0:0:0:0:
402,192,199717,1,0,0:0:0:0:
329,192,199907,1,0,0:0:0:0:
402,192,199907,1,0,0:0:0:0:
182,192,200097,1,0,0:0:0:40:drum.wav
256,192,200144,1,0,0:0:0:40:drum.wav
329,192,200192,1,0,0:0:0:40:drum.wav
402,192,200239,1,0,0:0:0:40:drum.wav
475,192,200287,1,0,0:0:0:40:normalfinish.wav
36,192,200477,1,0,0:0:0:0:
329,192,200667,1,0,0:0:0:0:
182,192,200856,1,0,0:0:0:0:
475,192,201046,1,0,0:0:0:0:
256,192,201236,1,0,0:0:0:0:
109,192,201426,1,0,0:0:0:0:
256,192,201616,1,0,0:0:0:0:
402,192,201806,1,0,0:0:0:0:
329,192,201806,1,0,0:0:0:0:
36,192,201996,1,0,0:0:0:0:
402,192,202186,1,0,0:0:0:0:
475,192,202186,1,0,0:0:0:0:
36,192,202375,1,0,0:0:0:0:
329,192,202565,1,0,0:0:0:0:
256,192,202565,1,0,0:0:0:0:
109,192,202755,1,0,0:0:0:0:
329,192,202945,1,0,0:0:0:0:
402,192,202945,1,0,0:0:0:0:
182,192,203135,1,0,0:0:0:40:drum.wav
256,192,203230,1,0,0:0:0:40:drum.wav
329,192,203325,1,0,0:0:0:40:softfinish.wav
36,192,203325,1,0,0:0:0:0:
402,192,203515,1,0,0:0:0:0:
109,192,203705,1,0,0:0:0:0:
329,192,203705,1,0,0:0:0:40:bell-1.wav
256,192,203894,1,0,0:0:0:0:
109,192,204084,1,0,0:0:0:0:
182,192,204084,1,0,0:0:0:0:
256,192,204274,1,0,0:0:0:0:
329,192,204464,1,0,0:0:0:0:
475,192,204464,1,0,0:0:0:0:
402,192,204654,1,0,0:0:0:0:
109,192,204844,1,0,0:0:0:0:
329,192,204844,1,0,0:0:0:0:
256,192,205034,1,0,0:0:0:0:
36,192,205224,1,0,0:0:0:0:
182,192,205224,1,0,0:0:0:0:
109,192,205413,1,0,0:0:0:0:
475,192,205603,1,0,0:0:0:40:drum.wav
256,192,205698,1,0,0:0:0:40:drum.wav
109,192,205793,1,0,0:0:0:40:drum.wav
475,192,205983,1,0,0:0:0:0:
329,192,205983,1,0,0:0:0:0:
36,192,206078,1,0,0:0:0:40:drum.wav
109,192,206173,1,0,0:0:0:40:drum.wav
182,192,206268,1,0,0:0:0:40:drum.wav
256,192,206363,1,0,0:0:0:40:drum.wav
475,192,206553,1,0,0:0:0:0:
109,192,206743,1,0,0:0:0:40:softfinish.wav
256,192,206743,1,0,0:0:0:0:
36,192,206743,1,0,0:0:0:0:
329,192,206932,1,0,0:0:0:0:
402,192,207122,1,0,0:0:0:0:
475,192,207122,1,0,0:0:0:0:
329,192,207312,1,0,0:0:0:0:
256,192,207502,1,0,0:0:0:0:
36,192,207502,1,0,0:0:0:0:
182,192,207692,1,0,0:0:0:0:
36,192,207882,1,0,0:0:0:40:softfinish.wav
109,192,207882,1,0,0:0:0:0:
182,192,208072,1,0,0:0:0:0:
256,192,208262,1,0,0:0:0:0:
402,192,208262,1,0,0:0:0:0:
329,192,208451,1,0,0:0:0:0:
402,192,208641,1,0,0:0:0:0:
475,192,208641,1,0,0:0:0:0:
109,192,208831,1,0,0:0:0:0:
329,192,209021,1,0,0:0:0:0:
36,192,209211,1,0,0:0:0:0:
182,192,209401,128,0,209781:0:0:0:0:
402,192,209401,1,0,0:0:0:0:
329,192,209591,1,0,0:0:0:0:
475,192,209781,1,0,0:0:0:0:
256,192,209970,128,0,210350:0:0:0:0:
36,192,209970,1,0,0:0:0:0:
109,192,210160,1,0,0:0:0:0:
329,192,210350,1,0,0:0:0:0:
36,192,210540,1,0,0:0:0:0:
402,192,210730,1,0,0:0:0:0:
329,192,210730,1,0,0:0:0:0:
475,192,210920,1,0,0:0:0:0:
182,192,211110,1,0,0:0:0:0:
256,192,211110,1,0,0:0:0:0:
109,192,211300,1,0,0:0:0:0:
402,192,211489,1,0,0:0:0:0:
329,192,211489,1,0,0:0:0:0:
256,192,211679,1,0,0:0:0:0:
36,192,211869,1,0,0:0:0:0:
109,192,211869,1,0,0:0:0:0:
329,192,212059,1,0,0:0:0:0:
402,192,212059,1,0,0:0:0:0:
475,192,212439,1,0,0:0:0:0:
182,192,212534,1,0,0:0:0:0:
402,192,212629,1,0,0:0:0:0:
109,192,212724,1,0,0:0:0:0:
329,192,212819,1,0,0:0:0:0:
36,192,212913,1,0,0:0:0:0:
402,192,213008,1,0,0:0:0:0:
109,192,213103,1,0,0:0:0:0:
475,192,213198,1,0,0:0:0:0:
182,192,213293,1,0,0:0:0:0:
475,192,213388,1,0,0:0:0:0:
109,192,213483,1,0,0:0:0:0:
402,192,213578,128,0,213958:0:0:0:0:
256,192,213958,1,0,0:0:0:40:normalfinish.wav
36,192,213958,1,0,0:0:0:0:
329,192,213958,1,0,0:0:0:0:
109,192,214148,1,0,0:0:0:0:
475,192,214337,1,0,0:0:0:0:
329,192,214527,128,0,214717:0:0:0:0:
109,192,214527,1,0,0:0:0:0:
36,192,214717,1,0,0:0:0:0:
182,192,214907,128,0,215097:0:0:0:0:
475,192,214907,1,0,0:0:0:0:
402,192,215097,1,0,0:0:0:0:
109,192,215287,128,0,215667:0:0:0:0:
256,192,215477,1,0,0:0:0:0:
402,192,215667,1,0,0:0:0:0:
36,192,215856,1,0,0:0:0:0:
475,192,216046,1,0,0:0:0:0:
256,192,216236,1,0,0:0:0:0:
475,192,216426,1,0,0:0:0:0:
36,192,216616,1,0,0:0:0:0:
402,192,216806,1,0,0:0:0:0:
109,192,216996,1,0,0:0:0:0:
402,192,216996,1,0,0:0:0:0:
256,192,217186,1,0,0:0:0:0:
475,192,217375,1,0,0:0:0:40:softfinish.wav
36,192,217565,1,0,0:0:0:0:
256,192,217755,1,0,0:0:0:0:
402,192,217945,1,0,0:0:0:0:
109,192,218135,1,0,0:0:0:0:
475,192,218325,128,0,218705:0:0:0:0:
329,192,218325,1,0,0:0:0:0:
109,192,218705,1,0,0:0:0:0:
329,192,218894,1,0,0:0:0:0:
182,192,219084,1,0,0:0:0:0:
36,192,219084,128,0,219464:0:0:0:0:
402,192,219464,1,0,0:0:0:0:
182,192,219654,1,0,0:0:0:0:
329,192,219844,1,0,0:0:0:40:drum.wav
109,192,219939,1,0,0:0:0:40:drum.wav
329,192,220034,1,0,0:0:0:40:drum.wav
36,192,220224,1,0,0:0:0:0:
182,192,220413,1,0,0:0:0:40:normalfinish.wav
256,192,220413,1,0,0:0:0:0:
329,192,220603,1,0,0:0:0:0:
402,192,220793,1,0,0:0:0:0:
475,192,220793,1,0,0:0:0:0:
36,192,220983,1,0,0:0:0:0:
329,192,221173,1,0,0:0:0:0:
36,192,221363,1,0,0:0:0:0:
402,192,221553,1,0,0:0:0:0:
36,192,221743,1,0,0:0:0:0:
475,192,221932,1,0,0:0:0:0:
36,192,222122,128,0,222692:0:0:0:0:
256,192,222692,1,0,0:0:0:0:
329,192,222692,1,0,0:0:0:0:
109,192,223072,1,0,0:0:0:40:normalfinish.wav
182,192,223072,1,0,0:0:0:0:
402,192,223262,1,0,0:0:0:0:
475,192,223262,1,0,0:0:0:0:
36,192,223451,1,0,0:0:0:0:
109,192,223451,1,0,0:0:0:0:
256,192,223641,1,0,0:0:0:0:
329,192,223641,1,0,0:0:0:0:
182,192,224021,1,0,0:0:0:0:
256,192,224021,1,0,0:0:0:0:
36,192,224401,1,0,0:0:0:0:
475,192,224401,1,0,0:0:0:0:
109,192,224781,1,0,0:0:0:0:
402,192,224781,1,0,0:0:0:0:
182,192,225160,1,0,0:0:0:0:
475,192,225160,1,0,0:0:0:0:
329,192,225540,1,0,0:0:0:0:
402,192,225540,1,0,0:0:0:0:
329,192,225730,1,0,0:0:0:0:
402,192,225730,128,0,226110:0:0:0:0:
109,192,226110,1,0,0:0:0:0:
109,192,226300,1,0,0:0:0:0:
402,192,226489,1,0,0:0:0:0:
402,192,226679,1,0,0:0:0:0:
256,192,227059,1,0,0:0:0:0:
256,192,227439,1,0,0:0:0:0:
475,192,227819,1,0,0:0:0:0:
36,192,228008,1,0,0:0:0:0:
475,192,228198,1,0,0:0:0:0:
36,192,228578,1,0,0:0:0:0:
475,192,228768,1,0,0:0:0:0:
36,192,228958,128,0,229717:0:0:0:0:
329,192,230097,1,0,0:0:0:0:
182,192,230287,1,0,0:0:0:0:
329,192,230477,1,0,0:0:0:0:
109,192,230856,1,0,0:0:0:0:
402,192,231046,1,0,0:0:0:0:
109,192,231236,1,0,0:0:0:0:
329,192,231616,1,0,0:0:0:0:
182,192,231806,1,0,0:0:0:0:
329,192,231996,128,0,232945:0:0:0:0:
182,192,233135,1,0,0:0:0:0:
182,192,233325,1,0,0:0:0:0:
402,192,233515,1,0,0:0:0:0:
402,192,233705,1,0,0:0:0:0:
36,192,233894,1,0,0:0:0:0:
36,192,234084,1,0,0:0:0:0:
256,192,234274,128,0,234844:0:0:0:0:
402,192,234844,1,0,0:0:0:0:
109,192,234844,1,0,0:0:0:0:
36,192,235224,1,0,0:0:0:40:softfinish.wav
109,192,235413,1,0,0:0:0:0:
182,192,235603,1,0,0:0:0:0:
256,192,235793,1,0,0:0:0:0:
36,192,235793,1,0,0:0:0:0:
329,192,236173,1,0,0:0:0:0:
402,192,236173,1,0,0:0:0:0:
402,192,236553,1,0,0:0:0:0:
475,192,236553,1,0,0:0:0:0:
182,192,236932,1,0,0:0:0:0:
329,192,236932,1,0,0:0:0:0:
182,192,237312,1,0,0:0:0:0:
329,192,237312,1,0,0:0:0:0:
256,192,237692,128,0,238262:0:0:0:70:bell-1.wav
