osu file format v9

[General]
AudioFilename: remilia.mp3
AudioLeadIn: 2000
PreviewTime: 55596
Countdown: 0
SampleSet: Soft
StackLeniency: 0.4
Mode: 0
LetterboxInBreaks: 0

[Editor]
Bookmarks: 95196,180225,188453
DistanceSpacing: 1
BeatDivisor: 4
GridSize: 4

[Metadata]
Title:Akashikku Parade
Artist:3L
Creator:Snowy Dream
Version:Scarlet
Source:Touhou
Tags:c81 Remilia scarlet Arte Refact Lundlerol yupichiii flandre

[Difficulty]
HPDrainRate:7
CircleSize:4
OverallDifficulty:6
ApproachRate:8
SliderMultiplier:1.6
SliderTickRate:2

[Events]
//Background and Video events
0,0,"BG1.jpg"
//Break Periods
2,11739,21760
2,84425,94446
2,180425,187703
//Storyboard Layer 0 (Background)
//Storyboard Layer 1 (Fail)
//Storyboard Layer 2 (Pass)
//Storyboard Layer 3 (Foreground)
//Storyboard Sound Samples
//Background Colour Transformations
3,100,163,162,255

[TimingPoints]
568,342.857142857143,4,2,1,85,1,0
56796,-100,4,2,1,85,0,1
84225,-100,4,2,1,85,0,0
129482,-100,4,2,1,85,0,1
156910,-100,4,2,1,85,0,0
191196,-100,4,2,1,85,0,1
218625,-100,4,2,1,85,0,0

[Colours]
Combo1 : 234,68,225
Combo2 : 17,219,169
Combo3 : 87,27,245
Combo4 : 245,88,54

[HitObjects]
312,256,568,5,4
344,184,739,1,0
336,104,910,1,2
256,88,1082,2,0,B|212:92|176:104,1,80
188,184,1425,1,0
188,184,1510,1,0
188,184,1596,1,2
148,252,1768,1,0
324,132,1939,6,0,B|312:92|320:48,1,80
400,56,2282,2,0,B|440:65|474:94,1,80,2|0
432,160,2625,2,0,B|403:190|361:205,1,80
316,264,2968,1,2
248,304,3139,1,0
248,304,3225,1,0
248,304,3310,1,0
80,140,3482,6,0,B|56:172|16:192,2,80,0|2|0
156,116,3996,1,0
144,196,4168,1,0
220,168,4339,2,0,B|260:168|300:184,1,80,2|0
408,320,4682,6,0,B|448:300|476:264,2,80,0|0|2
360,144,5196,1,0
360,144,5282,1,0
360,144,5368,2,0,B|340:104|304:76,2,80,0|0|2
60,324,6053,6,0,B|32:292|24:248,1,80
92,212,6396,2,0,B|94:169|120:132,1,80,2|0
196,124,6739,2,0,B|228:96|272:88,1,80
336,128,7082,1,2
412,352,7253,6,0,B|360:308|420:248|372:192,1,160
312,248,7768,1,2
312,248,7939,1,0
248,296,8110,2,0,B|212:324|172:332,2,80,0|0|2
108,168,8625,6,0,B|92:156|84:136,2,40
160,108,8968,1,0
160,108,9139,1,2
240,100,9310,2,0,B|260:96|280:100,2,40
396,104,9653,1,0
464,148,9825,1,2
440,224,9996,1,0
372,180,10168,6,0,B|360:196|336:204,3,40
352,260,10510,2,0,B|336:272|312:268,3,40,2|0|0|0
264,300,10853,2,0,B|248:288|240:264,3,40
183,262,11196,2,0,B|171:246|175:222,3,40,2|0|0|0
260,188,11539,1,4
124,152,22510,6,0,B|104:188|124:232,1,80,4|0
404,296,23025,1,0
404,296,23196,1,0
308,76,23539,2,0,B|344:56|368:20,1,80,2|0
240,304,24053,5,0
240,304,24139,1,0
240,304,24225,1,2
160,308,24396,1,0
80,120,24568,2,0,B|56:152|48:200,1,80
152,88,24910,1,2
228,108,25082,1,0
256,120,25168,1,0
288,120,25253,1,2
36,336,25768,6,0,B|24:352|20:372,2,40
60,260,26110,1,0
136,228,26282,1,2
216,224,26453,1,0
416,256,26796,5,0
416,256,26882,1,0
416,256,26968,1,2
364,316,27139,1,0
288,288,27310,1,0
300,208,27482,1,0
376,192,27653,1,2
388,160,27739,1,0
388,128,27825,1,0
376,100,27910,1,0
356,76,27996,1,4
120,112,28339,5,2
120,112,28510,1,0
68,176,28682,2,0,B|48:212|40:252,2,80,0|0|2
148,192,29196,2,0,B|184:240|264:220|292:264,1,160,4|0
288,260,29710,1,2
476,56,30396,5,2
404,88,30568,2,0,B|396:128|408:168,1,80,0|4
336,204,30910,1,0
336,204,30996,1,0
336,204,31082,1,2
272,160,31253,2,0,B|256:124|216:100,1,80
140,120,31596,1,0
80,172,31768,1,2
140,120,31939,1,4
204,316,32282,6,0,B|200:336|188:352,2,40,0|0|2
280,292,32625,1,0
360,292,32796,1,0
396,152,32968,1,0
408,232,33139,1,2
408,44,33310,1,0
344,96,33482,1,4
204,128,33653,6,0,B|208:148|224:164,2,40,0|0|8
124,112,33996,1,0
132,192,34168,2,0,B|104:224|60:232,1,80
56,152,34510,2,0,B|84:120|128:112,1,80,8|0
392,312,35025,6,0,B|400:332|396:356,2,40,0|0|8
328,264,35368,1,0
252,284,35539,2,0,B|212:280|176:260,1,80
104,228,35882,1,8
36,184,36053,1,0
68,112,36225,1,4
448,96,36568,5,8
448,96,36739,2,0,B|464:80|472:56,2,40
368,108,37082,1,0
420,168,37253,1,8
364,224,37425,2,0,B|372:260|348:276|360:312,1,80
288,340,37768,1,0
232,284,37939,1,8
272,216,38110,1,0
272,216,38196,1,0
272,216,38282,1,0
128,176,38453,2,0,B|88:168|44:172,2,80,0|8|0
372,192,38968,6,0,B|420:164|420:76|368:48,1,160,4|0
332,120,39482,1,0
260,88,39653,2,0,B|228:60|184:48,2,80,0|0|8
272,168,40168,1,0
248,188,40253,1,0
216,196,40339,1,0
144,164,40510,2,0,B|116:192|104:232,1,80,0|8
172,272,40853,1,0
244,304,41025,2,0,B|248:348|272:380,2,80,0|0|8
368,104,41710,6,0,B|400:76|444:64,2,80,0|0|8
268,240,42225,2,0,B|236:268|192:280,2,80
312,172,42739,1,8
244,128,42910,1,4
96,296,43253,1,4
176,88,43596,1,4
396,128,43939,1,4
436,196,44110,1,4
412,272,44282,1,0
64,200,44453,6,0,B|48:164|48:120,2,80,4|0|8
144,184,44968,1,0
144,184,45053,1,0
144,184,45139,2,0,B|160:220|160:264,2,80,0|0|8
204,132,45653,2,0,B|244:96|324:136|360:104,1,160
428,144,46168,5,8
312,320,46339,2,0,B|308:340|292:356,2,40
284,244,46682,1,0
216,288,46853,1,8
136,304,47025,1,0
76,252,47196,6,0,B|40:192|84:144|64:84,1,160,0|8
436,132,47882,2,0,B|472:192|428:240|448:300,1,160,0|8
380,336,48396,1,0
320,284,48568,5,0
340,208,48739,1,0
324,128,48910,1,8
268,72,49082,1,0
220,164,49253,1,0
296,184,49425,1,0
376,168,49596,1,8
432,112,49768,1,0
192,244,49939,6,0,B|212:280|208:324,2,80,4|0|8
148,176,50453,1,0
148,176,50539,1,0
148,176,50625,1,0
284,280,50796,2,0,B|316:256|360:248,1,80,0|8
420,300,51139,2,0,B|476:304|520:248|504:184,1,160
428,216,51653,1,8
404,84,51825,6,0,B|420:68|428:48,2,40
324,96,52168,1,0
244,84,52339,1,8
184,136,52510,1,0
108,156,52682,2,0,B|88:192|80:232,1,80
152,264,53025,1,8
152,264,53196,1,0
300,328,53368,2,0,B|337:309|366:281,1,80
325,214,53710,1,8
325,214,53882,1,0
256,112,54053,5,4
256,352,54568,1,4
256,192,54910,1,0
256,192,55082,1,4
256,192,55253,12,4,56796
100,120,56968,5,0
76,196,57139,1,8
152,220,57310,1,0
172,144,57482,1,0
248,116,57653,2,0,B|264:100|284:92,2,40,0|0|8
292,184,57996,1,0
252,256,58168,2,0,B|244:296|260:336,2,80,0|0|8
368,212,58682,1,0
476,148,58853,2,0,B|488:108|468:68,2,80,0|0|8
404,112,59368,1,0
324,116,59539,6,0,B|248:80|168:120,1,160,0|8
144,196,60053,1,0
136,228,60139,1,0
120,256,60225,1,0
48,220,60396,1,0
48,300,60568,2,0,B|72:336|120:340,1,80,8|0
188,304,60910,2,0,B|228:288|272:300,2,80,0|0|8
240,368,61425,1,0
320,364,61596,2,0,B|348:328|340:284,2,80,0|0|8
272,300,62110,1,0
256,272,62196,1,0
260,240,62282,5,0
308,176,62453,2,0,B|340:140|332:92,1,80,0|8
284,40,62796,2,0,B|252:76|260:124,1,80
180,128,63139,2,0,B|160:132|144:144,2,40,0|0|8
176,208,63482,2,0,B|200:260|173:330|110:336,1,160
108,256,63996,1,8
28,256,64168,1,0
108,256,64339,1,0
104,176,64510,1,0
24,172,64682,2,0,B|16:152|16:132,3,40,8|0|0|0
22,102,65025,5,0
88,56,65196,1,0
168,40,65368,1,8
248,56,65539,2,0,B|260:92|292:128|336:128|380:108,1,160
332,44,66053,1,8
412,32,66225,2,0,B|460:40|496:112|448:164,1,160
392,212,66739,1,8
328,260,66910,2,0,B|143:185|271:-18|411:185|219:261,1,400,0|4
168,200,67939,5,0
168,200,68025,1,0
168,200,68110,1,8
88,212,68282,1,0
136,276,68453,2,0,B|124:340|60:368,2,120,0|8|0
212,304,69139,2,0,B|244:340|284:340,1,80
296,260,69482,1,8
360,308,69653,1,0
440,328,69825,1,0
488,264,69996,1,0
496,184,70168,2,0,B|484:144|452:112,1,80,8|0
380,84,70510,6,0,B|344:52|296:56|256:80|248:120,1,160,0|8
324,144,71025,1,0
192,176,71196,2,0,B|228:208|276:204|316:180|324:140,1,160,0|8
388,192,71710,1,0
384,224,71796,1,0
364,248,71882,1,0
292,284,72053,2,0,B|280:324|296:364,1,80,0|8
368,324,72396,1,0
208,328,72568,2,0,B|220:288|204:248,1,80
132,288,72911,1,8
136,208,73082,1,0
60,236,73253,6,0,B|36:184|88:100|184:116|212:176,1,240,4|8
284,192,73939,2,0,B|324:176|364:200|408:184,2,120,0|8|0
284,112,74625,1,0
356,76,74796,1,0
284,272,74968,1,8
356,308,75139,1,0
208,192,75310,5,0
184,192,75396,1,0
160,192,75482,1,0
136,192,75568,1,0
112,192,75653,1,8
88,192,75739,1,0
64,192,75825,1,0
40,192,75910,1,0
16,192,75996,5,0
28,112,76168,1,0
44,84,76253,1,0
72,68,76339,1,8
152,76,76510,2,0,B|184:104|228:100,1,80
288,48,76853,2,0,B|256:20|212:24,1,80,0|8
304,124,77196,1,0
364,176,77368,5,0
364,176,77539,1,8
48,284,77882,2,0,B|120:244|204:256,1,160,0|0
236,256,78310,1,0
264,270,78396,1,8
344,256,78568,1,0
256,192,78739,12,0,80110
256,192,80196,12,0,81482
256,192,81568,12,4,84225
96,140,95196,5,4
96,140,95368,1,0
216,244,95710,1,0
216,244,95882,2,0,B|192:208|212:164,1,80
280,128,96225,2,0,B|304:164|284:208,1,80,2|4
396,320,96739,1,0
440,256,96910,2,0,B|464:212|436:148|456:96,1,160,2|0
300,52,97596,1,2
92,264,97939,6,0,B|60:232|72:188,1,80,4|0
420,120,98453,2,0,B|452:152|440:196,1,80
376,240,98796,2,0,B|372:260|360:280,2,40,0|0|2
308,200,99139,2,0,B|288:188|252:208|224:196,1,80,4|0
200,272,99482,1,0
200,272,99653,1,2
72,156,100168,5,0
108,84,100339,1,2
184,112,100510,1,0
152,184,100682,1,4
380,256,101196,6,0,B|396:272|404:296,2,40
412,180,101539,2,0,B|444:152|444:108,1,80,0|2
364,116,101882,2,0,B|320:120|284:144|272:184|280:232|280:232,1,160,4|0
220,284,102396,2,0,B|192:316|152:324,1,80,2|0
160,84,103082,5,2
232,52,103253,1,0
308,80,103425,1,4
244,312,103939,2,0,B|288:324|320:296,1,80
352,224,104282,2,0,B|308:212|276:240,1,80,0|2
196,236,104625,2,0,B|144:264|80:236|72:180,1,160,4|0
28,112,105139,2,0,B|80:84|144:112|152:168,1,160,2|0
232,156,105653,1,0
260,144,105739,1,0
292,144,105825,1,2
368,164,105996,1,0
384,244,106168,6,0,B|376:284|388:324,2,80,4|0|8
464,260,106682,2,0,B|472:220|460:180,2,80
468,340,107196,1,8
296,320,107368,2,0,B|240:296|180:336|128:316,1,160
64,288,107882,1,8
36,212,108053,1,0
84,148,108225,1,0
84,148,108310,1,0
84,148,108396,1,0
164,164,108568,2,0,B|203:154|244:163,1,80,8|0
320,144,108910,6,0,B|300:108|304:64,2,80,0|0|8
392,104,109425,2,0,B|412:140|408:184,2,80
372,28,109939,1,8
344,200,110110,2,0,B|316:248|368:328|340:368,1,160
264,352,110625,1,8
184,340,110796,1,0
104,348,110968,1,0
104,348,111053,1,0
104,348,111139,1,0
44,276,111310,2,0,B|32:232|44:196,1,80,8|0
260,172,111653,6,0,B|224:128|152:128|112:180,1,160,4|8
188,212,112168,1,0
188,212,112253,1,0
188,212,112339,2,0,B|168:248|192:288,1,80
260,248,112682,1,8
336,228,112853,2,0,B|384:240|452:216|500:236,1,160
472,156,113368,1,8
472,156,113539,1,0
432,88,113710,2,0,B|416:72|396:64,2,40
376,148,114053,1,8
296,148,114225,1,0
252,84,114396,6,0,B|204:112|204:192|264:224,1,160,0|8
336,232,114910,1,0
356,256,114996,1,0
356,288,115082,1,0
316,356,115253,1,0
244,316,115425,1,8
164,328,115596,2,0,B|153:288|165:248,1,80
36,188,115939,2,0,B|76:200|120:188,1,80,0|8
176,56,116282,2,0,B|164:96|176:140,1,80
312,196,116625,2,0,B|272:184|228:196,1,80,0|8
252,116,116968,1,0
252,116,117053,1,0
252,116,117139,5,4
332,108,117310,1,0
396,156,117482,1,8
396,236,117653,1,0
332,284,117825,2,0,B|316:316|256:316|236:352,2,120,0|8|0
404,320,118510,5,0
80,108,118853,1,8
40,180,119025,1,0
120,176,119196,2,0,B|160:164|204:168,2,80,0|0|8
164,244,119710,1,0
164,276,119796,1,0
200,296,119882,2,0,B|363:357|383:196|216:204|275:371,1,320,4|0
356,356,120739,1,0
388,344,120825,1,0
416,328,120910,1,8
452,256,121082,1,0
384,76,121253,5,0
384,156,121425,1,0
259,163,121596,1,8
316,220,121768,1,0
224,305,121939,1,0
304,304,122111,1,0
152,292,122282,6,0,B|116:244|140:168|188:156,1,160,4|4
228,88,122796,1,0
228,88,122882,1,0
228,88,122968,1,8
296,44,123139,1,0
364,88,123310,2,0,B|424:112|484:88,2,120,0|8|0
336,164,123996,2,0,B|300:208|304:272|340:312,1,160,0|8
396,220,124510,2,0,B|356:255|292:259|248:223,1,160
132,140,125025,5,8
96,212,125196,1,0
176,208,125368,1,0
176,128,125539,5,0
68,184,125710,1,8
168,252,125882,1,0
220,144,126053,5,0
76,140,126224,1,0
136,272,126396,1,8
252,184,126568,5,0
328,156,126739,1,4
440,272,127082,1,0
364,300,127253,1,4
64,100,127596,1,0
140,72,127767,1,4
256,192,128110,12,4,129482
124,232,129825,6,0,B|108:192|124:152,1,80,8|0
388,152,130168,2,0,B|404:192|388:232,1,80
344,296,130510,1,8
268,324,130682,1,0
196,288,130853,2,0,B|172:252|180:212,1,80
188,60,131196,2,0,B|212:96|204:136,1,80,8|0
124,156,131539,1,0
256,200,131710,1,0
116,84,131882,1,8
268,272,132053,1,0
336,232,132225,6,0,B|368:208|412:200,1,80
472,248,132568,2,0,B|440:272|396:280,1,80,8|0
356,192,132910,2,0,B|388:168|432:160,1,80
452,288,133253,2,0,B|420:312|376:320,1,80,8|0
300,332,133596,1,0
220,312,133768,1,0
116,212,133939,2,0,B|164:204|192:236,1,80,8|0
388,64,134282,1,0
368,144,134454,1,0
268,248,134625,2,0,B|260:200|292:172,1,80,8|0
300,96,134968,6,0,B|260:48|192:52|156:96,1,160,4|8
228,136,135482,1,0
156,168,135653,2,0,B|108:208|112:280|156:312,1,160,0|8
196,240,136168,1,0
196,240,136253,1,0
196,240,136339,1,0
268,204,136510,2,0,B|308:208|336:244,2,80,0|8|0
420,232,137025,1,0
388,304,137196,1,0
340,87,137368,1,8
360,164,137539,1,0
208,100,137710,6,0,B|168:92|128:104,1,80
168,176,138053,1,8
168,176,138225,1,0
108,228,138396,2,0,B|92:268|108:308,1,80
176,264,138739,1,8
240,216,138910,2,0,B|272:176|348:172|384:216,1,160
420,60,139596,1,0
420,140,139768,1,0
40,312,140110,1,8
36,232,140282,1,0
108,196,140453,6,0,B|148:180|192:188,1,80,4|0
336,144,140796,2,0,B|296:160|252:152,1,80,8|0
188,112,141139,1,0
252,232,141310,1,0
252,232,141396,1,0
252,232,141482,1,8
328,260,141653,6,0,B|332:284|380:300|388:324,2,80
388,204,142168,1,8
388,204,142339,1,0
348,132,142510,1,0
324,112,142596,1,0
292,100,142682,1,0
260,112,142768,1,0
240,136,142853,1,8
160,120,143025,6,0,B|156:160|184:200,1,80
184,276,143368,1,0
184,276,143453,1,0
184,276,143539,1,8
260,248,143710,1,0
340,260,143882,2,0,B|376:284|420:276,1,80
476,220,144225,2,0,B|440:196|396:204,1,80,8|0
351,320,144568,2,0,B|393:311|418:274,1,80
467,161,144910,2,0,B|424:169|399:206,1,80,8|0
400,356,145253,2,0,B|424:320|416:276,1,80
419,127,145596,2,0,B|395:163|403:207,1,80,8|0
232,172,145939,6,0,B|216:132|232:88,2,80,0|0|8
276,240,146453,2,0,B|292:280|276:324,2,80
196,252,146968,1,8
128,212,147139,2,0,B|96:236|84:276,1,80
20,228,147482,1,0
68,164,147653,2,0,B|36:140|24:100,1,80,8|0
104,100,147996,2,0,B|98:60|118:23,1,80
176,80,148339,2,0,B|200:48|240:36,1,80,8|0
408,124,148682,5,0
448,192,148853,1,0
384,240,149025,1,8
340,172,149196,1,0
112,244,149710,6,0,B|92:284|56:312,1,80,8|0
28,232,150053,1,0
80,172,150225,1,0
232,128,150568,1,0
324,260,150910,1,0
456,168,151253,1,0
256,192,151425,12,0,152796
256,192,152882,12,0,154168
256,192,154253,12,4,156910
124,144,157253,5,8
124,144,157425,1,0
220,272,157768,2,0,B|284:216,1,80,0|8
352,180,158110,2,0,B|364:252|320:292|336:348,1,160
412,316,158625,1,8
448,244,158796,1,0
344,40,158968,1,0
396,100,159139,1,0
152,156,159310,1,8
232,140,159482,1,0
88,204,159653,6,0,B|60:264|104:316|72:364,2,160,4|8|0
80,124,160510,1,0
144,76,160682,1,8
224,60,160853,2,0,B|304:56|380:100|408:196|364:292,1,320,0|8
292,256,161710,1,0
296,176,161882,2,0,B|360:120|448:128,1,160,8|0
488,196,162396,5,4
24,188,162739,1,8
92,144,162910,2,0,B|132:124|176:128,1,80
236,172,163253,1,0
464,328,163596,2,0,B|492:292|484:248,1,80,0|0
408,236,163939,1,0
328,224,164110,2,0,B|334:184|373:160,1,80,8|0
452,160,164453,1,0
408,92,164625,2,0,B|364:80|324:100,1,80,0|8
264,140,164968,1,0
256,192,165139,12,0,167539
256,192,167882,6,0,B|256:112,1,80,4|0
256,192,168225,2,0,B|176:192,1,80,8|0
256,192,168568,2,0,B|256:272,1,80
256,192,168910,2,0,B|336:192,1,80,8|0
136,124,169253,6,0,B|192:67,1,80
188,312,169596,2,0,B|131:255,1,80,8|0
376,260,169939,2,0,B|319:316,1,80
324,72,170282,2,0,B|380:128,1,80,8|0
256,192,170625,5,0
448,64,170968,1,8
484,136,171139,1,0
440,200,171310,2,0,B|444:244|460:280,1,80
360,192,171653,2,0,B|356:148|340:112,1,80,8|0
312,88,171910,2,0,B|252:100|192:92,1,120
120,60,172339,1,8
76,128,172510,1,0
112,200,172682,1,0
192,204,172853,2,0,B|208:248|248:264|268:308,2,120,4|4|4
432,192,173710,6,0,B|476:208|492:248,1,80,8|0
416,268,174053,2,0,B|372:252|356:212,1,80
376,136,174396,1,8
300,160,174568,1,0
288,240,174739,2,0,B|280:280|240:304,1,80
192,364,175082,2,0,B|161:337|160:290,1,80,8|0
128,220,175425,2,0,B|166:206|207:229,2,80,0|0|8
92,64,176110,5,0
132,60,176196,1,0
172,64,176282,1,0
212,68,176368,1,0
248,80,176453,1,8
280,104,176539,1,0
304,136,176625,1,0
300,176,176710,1,0
264,192,176796,1,0
228,176,176882,1,0
220,136,176968,1,0
244,104,177053,1,0
284,96,177139,1,8
324,100,177225,1,0
360,120,177310,1,0
388,148,177396,1,0
408,184,177482,5,0
424,220,177568,1,0
432,260,177653,1,0
420,300,177739,1,0
384,320,177825,1,8
344,320,177910,1,0
308,304,177996,1,0
272,288,178082,1,0
236,308,178168,1,0
200,320,178253,1,0
160,308,178339,1,0
136,276,178425,1,0
132,236,178510,2,0,B|104:204|60:196,1,80,8|0
24,84,178853,6,0,B|52:116|96:124,1,80,4|4
296,84,179368,1,4
436,164,179710,1,4
424,324,180053,1,0
424,324,180225,1,4
256,192,188453,12,4,189653
256,192,189996,5,4
256,192,190339,1,4
52,316,190853,1,8
52,236,191025,1,0
112,184,191196,6,0,B|140:148|136:104,2,80,4|0|8
160,248,191710,1,0
160,248,191796,1,0
160,248,191882,1,0
240,256,192053,1,0
316,284,192225,2,0,B|352:304|376:336,1,80,8|0
440,288,192568,5,0
436,208,192739,1,0
324,140,192910,1,8
388,92,193082,1,0
240,172,193253,1,0
208,100,193425,1,0
112,160,193596,1,8
104,80,193768,1,0
60,228,193939,6,0,B|48:268|60:312,2,80,4|0|8
112,160,194453,1,0
112,160,194539,1,0
112,160,194625,1,0
180,204,194796,1,0
132,268,194968,2,0,B|168:288|212:280,1,80,8|0
360,264,195310,2,0,B|324:244|280:252,1,80
248,180,195653,1,8
248,180,195825,1,0
292,112,195996,2,0,B|312:76|352:56,1,80
428,56,196339,1,8
428,56,196510,1,0
460,224,196682,6,0,B|452:264|468:304,2,80,4|0|8
384,200,197196,2,0,B|367:237|331:260,2,80
444,148,197710,1,8
372,112,197882,1,0
372,112,197968,1,0
372,112,198053,1,0
312,168,198225,1,0
236,188,198396,2,0,B|196:196|152:196,1,80,8|0
184,272,198739,2,0,B|192:312|192:356,1,80
120,320,199082,1,8
188,120,199253,1,0
400,128,199425,6,0,B|424:160|432:200,1,80,4|0
388,268,199768,1,8
348,336,199939,2,0,B|272:372|188:352,1,160
120,320,200453,1,8
60,268,200625,1,0
72,188,200796,1,0
148,164,200968,1,0
216,208,201139,1,8
204,288,201310,1,0
204,288,201396,1,0
204,288,201482,1,0
136,244,201653,1,0
136,244,201825,1,8
372,172,202168,6,0,B|396:140|436:128,2,80,4|0|8
324,236,202682,1,0
324,236,202768,1,0
324,236,202853,1,0
312,316,203025,2,0,B|288:348|248:360,2,80,0|8|0
324,236,203539,1,0
296,164,203710,1,0
212,296,203882,1,8
243,225,204053,1,0
80,276,204225,1,0
152,247,204396,1,0
16,141,204568,1,8
88,172,204739,1,0
292,72,204910,6,0,B|320:48|368:44,1,80,4|0
432,92,205253,2,0,B|404:120|356:120,1,80,8|0
288,156,205596,1,0
348,212,205768,1,0
356,244,205853,1,0
348,276,205939,1,8
272,256,206110,2,0,B|256:296|276:336,2,80
192,252,206625,1,8
120,216,206796,1,0
120,216,206882,1,0
120,216,206968,2,0,B|136:176|116:136,2,80,0|0|8
124,296,207482,1,0
56,256,207653,5,4
24,180,207825,1,0
144,128,207996,1,8
175,51,208168,1,0
284,128,208339,1,0
360,95,208511,1,0
396,216,208682,1,8
473,246,208854,1,0
412,296,209025,6,0,B|400:332|364:360,2,80,0|0|8
336,264,209539,1,0
336,264,209625,1,0
336,264,209710,1,0
320,184,209882,1,0
260,236,210053,2,0,B|232:188|252:152,1,80,8|0
80,128,210396,5,4
36,192,210568,1,0
100,240,210739,1,8
144,172,210910,1,0
196,112,211082,1,0
264,72,211253,1,0
296,72,211339,1,0
324,88,211425,1,8
360,160,211596,1,0
436,188,211768,5,0
436,268,211939,1,0
312,296,212110,1,8
364,236,212282,1,0
284,224,212453,1,0
204,229,212625,1,0
171,102,212796,1,8
232,156,212968,1,0
48,212,213139,6,0,B|36:252|48:296,2,80,4|0|8
96,148,213653,1,0
96,148,213739,1,0
96,148,213825,1,0
176,132,213996,1,0
252,156,214168,2,0,B|304:216|296:312,1,160,8|4
228,348,214682,5,0
148,348,214853,1,8
100,284,215025,1,0
100,284,215110,1,0
100,284,215196,1,0
148,220,215368,1,0
228,236,215539,2,0,B|312:216|392:252,1,160,8|4
424,180,216053,5,0
416,100,216225,1,8
352,148,216396,1,0
352,148,216482,1,0
352,148,216568,1,0
340,68,216739,1,0
276,120,216910,1,8
100,192,217253,6,0,B|180:192,1,80,0|0
412,192,217596,2,0,B|332:192,1,80,8|0
256,32,217939,2,0,B|256:112,1,80
256,352,218282,2,0,B|256:272,1,80,8|0
256,192,218625,1,4
