osu file format v9

[General]
AudioFilename: remilia.mp3
AudioLeadIn: 2000
PreviewTime: 55596
Countdown: 0
SampleSet: Soft
StackLeniency: 0.4
Mode: 0
LetterboxInBreaks: 0

[Editor]
Bookmarks: 95196,180225,188453
DistanceSpacing: 1
BeatDivisor: 4
GridSize: 4

[Metadata]
Title:Akashikku Parade
Artist:3L
Creator:Snowy Dream
Version:Remilia
Source:Touhou
Tags:c81 Remilia scarlet Arte Refact Lundlerol yupichiii flandre

[Difficulty]
HPDrainRate:6
CircleSize:4
OverallDifficulty:5
ApproachRate:7
SliderMultiplier:1.6
SliderTickRate:2

[Events]
//Background and Video events
0,0,"BG1.jpg"
//Break Periods
2,11739,21096
2,84425,94296
2,180425,187553
//Storyboard Layer 0 (Background)
//Storyboard Layer 1 (Fail)
//Storyboard Layer 2 (Pass)
//Storyboard Layer 3 (Foreground)
//Storyboard Sound Samples
//Background Colour Transformations
3,100,163,162,255

[TimingPoints]
568,342.857142857143,4,2,1,85,1,0
56796,-100,4,2,1,85,0,1
84225,-100,4,2,1,85,0,0
129482,-100,4,2,1,85,0,1
156910,-100,4,2,1,85,0,0
167882,-100,4,2,1,85,0,1
180225,-100,4,2,1,85,0,0
191196,-100,4,2,1,85,0,1
218625,-100,4,2,1,85,0,0

[Colours]
Combo1 : 234,68,225
Combo2 : 17,219,169
Combo3 : 87,27,245
Combo4 : 245,88,54

[HitObjects]
172,140,568,5,0
132,208,739,1,0
188,268,910,1,0
188,268,1082,1,0
324,184,1425,1,0
396,148,1596,2,0,B|432:132|476:128,2,80
404,228,2110,2,0,B|420:264|424:308,2,80
332,264,2625,2,0,B|296:280|252:284,2,80
324,184,3139,1,0
180,124,3310,6,0,B|152:96|108:84,1,80
44,128,3653,1,0
56,208,3825,1,0
200,276,4168,1,0
276,252,4339,2,0,B|316:240|360:240,2,80
216,200,4853,2,0,B|204:160|204:116,2,80
136,220,5368,2,0,B|96:232|52:232,2,80
124,140,5882,1,0
240,60,6053,5,0
240,60,6225,1,0
312,88,6396,1,0
312,88,6568,1,0
392,76,6739,2,0,B|420:108|424:152,1,80
348,176,7082,2,0,B|351:216|379:248,1,80
452,280,7425,5,0
452,280,7596,1,0
412,348,7768,1,0
412,348,7939,1,0
332,332,8110,2,0,B|292:340|248:332,1,80
176,356,8453,2,0,B|156:320|164:276,1,80
136,204,8796,6,0,B|108:172|104:132,1,80
144,64,9139,2,0,B|172:96|176:136,1,80
32,148,9482,2,0,B|34:105|60:74,1,80
248,124,9825,2,0,B|245:166|219:197,1,80
300,196,10168,6,0,B|320:192|340:192,3,40
380,188,10510,2,0,B|400:188|420:196,3,40
452,216,10853,2,0,B|468:228|476:248,3,40
492,284,11196,2,0,B|500:300|496:324,3,40
484,360,11539,1,4
148,164,21996,5,0
220,132,22168,1,0
296,152,22339,1,0
344,216,22510,2,0,B|360:272|332:336|276:348,1,160,4|0
200,348,23025,1,0
144,292,23196,2,0,B|104:280|60:288,2,80
224,276,23710,2,0,B|308:280|380:312,1,160
456,288,24225,2,0,B|484:256|488:212,1,80
372,108,24739,6,0,B|364:68|372:28,2,80
400,184,25253,1,4
164,232,25768,2,0,B|144:240|132:256,2,40
244,216,26110,1,0
324,216,26282,2,0,B|348:252|352:292,1,80
200,340,26796,2,0,B|204:320|220:304,2,40
196,100,27482,6,0,B|156:84|116:100,2,80
252,156,27996,2,0,B|236:216|280:260|264:320,1,160,4|0
344,332,28510,1,0
344,332,28596,1,0
344,332,28682,1,0
412,292,28853,2,0,B|448:272|488:264,2,80
372,136,29539,2,0,B|376:116|388:100,2,40
80,272,30396,6,0,B|60:284|60:324|36:340,2,80,0|0|4
320,276,31253,2,0,B|340:268|364:272,2,40
244,252,31596,1,0
300,196,31768,1,0
380,200,31939,2,0,B|368:160|452:96|436:56,1,160
356,60,32453,2,0,B|280:32|192:64,1,160
144,120,32968,1,0
120,144,33053,1,0
108,172,33139,1,0
164,232,33310,1,0
232,276,33482,6,0,B|240:316|232:360,1,80
328,228,33996,1,0
360,216,34082,1,0
392,212,34168,1,0
460,168,34339,2,0,B|472:128|464:88,2,80
308,116,35025,2,0,B|272:96,2,40
244,164,35368,1,0
164,152,35539,2,0,B|120:164|100:204,1,80
104,280,35882,2,0,B|148:268|168:228,1,80
244,244,36225,6,0,B|308:260|308:260|296:316|340:352|340:352,1,160
384,284,36739,1,0
384,284,36825,1,0
384,284,36910,1,0
420,212,37082,2,0,B|432:168|464:148,1,80
432,76,37425,2,0,B|360:44|276:72,1,160
196,84,37939,2,0,B|176:124|192:168,1,80
112,172,38282,2,0,B|126:214|168:234,1,80
112,296,38625,2,0,B|152:316|196:300,1,80
240,240,38968,6,0,B|256:188|348:184|372:240,1,160
308,288,39482,1,0
308,288,39568,1,0
308,288,39653,1,0
384,320,39825,2,0,B|408:356|444:376,1,80
464,296,40168,2,0,B|492:216|456:136,1,160
440,64,40682,2,0,B|400:72|376:112,2,80
378,110,41196,6,0,B|354:150|306:162,1,80
236,156,41539,1,0
156,168,41710,2,0,B|72:164|16:236,1,160
80,284,42225,1,0
156,304,42396,2,0,B|172:340|164:388,2,80
232,276,42910,2,0,B|312:304,1,80
368,252,43253,2,0,B|452:244,1,80
420,168,43596,2,0,B|492:116,1,80
440,56,43939,1,0
440,56,44110,1,0
300,128,44453,6,0,B|300:168|280:208,2,80
220,116,44968,1,0
152,160,45139,2,0,B|104:116|40:108,2,120
212,216,45825,1,0
460,248,46339,6,0,B|472:288|468:328,1,80
396,292,46682,2,0,B|384:252|388:212,1,80
452,164,47025,1,0
452,164,47110,1,0
452,164,47196,2,0,B|392:88|304:128|224:168|152:88,1,320
224,52,48053,1,0
224,52,48225,1,0
300,68,48396,1,0
332,144,48568,6,0,B|332:224|272:288,1,160
127,228,49253,2,0,B|207:228|271:288,1,160
344,320,49768,2,0,B|360:336|368:360,2,40,0|0|4
268,336,50110,5,0
192,312,50282,1,0
252,260,50453,1,0
320,220,50625,2,0,B|276:164|204:192,2,120
344,296,51310,2,0,B|396:288|424:216|380:156,1,160
368,88,51825,6,0,B|396:52|440:40,2,80
296,52,52339,1,0
224,88,52510,1,0
148,68,52682,2,0,B|132:108|168:144,1,80
244,164,53025,2,0,B|277:197|261:237,1,80
180,228,53368,2,0,B|176:272|136:292,1,80
100,224,53710,2,0,B|64:248|16:244,1,80
48,164,54053,5,4
172,64,54396,1,0
172,64,54568,1,4
328,104,54910,1,0
328,104,55082,1,4
256,192,55253,12,4,56796
148,88,57139,5,0
128,164,57310,1,0
148,244,57482,2,0,B|104:252|60:232|52:192,2,120
204,188,58168,2,0,B|244:192|276:224,1,80
332,168,58510,2,0,B|357:199|357:244,1,80
300,300,58853,1,0
300,300,58939,1,0
300,300,59025,1,0
376,320,59196,1,0
444,276,59368,1,0
440,196,59539,6,0,B|456:160|496:136,2,80
364,164,60053,1,0
292,196,60225,2,0,B|252:240|180:236,2,120
296,116,60910,6,0,B|304:76|336:48,2,80
292,196,61425,1,0
292,196,61510,1,0
292,196,61596,1,0
300,276,61768,2,0,B|292:316|260:344,2,80
292,196,62282,6,0,B|244:180|176:216|128:196,1,160
164,124,62796,1,0
188,48,62968,2,0,B|148:40|104:56|88:104,2,120
240,108,63653,2,0,B|280:96|320:104,1,80
364,168,63996,2,0,B|324:180|284:172,1,80
208,188,64339,1,0
208,188,64425,1,0
208,188,64510,1,0
256,252,64682,1,0
256,252,64853,1,0
328,284,65025,6,0,B|324:324|344:360,2,80
372,216,65539,2,0,B|416:144|376:64,1,160
296,48,66053,1,0
232,92,66225,2,0,B|203:124|213:166,1,80
268,224,66568,2,0,B|296:191|286:149,1,80
192,240,66910,2,0,B|180:288|124:336|112:380,1,160
40,344,67425,1,0
60,268,67596,1,0
44,188,67768,5,4
44,108,67939,2,0,B|52:68|84:40,2,80
116,140,68453,2,0,B|136:176|176:200|192:240,2,120
164,76,69139,1,0
164,76,69310,1,0
244,92,69482,2,0,B|284:88|320:68,1,80
396,40,69825,2,0,B|416:28|440:24,2,40
388,120,70168,1,0
388,120,70339,1,0
352,192,70510,6,0,B|368:248|340:300|364:360,1,160
432,312,71025,1,0
464,240,71196,2,0,B|500:180|476:120,2,120
384,248,71882,2,0,B|344:236|304:248,1,80
224,248,72225,2,0,B|233:288|263:317,1,80
344,324,72568,1,0
344,324,72653,1,0
344,324,72739,1,0
424,320,72910,1,0
464,252,73082,1,0
432,180,73253,6,0,B|412:120|452:76|428:20,1,160
356,56,73768,1,0
304,116,73939,2,0,B|284:152|292:192,2,80
280,40,74453,2,0,B|216:24|156:56|112:40,1,160
40,40,74968,1,0
40,40,75139,1,0
76,112,75310,2,0,B|64:152|88:192,1,80
160,220,75653,2,0,B|172:180|148:140,1,80
224,112,75996,5,0
264,180,76168,1,0
264,180,76253,1,0
264,180,76339,1,0
344,164,76510,2,0,B|388:128|456:132|488:184,1,160
412,216,77025,1,0
336,240,77196,1,0
396,296,77368,2,0,B|408:336|396:376,1,80
324,340,77710,1,0
244,352,77882,2,0,B|224:360|208:376,2,40
264,272,78225,2,0,B|252:224|272:192,2,80
256,192,78739,12,0,80110
256,192,80196,12,0,81482
256,192,81568,12,4,84225
124,296,95196,5,4
124,296,95368,1,0
112,136,95710,2,0,B|104:96|128:56,2,80
172,188,96225,1,0
232,136,96396,2,0,B|268:172|248:256|192:264,1,160
172,188,96910,2,0,B|136:152|156:68|212:60,1,160
292,80,97425,1,0
332,148,97596,2,0,B|356:184|360:224,1,80
428,264,97939,5,4
276,316,98282,1,0
200,296,98453,1,0
144,240,98625,2,0,B|120:204|128:164,1,80
204,188,98968,1,0
232,112,99139,2,0,B|288:48|384:60,1,160
376,59,99653,1,0
444,292,100168,5,0
444,292,100339,1,0
444,292,100510,1,0
316,332,100682,2,0,B|260:340|200:296|212:232,1,160,4|0
292,248,101196,1,0
256,176,101368,2,0,B|272:136|260:96,2,80
188,132,101882,2,0,B|104:100|32:148,1,160
34,146,102396,1,0
300,324,103081,5,0
300,324,103253,1,0
300,324,103424,2,0,B|280:264|336:208|324:164,1,160,4|0
368,100,103939,2,0,B|380:80|400:72,2,40
288,96,104282,1,0
288,96,104453,1,0
216,136,104625,2,0,B|160:204|212:292,1,160,4|0
208,285,105139,1,0
364,256,105482,5,0
408,188,105653,1,0
408,188,105739,1,0
408,188,105825,1,0
388,112,105996,2,0,B|376:72|344:44,1,80,0|4
264,40,106339,5,0
192,76,106510,2,0,B|176:112|184:156,1,80
260,180,106853,2,0,B|276:236|240:284|264:344,1,160
336,308,107368,1,0
180,280,107710,5,0
108,240,107882,1,0
108,160,108053,2,0,B|108:116|84:84,2,80
176,200,108568,2,0,B|212:180|256:180,1,80
284,108,108910,6,0,B|340:124|352:204|312:244,1,160,4|0
292,320,109425,1,0
368,344,109596,2,0,B|424:320|484:340|524:316,1,160
480,248,110110,2,0,B|464:208|472:168,1,80
484,92,110453,1,0
484,92,110625,1,0
332,136,110968,6,0,B|348:172|344:220,2,80
268,184,111482,1,0
248,260,111653,2,0,B|240:300|264:340,2,80,4|0|0
192,204,112168,1,0
192,204,112253,1,0
192,204,112339,1,0
112,208,112510,2,0,B|84:236|40:248,2,80
224,96,113196,1,0
224,96,113368,1,0
380,128,113710,6,0,B|364:164|388:208,1,80
460,240,114053,2,0,B|476:204|452:160,1,80
448,84,114396,2,0,B|464:44|508:28,2,80
376,52,114910,1,0
376,52,114996,1,0
376,52,115082,1,0
304,88,115253,2,0,B|264:104|240:140,1,80
180,188,115596,6,0,B|140:264|200:348,2,160,4|4|4
328,252,116625,1,4
328,252,116796,1,4
436,136,117139,6,0,B|464:108|504:96,2,80,4|0|0
372,184,117653,1,0
328,252,117825,2,0,B|260:300|172:280,1,160
108,240,118339,1,0
108,240,118510,1,0
200,108,118853,5,0
272,140,119025,2,0,B|328:160|328:232|392:256,1,160
364,172,119539,1,0
296,216,119710,1,0
272,292,119882,2,0,B|220:364|128:376|40:340|16:252,1,320
40,176,120739,1,0
104,132,120910,1,0
184,120,121082,2,0,B|188:96|204:84,2,40
160,196,121425,6,0,B|152:236|176:276,2,80
236,224,121939,2,0,B|258:260|250:300,2,80
288,160,122453,1,0
424,292,122625,6,0,B|464:220,1,80,4|0
392,184,122968,2,0,B|352:112,1,80,0|0
400,48,123310,2,0,B|464:156,2,120
320,48,123996,2,0,B|288:20|240:12|196:36|176:76,1,160
256,100,124510,2,0,B|288:144|260:204|296:256,1,160
372,232,125025,1,0
352,308,125196,1,0
276,332,125368,1,0
132,260,125710,5,0
84,196,125882,1,0
232,132,126225,2,0,B|228:172|248:212,2,80
288,76,126739,5,4
440,128,127082,1,0
468,204,127253,1,4
316,252,127596,1,0
284,324,127768,1,4
256,192,127939,12,4,129482
96,296,129825,6,0,B|100:252|128:224,1,80
208,240,130168,2,0,B|248:184|236:128,2,120
176,312,130853,2,0,B|172:352|192:388,1,80
252,336,131196,2,0,B|277:367|317:378,1,80
328,300,131539,2,0,B|368:304|403:284,1,80
360,216,131882,2,0,B|340:180|348:136,1,80
424,112,132225,6,0,B|396:56|316:52|280:96,1,160,4|0
268,168,132739,1,0
216,228,132910,2,0,B|184:196|180:144|216:104,2,120
296,244,133596,6,0,B|312:280|304:328,1,80
228,308,133939,2,0,B|213:344|174:373,1,80
140,300,134282,2,0,B|104:316|56:308,1,80
92,236,134625,2,0,B|72:200|80:156,1,80
20,104,134968,6,0,B|49:67|129:71|157:127,1,160,4|0
176,204,135482,1,0
228,264,135653,2,0,B|260:232|264:180|228:140,2,120
284,324,136339,6,0,B|320:304|364:312,1,80
420,368,136682,2,0,B|384:388|340:380,1,80
376,236,137025,2,0,B|412:216|456:224,1,80
512,280,137368,2,0,B|476:300|432:292,1,80
300,240,137710,5,0
332,168,137882,2,0,B|352:132|344:84,2,80
268,120,138396,1,0
200,164,138568,1,0
200,164,138653,1,0
200,164,138739,1,0
124,144,138910,6,0,B|116:184|152:224,1,80
224,240,139253,2,0,B|232:280|196:320,1,80
124,300,139596,2,0,B|116:340|152:380,1,80
228,384,139939,1,0
228,384,140025,1,0
228,384,140110,1,0
292,340,140282,1,0
372,348,140453,6,0,B|412:360|452:348,2,80
344,272,140968,1,0
412,228,141139,2,0,B|412:184|444:152|448:112,2,120
340,192,141825,6,0,B|300:172|284:136,1,80
304,60,142168,2,0,B|344:80|360:116,1,80
228,76,142510,1,0
228,76,142596,1,0
228,76,142682,1,0
172,136,142853,2,0,B|168:176|144:212,1,80
76,168,143196,2,0,B|36:200|32:272|72:312,1,160
148,288,143710,1,0
204,344,143882,2,0,B|244:352|288:344,2,80
220,264,144396,6,0,B|232:216|308:196|324:140,1,160
252,104,144910,1,0
252,104,145082,1,0
324,72,145253,2,0,B|356:44|400:36,1,80
424,112,145596,2,0,B|466:114|503:140,1,80
448,200,145939,6,0,B|472:248|440:304|472:368,1,160
388,344,146453,1,0
308,356,146625,2,0,B|308:312|336:284,1,80
364,208,146968,2,0,B|356:164|328:136,2,80
284,208,147482,1,0
284,208,147568,1,0
284,208,147653,1,0
208,236,147825,2,0,B|164:236|128:264,1,80
72,312,148168,1,0
32,160,148339,2,0,B|32:204|60:240,1,80
116,180,148682,1,4
252,92,149025,5,0
252,92,149196,1,0
412,116,149539,1,0
460,180,149710,1,0
460,260,149882,2,0,B|464:300|444:344,2,80
392,216,150396,1,0
312,228,150568,2,0,B|264:244|204:208|152:224,1,160
76,240,151082,2,0,B|36:220|20:176,1,80
256,192,151425,12,0,152796
256,192,152882,12,0,154168
256,192,154253,12,4,156910
112,112,157425,6,0,B|152:184|152:184|224:152|308:180,1,240
372,136,158110,2,0,B|388:176|376:216,2,80
300,96,158625,1,0
220,84,158796,2,0,B|240:24|300:4|360:32,1,160
420,68,159310,2,0,B|460:84|504:72,2,80
300,176,159996,6,0,B|288:228|324:280|304:340,1,160
228,308,160510,1,0
276,244,160682,1,0
356,228,160853,2,0,B|396:180|368:104|304:100,1,160
236,112,161368,1,0
236,112,161539,1,0
164,144,161710,2,0,B|148:88|184:32|248:36,1,160
328,36,162225,1,0
328,36,162396,1,0
412,172,162739,6,0,B|432:208|428:252,2,80
348,220,163253,2,0,B|284:216|240:176|232:120,1,160
312,120,163768,2,0,B|308:184|268:228|212:236,1,160
168,172,164282,2,0,B|132:216|136:280|196:312,1,160
272,308,164796,2,0,B|292:344|288:384,1,80
256,192,165139,12,4,167882
44,332,168568,6,0,B|28:292|44:252,2,80
116,292,169082,2,0,B|164:272|236:304|280:284,1,160
340,240,169596,1,0
412,276,169768,2,0,B|432:312|472:332,2,80
408,196,170282,2,0,B|432:160|424:116,1,80
400,44,170625,1,0
244,72,170968,6,0,B|204:108|204:184|248:224,1,160
320,228,171482,2,0,B|344:264|336:312,1,80
256,292,171825,2,0,B|216:316|132:300|96:328,1,160
20,316,172339,1,0
60,248,172510,2,0,B|52:204|72:172,1,80
144,212,172853,2,0,B|148:176|184:144|196:96,2,120,4|4|4
296,160,173710,6,0,B|364:208|368:304,1,160
288,304,174225,2,0,B|260:332|252:376,1,80
172,360,174568,2,0,B|116:308|116:308|72:324|28:312,1,160
76,236,175082,2,0,B|64:192|72:156,2,80
196,132,175768,1,0
344,72,176110,22,0,B|380:92,3,40
376,132,176453,2,0,B|392:168,3,40
364,196,176796,2,0,B|360:244,3,40
320,228,177139,2,0,B|296:260,3,40
260,240,177482,6,0,B|232:212,3,40
192,216,177825,2,0,B|148:200,3,40
132,236,178168,2,0,B|92:244,3,40
112,280,178510,2,0,B|84:312,3,40
112,280,178853,37,4
112,280,179025,1,4
168,128,179368,1,4
355,147,179710,1,4
244,300,180053,1,4
256,192,180225,5,4
256,192,188453,12,4,189653
112,64,189996,37,4
112,64,190339,1,4
348,116,190853,2,0,B|376:148|384:188,2,80,0|0|4
268,96,191368,5,0
200,136,191539,2,0,B|188:176|196:220,1,80
272,188,191882,2,0,B|276:232|312:264|316:304,2,120
112,184,192739,5,0
36,168,192910,2,0,B|28:128|48:88,1,80
128,104,193253,2,0,B|150:70|193:55,1,80
200,136,193596,2,0,B|240:128|280:148,1,80
284,228,193939,6,0,B|344:232|376:152|356:104,1,160
292,64,194453,2,0,B|276:28|284:-16,2,80
360,20,194968,2,0,B|396:40|416:80,1,80
432,156,195310,2,0,B|424:196|436:236,1,80
492,292,195653,1,0
492,292,195825,1,0
384,368,195996,2,0,B|392:328|380:288,1,80
324,232,196339,1,0
324,232,196511,1,0
296,156,196682,6,0,B|248:172|228:248|272:294,1,160
304,364,197196,1,0
224,352,197368,2,0,B|188:360|140:336|96:352,2,120
188,280,198053,2,0,B|116:240,1,80
168,176,198396,2,0,B|160:96,1,80
236,72,198739,2,0,B|244:152,1,80
312,112,199082,2,0,B|320:192,1,80
384,240,199425,6,0,B|400:280|436:304,2,80
464,224,199939,2,0,B|484:172|440:120|464:64,1,160
388,36,200453,1,0
308,48,200625,2,0,B|280:76|240:88,1,80
160,104,200968,2,0,B|136:136|144:180,1,80
88,236,201310,2,0,B|144:272|208:244|220:188,1,160
288,152,201825,2,0,B|328:164|372:156,1,80
440,128,202168,6,0,B|428:196|464:240|448:296,1,160,4|0
376,312,202682,1,0
296,304,202853,2,0,B|264:276|252:232,2,80
344,240,203368,2,0,B|368:184|348:120|304:96,1,160
232,128,203882,2,0,B|200:152|152:148,1,80
100,92,204225,2,0,B|132:68|180:72,1,80
156,148,204568,2,0,B|124:172|76:168,1,80
24,112,204910,6,0,B|-12:160|4:228|72:252,1,160,4|0
140,252,205425,1,0
100,320,205596,2,0,B|92:360|112:396,2,80
176,348,206110,2,0,B|232:352|280:316|288:248,1,160
236,192,206625,2,0,B|216:156|224:116,2,80
316,180,207139,2,0,B|352:196|372:236,2,80
296,104,207653,6,0,B|320:64|384:64|432:16,1,160
480,80,208168,1,0
412,124,208339,2,0,B|420:164|452:192,2,80
344,168,208853,2,0,B|328:224|280:256|216:248,1,160
160,200,209368,2,0,B|128:172|88:164,2,80
152,280,209882,1,0
80,248,210053,2,0,B|44:264|16:308,1,80
92,340,210396,5,0
172,356,210568,1,0
228,296,210739,1,0
292,248,210910,2,0,B|340:216|340:216|388:248|440:220,1,160
392,152,211425,1,0
392,152,211596,2,0,B|408:116|448:96,2,80
312,144,212110,1,0
232,140,212282,2,0,B|236:96|276:76,2,80
272,208,212796,1,0
272,208,212968,1,0
256,192,213139,12,0,214510
256,192,214596,12,0,215882
256,192,215968,12,4,218625
