osu file format v9

[General]
AudioFilename: remilia.mp3
AudioLeadIn: 2000
PreviewTime: 55596
Countdown: 0
SampleSet: Soft
StackLeniency: 0.4
Mode: 0
LetterboxInBreaks: 0

[Editor]
Bookmarks: 95196,180225,188453
DistanceSpacing: 1.2
BeatDivisor: 4
GridSize: 4

[Metadata]
Title:Akashikku Parade
Artist:3L
Creator:Snowy Dream
Version:Alluring
Source:Touhou
Tags:c81 Remilia scarlet Arte Refact Lundlerol yupichiii flandre

[Difficulty]
HPDrainRate:4
CircleSize:4
OverallDifficulty:4
ApproachRate:5
SliderMultiplier:1.2
SliderTickRate:2

[Events]
//Background and Video events
0,0,"BG1.jpg"
//Break Periods
2,11739,21310
2,84425,93996
2,180425,187253
//Storyboard Layer 0 (Background)
//Storyboard Layer 1 (Fail)
//Storyboard Layer 2 (Pass)
//Storyboard Layer 3 (Foreground)
//Storyboard Sound Samples
//Background Colour Transformations
3,100,163,162,255

[TimingPoints]
568,342.857142857143,4,2,1,85,1,0
56796,-100,4,2,1,85,0,1
84225,-100,4,2,1,85,0,0
129482,-100,4,2,1,85,0,1
156910,-100,4,2,1,85,0,0
167882,-100,4,2,1,85,0,1
180225,-100,4,2,1,85,0,0
191196,-100,4,2,1,85,0,1
218625,-100,4,2,1,85,0,0

[Colours]
Combo1 : 234,68,225
Combo2 : 17,219,169
Combo3 : 87,27,245
Combo4 : 245,88,54

[HitObjects]
192,104,568,5,0
192,104,910,1,2
152,192,1253,2,0,B|144:224|152:260,2,60,0|0|2
248,176,1939,1,0
248,176,2282,1,2
280,268,2625,2,0,B|312:276|348:268,2,60,0|0|2
336,188,3310,5,0
336,188,3653,1,2
424,152,3996,2,0,B|432:120|424:84,2,60,0|0|2
344,100,4682,1,0
344,100,5025,1,2
260,52,5368,2,0,B|228:44|192:52,2,60,0|0|2
232,144,6053,6,0,B|264:180|264:228|228:264,1,120,0|2
164,316,6739,2,0,B|132:280|132:232|168:196,1,120,0|2
140,112,7425,1,0
176,24,7768,1,2
268,52,8110,1,0
232,144,8453,1,2
328,132,8796,6,0,B|360:104|360:104|400:120|448:112,1,120,0|2
504,180,9482,2,0,B|472:208|472:208|432:192|384:200,1,120,0|2
304,224,10168,2,0,B|288:252|288:284,2,60,0|0|2
372,292,10853,2,0,B|380:323|403:345,2,60,0|0|2
468,280,11539,1,4
120,152,22510,6,0,B|120:216,1,60,4|0
200,268,23025,2,0,B|200:208,1,60
280,152,23539,1,2
280,152,23710,2,0,B|332:116|396:136,1,120
394,135,24225,1,2
460,264,24739,6,0,B|476:292|480:324,2,60,0|2|0
416,248,25253,2,0,B|348:240|308:288,1,120,4|2
224,332,25939,1,0
132,304,26282,2,0,B|84:264,1,60,2|0
108,172,26796,2,0,B|156:212,1,60,0|2
276,132,27482,6,0,B|292:104|284:64,2,60,0|2|0
252,176,27996,2,0,B|232:232|260:296,1,120,4|2
340,344,28682,2,0,B|368:360|408:352,2,60,0|0|2
296,360,29196,2,0,B|256:376|212:352|172:364,1,120,4|0
128,372,29710,1,2
56,196,30396,6,0,B|44:164|48:136,2,60,2|0|4
148,228,31082,1,2
240,256,31425,2,0,B|252:288|248:316,2,60,0|0|2
224,212,31939,2,0,B|220:168|264:144|268:100,1,120,4|0
244,60,32453,1,2
160,108,32796,6,0,B|108:136,1,60
148,196,33139,2,0,B|96:224,1,60,2|0
40,176,33482,1,4
92,312,33825,2,0,B|80:340|88:372,1,60,8|0
156,348,34168,2,0,B|184:324|240:328|268:304,1,120,0|8
328,340,34682,2,0,B|348:296|328:252|288:240,1,120
220,244,35196,1,8
252,104,35539,6,0,B|288:48,1,60
340,100,35882,2,0,B|376:44,1,60,8|0
444,52,36225,2,0,B|440:96|472:132|464:176,1,120,0|8
404,212,36739,1,0
332,220,36910,2,0,B|332:260|372:292|420:288,1,120,0|8
480,252,37425,2,0,B|500:280|504:312,1,60
452,356,37768,1,0
452,356,37939,2,0,B|416:368|368:348|328:356,1,120,8|0
188,352,38625,1,8
100,188,38968,6,0,B|68:160|64:104|88:72,2,120,4|8|0
164,220,39825,2,0,B|184:244|184:284,2,60,0|8|0
232,92,40510,1,0
232,92,40682,1,8
376,108,41025,2,0,B|400:168,1,60
464,136,41368,2,0,B|488:196,1,60,8|0
432,236,41710,6,0,B|412:276|440:320|424:356,1,120,0|8
352,352,42225,1,0
284,336,42396,2,0,B|252:344|232:368,2,60,0|0|8
328,276,42910,2,0,B|316:208|264:180,1,120,4|4
140,108,43596,1,4
68,232,43939,2,0,B|60:264|72:300,1,60,4|12
212,288,44453,6,0,B|228:316|228:348,2,60,4|0|8
180,224,44968,1,0
124,180,45139,2,0,B|152:148|200:144|232:176,1,120,0|8
268,236,45653,2,0,B|316:244|384:200|448:224,1,180,0|8
484,284,46339,2,0,B|524:256|524:204|496:164,1,120
440,144,46853,6,0,B|428:112|436:84,2,60,8|0|0
404,284,47539,1,8
320,164,47882,1,0
228,276,48225,1,8
88,236,48568,2,0,B|72:264|80:300,2,60,0|0|8
200,148,49253,2,0,B|216:120|208:84,2,60,0|0|8
64,100,49939,5,4
156,212,50282,1,8
300,236,50625,2,0,B|348:240|384:276,2,90,0|8|0
228,244,51310,2,0,B|188:296|200:364,1,120,0|8
198,356,51825,1,0
96,256,52168,2,0,B|68:244|36:248,2,60,0|8|0
156,212,52682,2,0,B|188:160|172:96,1,120,0|8
116,140,53196,2,0,B|168:172|232:156,1,120
248,84,53710,6,0,B|272:64|304:56,2,60,8|0|4
348,188,54396,1,0
348,188,54568,1,4
236,276,54910,1,0
236,276,55082,1,4
256,192,55425,12,4,56796
84,272,57310,5,0
40,216,57482,2,0,B|20:168|44:120,2,90,0|8|0
112,204,58168,2,0,B|136:184|168:180,1,60
232,212,58510,2,0,B|264:208|286:188,1,60,8|0
312,120,58853,2,0,B|324:88|352:72,2,60,0|0|8
432,200,59539,6,0,B|472:224|472:224|456:256|464:300,1,120,0|8
400,328,60053,1,0
328,332,60225,2,0,B|328:296|348:268|384:256,2,90,0|8|0
256,344,60910,2,0,B|228:352|192:348,1,60
208,276,61253,2,0,B|182:261|159:233,1,60,8|0
224,196,61596,2,0,B|216:168|220:132,1,60
292,148,61939,1,8
412,68,62282,6,0,B|356:40|356:40|304:68|240:48,1,180,4|0
172,32,62968,2,0,B|164:64|176:96|216:116,2,90,0|8|0
100,32,63653,2,0,B|76:52|44:56,1,60
24,124,63996,2,0,B|12:156|16:192,1,60,8|0
72,228,64339,2,0,B|84:260|80:292,2,60,0|0|8
216,204,65025,5,4
336,124,65368,1,8
336,124,65539,2,0,B|392:96|456:120,1,120
492,180,66053,1,8
464,248,66225,2,0,B|480:284|444:332|464:376,2,120,4|4|4
256,192,67425,5,8
256,192,67596,1,0
256,192,67768,2,0,B|232:132|256:72,1,120,4|8
320,44,68282,1,0
388,64,68453,2,0,B|436:80|480:60,2,90,0|8|0
461,261,69482,2,0,B|433:209,1,60,8|0
373,253,69825,2,0,B|345:201,1,60
285,245,70168,2,0,B|257:193,1,60,8|0
184,196,70510,6,0,B|136:232|64:232,1,120,4|8
32,172,71025,1,0
104,168,71196,2,0,B|140:216|140:288,1,120,0|8
72,304,71710,2,0,B|80:340|128:368|172:344,1,120
212,288,72225,2,0,B|252:244,1,60,8|0
304,292,72568,2,0,B|344:248,1,60
400,292,72910,2,0,B|440:248,1,60,8|0
408,184,73253,6,0,B|396:128|468:64|448:4,1,180,4|0
380,24,73939,2,0,B|336:36|288:20,2,90,0|8|0
176,96,74968,2,0,B|168:128|176:160,1,60,8|0
240,128,75310,2,0,B|267:135|290:158,1,60
232,200,75653,2,0,B|211:219|179:228,1,60,8|0
108,212,75996,6,0,B|80:264|108:328,1,120,4|0
176,356,76510,1,0
372,264,77025,2,0,B|400:248|436:248,2,60,8|0|0
300,248,77539,2,0,B|272:192|288:128,1,120
392,32,78225,1,0
460,56,78396,2,0,B|484:76|492:112,2,60,0|0|4
256,192,78910,12,0,80110
256,192,80196,12,0,81482
256,192,81568,12,4,84225
140,144,95196,5,4
140,144,95368,1,0
340,228,95882,2,0,B|384:272|376:344,1,120,0|2
308,360,96396,2,0,B|256:336|256:336|224:348|184:340,1,120,0|0
124,336,96910,1,2
112,120,97425,6,0,B|96:92|72:76,2,60,0|2|0
132,188,97939,2,0,B|128:248|180:300,1,120,4|2
244,276,98453,1,0
304,320,98625,2,0,B|328:280|312:228|272:208,1,120,0|2
208,200,99139,2,0,B|200:128|256:88,1,120
312,60,99653,1,2
452,228,100168,6,0,B|464:256|464:288,2,60,0|2|0
392,188,100682,2,0,B|352:180|308:200|268:192,1,120,4|2
244,260,101196,1,0
176,280,101368,2,0,B|160:308|164:344,2,60,0|0|2
192,208,101882,2,0,B|220:156|196:92,1,120,4|0
144,40,102396,1,2
408,156,103082,6,0,B|400:184|404:216,1,60,2|0
476,232,103425,2,0,B|464:272|420:300|364:280,1,120,4|2
328,232,103939,1,0
260,256,104110,2,0,B|252:284|260:320,2,60,0|0|2
272,184,104625,2,0,B|256:148|284:96|268:60,1,120,4|0
270,65,105139,1,2
132,104,105482,6,0,B|120:132|128:164,2,60,0|0|2
196,68,105996,1,0
270,65,106168,2,0,B|332:84|396:60,1,120,4|8
456,40,106682,1,0
452,112,106853,2,0,B|492:164|456:232,1,120,0|8
404,272,107368,2,0,B|392:304|400:332,2,60
384,204,107882,1,8
252,148,108225,1,0
236,76,108396,1,0
164,88,108568,1,8
176,160,108739,1,0
176,160,108910,6,0,B|156:216|88:240,1,120,4|8
36,284,109425,1,0
28,212,109596,2,0,B|8:168|40:112|32:84,1,120,0|8
92,52,110110,2,0,B|120:24|168:16|208:24,1,120
276,36,110625,1,8
388,128,110968,1,0
340,264,111310,1,8
200,304,111653,6,0,B|164:248|192:184,1,120,4|8
244,144,112168,1,0
300,100,112339,2,0,B|320:72|320:40,2,60,0|0|8
316,172,112853,2,0,B|340:228|404:248,1,120,0|0
468,216,113368,2,0,B|488:264|460:312|416:316,1,120,8|0
288,352,114053,1,8
156,300,114396,6,0,B|100:264|96:192,1,120,4|8
132,136,114910,1,0
92,76,115082,2,0,B|68:56|36:48,2,60,0|0|8
164,72,115596,2,0,B|220:56,1,60,4|0
244,124,115939,2,0,B|300:108,1,60,4|0
332,172,116282,2,0,B|388:156,1,60,4|0
469,207,116625,2,0,B|412:224,1,60,4|12
292,304,117139,6,0,B|296:336|288:364,2,60,0|0|8
236,256,117653,1,0
176,216,117825,2,0,B|132:184|148:124,2,90,0|8|0
216,156,118510,1,0
420,80,119025,6,0,B|484:112,2,60
348,68,119539,1,8
348,68,119710,1,0
280,96,119882,2,0,B|260:156|300:212,1,120,4|8
416,292,120568,2,0,B|436:232|396:176,1,120,0|8
300,284,121253,2,0,B|288:312|260:332,2,60,0|0|8
156,260,121939,2,0,B|127:271|93:265,2,60,0|0|8
128,120,122625,5,4
260,64,122968,1,8
396,112,123310,2,0,B|424:152|424:200,2,90,0|8|0
332,148,123996,2,0,B|324:188|288:228|296:276,1,120,0|8
240,308,124510,6,0,B|192:344|116:332,1,120
76,280,125025,2,0,B|48:264|20:260,2,60,8|0|0
168,168,125710,1,8
168,168,125882,1,0
312,148,126225,2,0,B|344:148|372:164,2,60,0|8|0
240,132,126739,5,4
316,256,127082,1,0
316,256,127253,1,4
172,264,127596,1,0
172,264,127768,1,4
256,192,128110,12,4,129482
92,144,129996,5,0
92,144,130168,2,0,B|80:116|88:80,2,60,0|0|8
140,200,130682,2,0,B|168:260|144:320,1,120
84,356,131196,1,8
224,320,131539,1,0
368,344,131882,2,0,B|364:317|344:289,1,60,8|0
292,240,132225,6,0,B|272:200|272:200|300:172|288:128,1,120,4|8
352,92,132739,1,0
416,128,132910,2,0,B|440:88|416:32|372:24,1,120,0|8
312,28,133425,1,0
172,60,133768,6,0,B|143:71|121:99,2,60,0|8|0
191,130,134282,2,0,B|179:157|182:193,1,60
256,178,134625,2,0,B|267:206|295:228,1,60,8|0
340,172,134968,6,0,B|392:216|376:292|424:336,1,180,4|0
444,264,135653,2,0,B|380:252|328:300,1,120,0|8
272,336,136168,2,0,B|216:364|152:340,1,120
108,288,136682,2,0,B|88:260|60:248,2,60,8|0|0
176,264,137196,2,0,B|184:232|212:212,1,60,0|8
276,192,137539,1,0
348,196,137710,6,0,B|368:216|404:212|404:212|424:236|456:240,1,120,4|8
460,168,138225,2,0,B|420:168|380:212|372:264|396:312,1,180,0|8
464,316,138910,1,0
320,292,139253,1,0
180,332,139596,1,0
96,216,139939,5,0
68,148,140110,2,0,B|56:120|64:88,1,60,8|0
132,108,140453,2,0,B|152:76|208:52|264:68|296:104,1,180,4|0
260,164,141139,2,0,B|252:212|276:256,2,90,0|8|0
332,164,141825,1,0
432,60,142168,5,8
448,204,142510,2,0,B|452:236|468:264,2,60,0|0|8
356,92,143196,2,0,B|300:84|264:108|244:160|276:212,1,180,4|0
332,164,143882,2,0,B|348:196|344:232|324:260,2,90,0|8|0
404,148,144568,1,0
448,284,144910,1,8
312,324,145253,2,0,B|284:336|264:368,2,60,0|0|8
180,268,145939,6,0,B|132:232|128:144|180:104,1,180,4|0
232,152,146625,2,0,B|195:199|108:203|68:152,1,180,2|0
36,296,147482,2,0,B|24:326|36:354,2,60,0|8|0
104,320,147996,2,0,B|132:304|148:276,1,60
208,240,148339,2,0,B|244:236|272:256,1,60,8|0
328,288,148682,6,0,B|336:316|324:348,2,60,4|0|8
328,216,149196,2,0,B|328:180|380:152|384:104,1,120
444,68,149710,2,0,B|468:96|460:128,2,60,8|0|4
380,32,150225,2,0,B|332:24|292:48|248:48,1,120,0|0
180,164,150910,2,0,B|168:192|172:224,2,60,0|8|0
256,192,151425,12,0,152796
256,192,152882,12,0,154168
256,192,154253,12,4,156910
136,192,157425,6,0,B|160:256|216:284|292:284|348:256|376:192,1,300,2|0
256,116,158625,2,0,B|256:52,2,60,8|0|0
256,116,159139,1,0
200,164,159310,2,0,B|232:200|280:199|312:164,1,120,8|4
424,88,159996,5,8
484,220,160339,2,0,B|496:252|488:288,2,60,0|0|8
420,252,160853,2,0,B|376:212|304:216|304:216,1,120,4|0
240,240,161368,1,8
168,232,161539,2,0,B|144:288,1,60,0|0
178,352,161882,2,0,B|134:372|90:352|74:308,1,120,4|0
80,244,162396,1,4
136,112,162739,6,0,B|136:80|120:56,2,60,8|0|0
108,180,163253,1,0
236,112,163596,2,0,B|256:72|296:40|352:44|392:64,1,180,4|8
456,96,164282,2,0,B|440:152|476:212,2,120,2|0|0
256,192,165139,12,4,167882
144,296,168225,5,8
140,152,168568,2,0,B|120:124|92:116,2,60,0|0|8
196,196,169082,2,0,B|220:216|244:232|244:232|308:216|368:236,1,180,4|8
400,296,169768,2,0,B|440:272|444:224|416:184,1,120
356,156,170282,2,0,B|364:124|360:92,2,60,8|0|4
236,72,170968,5,8
108,140,171310,2,0,B|100:172|112:204,1,60
180,224,171653,2,0,B|188:192|176:160,1,60,8|0
164,92,171996,1,0
292,160,172339,1,8
416,84,172682,1,0
416,84,172853,6,0,B|444:40|488:32,2,90,4|4|4
416,228,173710,1,8
288,292,174053,2,0,B|248:336|176:332,1,120,0|8
108,316,174568,2,0,B|68:264|84:196,1,120
100,132,175082,2,0,B|116:104|116:76,2,60,8|0|0
180,252,175768,1,8
256,192,176110,12,4,180225
256,192,188453,12,4,191196
108,256,191710,5,0
80,188,191882,2,0,B|60:144|72:100,2,90,0|8|0
152,196,192568,2,0,B|172:172|204:160,1,60
228,228,192910,2,0,B|257:217|291:222,1,60,8|0
296,292,193253,2,0,B|326:297|353:319,2,60,0|0|8
152,280,193939,6,0,B|144:220|184:160|256:148,1,180,4|0
320,140,194625,2,0,B|336:112|368:108|384:80,2,90,0|8|0
296,208,195310,2,0,B|284:240|296:272,1,60
360,300,195653,2,0,B|372:268|360:236,1,60,8|0
164,284,195996,2,0,B|152:316|164:348,1,60
228,376,196339,2,0,B|240:344|228:312,1,60,8|0
224,244,196682,6,0,B|216:180|144:148|136:88,1,180,4|0
84,40,197368,2,0,B|52:76|68:124,2,90,0|8|0
152,20,198053,2,0,B|184:16|216:24,1,60
260,76,198396,1,8
260,76,198568,1,0
332,88,198739,2,0,B|348:120|344:156,1,60
316,212,199082,1,8
316,212,199253,1,0
288,280,199425,6,0,B|280:312|288:340,2,60,4|0|8
360,276,199939,2,0,B|380:232|472:208|492:148,1,180,0|8
440,100,200625,2,0,B|384:68|324:104,2,120,4|4|4
228,140,201825,6,0,B|220:168|232:200,2,60,8|0|4
252,72,202339,1,0
180,80,202510,2,0,B|156:64|120:60,1,60,8|0
52,68,202853,2,0,B|28:84|16:120,1,60
64,172,203196,1,8
128,204,203368,6,0,B|124:260|40:304|40:368,1,180,0|8
112,368,204053,1,0
172,328,204225,2,0,B|204:320|232:324,1,60,0|0
296,352,204568,2,0,B|324:356|356:348,1,60,8|0
352,276,204910,2,0,B|336:192|336:192|424:172|444:88,1,240,4|0
376,64,205768,2,0,B|352:44|340:16,2,60,0|8|0
236,92,206453,5,0
188,148,206625,2,0,B|180:176|192:208,1,60,8|0
260,236,206968,2,0,B|268:208|256:176,1,60
308,124,207310,2,0,B|340:112|372:116,1,60,8|0
420,164,207653,6,0,B|460:212|456:284,1,120,4|8
392,304,208168,1,0
320,292,208339,2,0,B|300:316|296:352,2,60,0|0|8
360,232,208853,2,0,B|328:196|280:184|232:200|200:240,1,180,4|8
156,292,209539,1,0
84,288,209710,2,0,B|64:312|64:348,2,60,0|0|8
56,148,210396,5,4
56,148,210568,1,0
56,148,210739,1,8
56,148,210910,2,0,B|116:176|176:148,1,120
224,100,211425,1,8
288,72,211596,2,0,B|344:45|404:73,1,120
460,120,212110,2,0,B|472:148|468:180,2,60,8|0|0
392,144,212625,1,0
256,192,212968,6,0,B|256:252,1,60,0|4
256,192,213310,12,0,214510
256,192,214596,12,0,215882
256,192,215968,12,4,218625
