osu file format v12

[General]
AudioFilename: Yuzuki YukariI Died To Someone's SongEnglish - Romaji - Translation.mp3
AudioLeadIn: 0
PreviewTime: 127687
Countdown: 0
SampleSet: Normal
StackLeniency: 0.7
Mode: 0
LetterboxInBreaks: 0
CountdownOffset: 1
WidescreenStoryboard: 1

[Editor]
Bookmarks: 14354,27687
DistanceSpacing: 1.7
BeatDivisor: 4
GridSize: 4
TimelineZoom: 1.5

[Metadata]
Title:Dareka no Uta de Boku ga Shinu
TitleUnicode:誰かの歌で僕が死ぬ
Artist:36g
ArtistUnicode:36g
Creator:MeatloafCereal
Version:Insane
Source:
Tags:Yuzuki Yukari vocaloid I Died To Someone's Song
BeatmapID:429739
BeatmapSetID:178658

[Difficulty]
HPDrainRate:7
CircleSize:4
OverallDifficulty:7
ApproachRate:9
SliderMultiplier:1.7
SliderTickRate:2

[Events]
//Background and Video events
0,0,"Yuzuki.Yukari.full.1533100.jpg",0,0
//Break Periods
//Storyboard Layer 0 (Background)
//Storyboard Layer 1 (Fail)
//Storyboard Layer 2 (Pass)
//Storyboard Layer 3 (Foreground)
//Storyboard Sound Samples
//Background Colour Transformations
3,100,163,162,255

[TimingPoints]
1021,416.666666666667,4,1,1,70,1,0
14354,-83.3333333333333,4,1,1,70,0,0
16854,-133.333333333333,4,3,1,70,0,0
17687,-83.3333333333333,4,1,1,70,0,0
21021,-83.3333333333333,4,1,1,70,0,0
23521,-133.333333333333,4,3,0,70,0,0
24250,-83.3333333333333,4,1,1,70,0,0
27479,-125,4,2,1,70,0,0
30396,-133.333333333333,4,1,1,70,0,0
30604,-125,4,2,1,70,0,0
33521,-133.333333333333,4,3,0,70,0,0
33937,-133.333333333333,4,3,0,70,0,0
34354,-111.111111111111,4,2,1,70,0,0
38729,-100,4,3,0,70,0,0
39146,-100,4,2,0,70,0,0
41021,-83.3333333333333,4,1,1,70,0,1
43312,-100,4,3,0,70,0,1
44354,-83.3333333333333,4,1,1,70,0,1
54354,-100,4,1,1,70,0,0
66021,-100,4,2,0,70,0,0
67687,-100,4,1,1,70,0,0
79354,-133.333333333333,4,2,0,70,0,0
81021,-76.9230769230769,4,1,1,70,0,1
90396,-76.9230769230769,4,1,1,55,0,1
91021,-76.9230769230769,4,1,1,80,0,1
92062,-76.9230769230769,4,1,1,85,0,1
93104,-76.9230769230769,4,1,1,100,0,1
94354,-83.3333333333333,4,1,1,70,0,0
96853,-83.3333333333333,4,3,0,70,0,0
97687,-83.3333333333333,4,1,1,70,0,0
126854,-83.3333333333333,4,1,1,70,0,0
127687,-83.3333333333333,4,1,1,70,0,1
130187,-83.3333333333333,4,3,0,70,0,1
131021,-83.3333333333333,4,1,1,70,0,1
136854,-133.333333333333,4,3,0,70,0,1
137687,-83.3333333333333,4,1,1,70,0,1
140187,-83.3333333333333,4,1,1,70,0,0
143521,-133.333333333333,4,1,1,70,0,0
143937,-83.3333333333333,4,1,1,70,0,0
153521,-133.333333333333,4,1,1,70,0,0

[Colours]
Combo1 : 94,226,255
Combo2 : 198,0,255
Combo3 : 0,72,255

[HitObjects]
256,300,1021,6,0,P|300:224|384:212,1,170
440,288,1646,1,0,0:0:0:0:
336,112,1854,2,0,B|256:84|256:84|176:112,1,170
100,184,2479,1,0,0:0:0:0:
196,216,2687,2,0,P|208:296|132:340,1,170
100,184,3312,2,0,L|148:100,1,85
480,68,3937,1,0,0:0:0:0:
100,184,4354,6,0,P|136:116|76:40,1,170
272,92,4979,1,0,0:0:0:0:
360,140,5187,2,0,L|456:132,1,85
324,212,5604,2,0,L|228:220,1,85
64,112,6021,2,0,L|-24:96,1,85
156,224,6437,1,0,0:0:0:0:
208,88,6646,1,0,0:0:0:0:
224,80,6750,1,0,0:0:0:0:
240,76,6854,1,0,0:0:0:0:
444,180,7062,5,0,0:0:0:0:
444,180,7271,1,0,0:0:0:0:
304,288,7479,2,0,L|296:340,1,42.5
244,224,7687,2,0,L|252:168,1,42.5
260,168,7896,1,0,0:0:0:0:
108,200,8104,1,0,0:0:0:0:
160,64,8312,1,0,0:0:0:0:
280,152,8521,6,0,P|364:136|444:156,1,170
332,328,9146,1,0,0:0:0:0:
192,300,9354,2,0,P|184:244|192:188,1,85
276,72,9771,1,0,0:0:0:0:
140,116,9979,1,0,0:0:0:0:
92,208,10187,2,0,P|104:276|164:312,1,127.5
268,168,10604,2,0,P|204:136|128:160,1,127.5
264,292,11021,1,0,0:0:0:0:
356,248,11229,1,0,0:0:0:0:
384,148,11437,6,0,P|360:76|264:36,1,170
224,228,12062,1,0,0:0:0:0:
56,92,12271,1,0,0:0:0:0:
288,136,12479,1,0,0:0:0:0:
256,192,12583,12,0,13937,0:0:0:0:
112,156,14354,6,0,P|56:148|-4:156,1,101.999996887207
172,216,14771,1,0,0:0:0:0:
216,104,14979,1,0,0:0:0:0:
68,288,15187,2,0,B|168:308|168:308|252:284|264:240,1,203.999993774414
132,60,15812,5,0,0:0:0:0:
256,260,16021,2,0,L|328:340,1,101.999996887207
148,224,16437,1,0,0:0:0:0:
68,344,16646,1,0,0:0:0:0:
276,180,16854,2,8,P|276:104|256:52,1,127.500004863739
384,256,17479,5,0,0:0:0:0:
396,244,17583,1,0,0:0:0:0:
408,228,17687,2,0,P|408:152|400:112,1,101.999996887207
236,84,18104,1,0,0:0:0:0:
408,108,18312,1,0,0:0:0:0:
224,108,18521,2,0,L|104:152,1,101.999996887207
424,128,18937,6,0,L|436:256,1,101.999996887207
192,228,19354,2,0,L|220:116,1,101.999996887207
256,316,19771,2,0,B|280:304|280:304|296:312|296:312|312:304|312:304|360:316|424:296,1,152.999995330811
432,232,20187,2,0,L|408:156,1,50.9999984436036
316,72,20396,2,0,L|344:144,1,50.9999984436036
336,280,20604,2,0,L|312:204,1,50.9999984436036
216,120,20813,2,0,L|244:192,1,50.9999984436036
192,312,21021,6,0,L|164:196,1,101.999996887207
48,188,21437,1,0,0:0:0:0:
88,312,21646,1,0,0:0:0:0:
36,176,21854,2,0,L|64:60,1,101.999996887207
196,184,22271,1,0,0:0:0:0:
88,316,22479,1,0,0:0:0:0:
208,168,22687,6,0,L|240:56,1,101.999996887207
256,60,23000,1,0,0:0:0:0:
276,52,23104,1,0,0:0:0:0:
396,60,23312,1,0,0:0:0:0:
184,256,23521,2,0,P|152:264|88:248,1,95.6250036478044
328,256,23937,2,0,P|360:248|424:264,1,95.6250036478044
256,216,24354,6,0,P|248:124|336:64,1,203.999993774414
380,232,24979,1,0,0:0:0:0:
272,288,25187,2,0,L|168:296,1,101.999996887207
440,164,25604,1,0,0:0:0:0:
440,304,25812,1,0,0:0:0:0:
304,196,26021,6,0,L|288:84,1,101.999996887207
272,88,26333,1,0,0:0:0:0:
252,84,26437,1,0,0:0:0:0:
456,156,26646,1,0,0:0:0:0:
264,308,26854,2,0,P|220:336|164:336,1,101.999996887207
360,284,27271,2,0,P|406:307|435:355,1,101.999996887207
288,220,27687,6,0,L|192:208,1,68
112,108,28104,1,0,0:0:0:0:
228,120,28312,1,0,0:0:0:0:
192,288,28521,2,0,L|184:336,1,34
120,216,28729,2,0,L|132:160,1,34
248,112,28937,2,0,B|312:104|312:104|376:112,1,102
380,120,29354,1,0,0:0:0:0:
496,212,29562,5,0,0:0:0:0:
400,68,29771,2,0,L|420:0,2,68
364,160,30604,1,0,0:0:0:0:
420,244,31021,6,0,L|444:316,1,68
364,160,31437,2,0,L|444:152,1,68
324,252,31854,2,0,L|284:256,1,34
200,188,32062,2,0,L|233:184,1,34
152,272,32271,2,0,P|112:220|108:160,1,102
108,152,32687,1,0,0:0:0:0:
128,60,32896,1,0,0:0:0:0:
220,80,33104,2,0,L|304:68,1,68
400,192,33521,6,8,L|460:208,1,31.8750012159348
328,260,33729,2,8,L|268:244,1,31.8750012159348
252,136,33937,2,8,L|236:76,1,31.8750012159348
184,208,34145,2,8,L|200:268,1,31.8750012159348
292,344,34354,6,0,L|380:340,1,76.4999976654053
148,292,34771,2,0,B|128:304|128:304|104:292|104:292|48:308|-4:288,1,152.999995330811,0|0,0:0|0:0,0:0:0:0:
120,136,35396,2,0,L|188:144,1,38.2499988327027
204,168,35604,2,0,P|244:144|260:96,1,76.4999976654053
356,76,36021,5,0,0:0:0:0:
444,136,36229,1,0,0:0:0:0:
452,28,36437,1,0,0:0:0:0:
364,164,36646,1,0,0:0:0:0:
296,248,36854,2,0,B|284:300|280:324|280:324|320:364,1,114.749996498108
472,276,37271,2,0,B|424:244|412:220|412:220|360:216,1,114.749996498108
204,268,37687,6,0,B|144:288|144:288|36:264,1,152.999995330811
88,164,38312,1,0,0:0:0:0:
48,64,38521,1,0,0:0:0:0:
212,96,38729,6,0,L|248:92,4,21.25,4|4|4|4|4,0:0|0:0|0:0|0:0|0:0,0:0:0:0:
164,152,41021,6,0,L|60:120,1,101.999996887207
268,140,41437,1,0,0:0:0:0:
220,268,41646,1,0,0:0:0:0:
200,276,41750,1,0,0:0:0:0:
180,284,41854,2,0,L|80:248,1,101.999996887207
168,56,42271,1,0,0:0:0:0:
288,220,42479,2,0,L|308:328,1,101.999996887207
424,184,42896,5,0,0:0:0:0:
324,116,43104,2,0,P|256:104|188:132,1,101.999996887207,0|8,0:0|0:0,0:0:0:0:
312,288,43521,2,8,B|360:288|392:260|392:260|392:204|436:180,1,170
200,108,44354,5,0,0:0:0:0:
184,96,44458,1,0,0:0:0:0:
168,84,44562,1,0,0:0:0:0:
0,132,44771,1,0,0:0:0:0:
208,184,44979,1,0,0:0:0:0:
36,212,45187,1,0,0:0:0:0:
108,52,45396,1,0,0:0:0:0:
136,260,45604,2,0,L|148:364,1,101.999996887207
36,212,46021,6,0,L|128:160,1,101.999996887207
292,112,46437,1,0,0:0:0:0:
308,124,46541,1,0,0:0:0:0:
324,136,46646,2,0,L|440:176,1,101.999996887207
264,256,47062,1,0,0:0:0:0:
244,264,47166,1,0,0:0:0:0:
224,272,47271,1,0,0:0:0:0:
204,280,47375,1,0,0:0:0:0:
188,288,47479,1,0,0:0:0:0:
168,296,47583,1,0,0:0:0:0:
148,300,47687,6,0,P|132:240|148:148,1,152.999995330811
164,140,48104,2,0,P|113:144|65:126,1,101.999996887207
272,104,48521,1,0,0:0:0:0:
424,216,48729,1,0,0:0:0:0:
360,80,48937,1,0,0:0:0:0:
348,252,49146,6,0,L|328:360,1,101.999996887207
240,204,49562,2,0,L|260:96,1,101.999996887207
272,88,49875,1,0,0:0:0:0:
284,72,49979,2,0,B|328:44|328:44|404:36,1,101.999996887207
388,48,50604,5,0,0:0:0:0:
428,172,51021,6,0,L|428:240,1,50.9999984436036
344,200,51229,2,0,L|328:256,1,50.9999984436036
256,204,51437,2,0,L|216:264,1,50.9999984436036
152,204,51646,6,0,P|80:212|12:208,1,101.999996887207
232,264,52062,1,0,0:0:0:0:
160,112,52271,1,0,0:0:0:0:
100,348,52479,6,0,L|216:336,1,101.999996887207
384,312,52896,1,0,0:0:0:0:
392,292,53000,1,0,0:0:0:0:
392,272,53104,1,0,0:0:0:0:
388,252,53208,1,0,0:0:0:0:
380,232,53312,1,0,0:0:0:0:
296,140,53521,1,0,0:0:0:0:
136,76,53729,1,0,0:0:0:0:
316,168,53937,1,0,0:0:0:0:
312,168,54354,6,0,P|404:188|488:168,2,170
228,108,55396,1,0,0:0:0:0:
56,224,55604,1,0,0:0:0:0:
204,308,55812,2,0,L|260:304,1,42.5
328,240,56021,2,0,L|216:228,1,85
140,248,56333,2,0,L|108:282,1,42.5
107,167,56541,2,0,L|36:181,2,42.5
124,160,56854,2,0,P|176:164|216:160,1,85
424,192,57271,1,0,0:0:0:0:
344,40,57479,1,0,0:0:0:0:
288,240,57687,6,0,P|288:316|380:348,1,170
240,132,58312,1,0,0:0:0:0:
228,120,58416,1,0,0:0:0:0:
216,108,58521,2,0,B|180:96|180:96|120:124|36:96,1,170
40,240,59146,5,0,0:0:0:0:
64,88,59354,1,0,0:0:0:0:
192,328,59562,1,0,0:0:0:0:
176,336,59666,1,0,0:0:0:0:
160,344,59771,1,0,0:0:0:0:
280,144,59979,1,0,0:0:0:0:
292,132,60083,1,0,0:0:0:0:
304,120,60187,2,0,L|396:88,1,85
344,324,60604,1,0,0:0:0:0:
176,132,60812,5,0,0:0:0:0:
280,144,61021,2,0,P|360:112|344:32,1,170
212,220,61646,1,0,0:0:0:0:
112,232,61854,2,0,L|16:216,1,85
48,76,62271,1,0,0:0:0:0:
48,76,62375,1,0,0:0:0:0:
48,76,62479,1,0,0:0:0:0:
212,220,62687,6,0,L|264:280,3,42.5
308,296,63104,2,0,L|352:280,3,42.5
432,296,63521,1,0,0:0:0:0:
280,52,63729,2,0,L|260:4,1,42.5
208,88,63937,2,0,L|232:144,1,42.5
120,132,64146,6,0,P|76:124|48:128,1,42.5
64,128,64354,2,0,P|40:216|52:304,1,170
252,224,64979,2,0,P|256:168|240:124,1,85
264,132,65291,1,0,0:0:0:0:
280,124,65396,1,0,0:0:0:0:
256,304,65604,2,0,B|212:296|212:296|168:264,1,85
96,136,67687,6,0,L|156:120,1,42.5
216,180,67896,2,0,L|156:196,1,42.5
212,104,68104,2,0,L|272:88,1,42.5
308,160,68312,1,0,0:0:0:0:
448,120,68521,5,0,0:0:0:0:
376,332,68729,1,0,0:0:0:0:
360,336,68833,1,0,0:0:0:0:
344,340,68937,1,0,0:0:0:0:
180,272,69146,1,0,0:0:0:0:
16,136,69354,5,0,0:0:0:0:
8,120,69458,1,0,0:0:0:0:
0,104,69562,1,0,0:0:0:0:
132,168,69771,5,0,0:0:0:0:
116,176,69875,1,0,0:0:0:0:
100,184,69979,1,0,0:0:0:0:
84,192,70083,1,0,0:0:0:0:
68,200,70187,2,0,L|24:292,1,85
228,180,70604,5,0,0:0:0:0:
296,336,70812,1,0,0:0:0:0:
400,152,71021,2,0,P|380:72|280:32,1,170
228,180,71646,1,0,0:0:0:0:
307,352,71854,2,0,P|379:312|400:232,1,170
336,152,72479,1,0,0:0:0:0:
244,196,72687,2,0,P|168:220|100:212,1,127.5
104,212,73104,2,0,P|108:268|76:344,1,127.5
68,340,73521,1,0,0:0:0:0:
380,244,73937,5,0,0:0:0:0:
468,128,74146,1,0,0:0:0:0:
276,160,74354,6,0,L|228:152,1,42.5
328,104,74562,2,0,L|376:120,1,42.5
380,244,74771,2,0,B|380:276|380:276|366:302|366:326,1,85
352,332,75083,1,0,0:0:0:0:
336,336,75187,1,0,0:0:0:0:
172,256,75396,6,0,L|200:208,1,42.5
128,122,75604,2,0,L|96:96,1,42.5
210,90,75812,2,0,L|208:48,1,42.5,0|0,0:0|0:0,0:0:0:0:
304,48,76021,6,0,L|300:108,1,42.5
416,96,76229,2,0,L|372:132,1,42.5
432,220,76437,2,0,L|360:200,1,42.5
344,292,76646,6,0,L|280:312,1,42.5
188,220,76854,2,0,P|232:228|288:224,1,85
444,112,77271,1,0,0:0:0:0:
348,76,77479,1,0,0:0:0:0:
248,96,77687,6,0,B|152:120|152:120|104:120|52:100,2,170
344,152,78729,1,0,0:0:0:0:
340,264,78937,1,0,0:0:0:0:
244,316,79146,1,0,0:0:0:0:
128,296,79354,2,0,B|120:272|124:236|124:236|144:176,1,95.6250036478044
144,192,79771,2,0,P|140:108|120:76,1,95.6250036478044
124,92,80187,1,0,0:0:0:0:
244,316,80396,1,0,0:0:0:0:
244,316,80500,1,0,0:0:0:0:
244,316,80604,1,0,0:0:0:0:
380,176,81021,6,0,L|332:72,1,110.499994941712
312,264,81437,2,0,L|436:292,1,110.499994941712
272,172,81854,2,0,L|180:256,1,110.499994941712
180,268,82166,1,0,0:0:0:0:
172,288,82271,1,0,0:0:0:0:
52,120,82479,5,0,0:0:0:0:
160,40,82687,2,0,P|212:88|220:140,1,110.499994941712
216,148,83000,1,0,0:0:0:0:
212,168,83104,2,0,P|229:219|272:252,1,110.499994941712
296,260,83416,1,0,0:0:0:0:
316,264,83521,1,0,0:0:0:0:
336,268,83625,1,0,0:0:0:0:
356,272,83729,1,0,0:0:0:0:
440,108,83937,1,0,0:0:0:0:
292,48,84146,5,0,0:0:0:0:
272,60,84250,1,0,0:0:0:0:
252,72,84354,2,0,P|256:124|300:172,1,110.499994941712
160,144,84771,2,0,L|40:192,1,110.499994941712
244,212,85187,2,0,L|252:96,1,110.499994941712
124,64,85604,1,0,0:0:0:0:
200,352,85812,6,0,P|268:324|312:328,1,110.499994941712
316,308,86125,1,0,0:0:0:0:
328,288,86229,1,0,0:0:0:0:
340,268,86333,1,0,0:0:0:0:
348,248,86437,2,0,L|304:144,1,110.499994941712
80,88,86854,1,0,0:0:0:0:
72,108,86958,1,0,0:0:0:0:
64,128,87062,1,0,0:0:0:0:
56,148,87166,1,0,0:0:0:0:
48,168,87271,2,0,L|96:272,1,110.499994941712
292,164,87687,6,0,P|344:136|404:128,1,110.499994941712
268,268,88104,2,0,P|216:244|184:172,1,110.499994941712
372,232,88521,2,0,P|368:300|340:344,1,110.499994941712
328,348,88833,1,0,0:0:0:0:
308,356,88937,1,0,0:0:0:0:
96,272,89146,1,0,0:0:0:0:
148,92,89354,5,0,0:0:0:0:
168,88,89458,1,0,0:0:0:0:
192,88,89562,1,0,0:0:0:0:
212,96,89666,1,0,0:0:0:0:
232,108,89771,1,0,0:0:0:0:
356,260,89979,5,0,0:0:0:0:
336,264,90083,1,0,0:0:0:0:
312,264,90187,1,0,0:0:0:0:
292,256,90291,1,0,0:0:0:0:
272,244,90396,1,0,0:0:0:0:
40,136,90604,5,0,0:0:0:0:
40,136,90812,1,0,0:0:0:0:
168,108,91021,2,0,L|224:128,3,55.2499974708558
292,200,91437,2,0,L|348:176,3,55.2499974708558
436,192,91854,2,0,L|416:128,3,55.2499974708558
380,124,92271,1,0,0:0:0:0:
336,112,92375,1,0,0:0:0:0:
292,124,92479,6,0,L|224:144,1,55.2499974708558
168,80,92687,2,0,L|236:60,1,55.2499974708558
320,212,92896,2,0,L|340:280,1,55.2499974708558
176,265,93104,2,0,L|192:212,1,55.2499974708558
328,176,93312,2,0,L|396:156,1,55.2499974708558
268,112,93521,2,0,L|336:92,1,55.2499974708558
200,56,93729,1,0,0:0:0:0:
112,312,93937,1,0,0:0:0:0:
112,312,94354,6,0,P|56:292|-8:292,1,101.999996887207
196,160,94771,2,0,P|252:180|316:180,1,101.999996887207
332,300,95187,1,0,0:0:0:0:
332,300,95291,1,0,0:0:0:0:
332,300,95396,1,0,0:0:0:0:
344,48,95604,1,0,0:0:0:0:
460,176,95812,6,0,P|484:120|484:64,1,101.999996887207
372,120,96229,1,0,0:0:0:0:
256,152,96437,2,0,P|192:156|132:152,1,101.999996887207
136,140,96750,1,0,0:0:0:0:
124,124,96854,2,8,P|64:204|60:256,1,152.999995330811,8|0,0:0|0:0,0:0:0:0:
120,92,97271,2,0,P|40:172|28:260,1,203.999993774414
136,316,97896,5,0,0:0:0:0:
244,260,98104,1,0,0:0:0:0:
136,208,98312,2,0,L|88:108,2,101.999996887207
304,80,98937,1,0,0:0:0:0:
324,72,99041,1,0,0:0:0:0:
344,68,99146,1,0,0:0:0:0:
392,240,99354,6,0,L|468:320,1,101.999996887207
300,256,99771,1,0,0:0:0:0:
360,148,99979,1,0,0:0:0:0:
380,144,100083,1,0,0:0:0:0:
400,140,100187,1,0,0:0:0:0:
208,328,100396,1,0,0:0:0:0:
188,336,100500,1,0,0:0:0:0:
168,340,100604,1,0,0:0:0:0:
148,336,100708,1,0,0:0:0:0:
132,324,100812,1,0,0:0:0:0:
120,308,100916,1,0,0:0:0:0:
112,288,101021,6,0,P|120:232|116:180,1,101.999996887207
352,240,101437,2,0,P|408:264|460:268,1,101.999996887207
336,136,101854,2,0,P|280:160|248:200,1,101.999996887207
112,88,102271,1,0,0:0:0:0:
280,44,102479,2,0,B|332:32|332:32|392:72|480:52,1,203.999993774414
488,68,103000,2,0,P|488:144|460:228,1,152.999995330811
300,212,103521,2,0,B|208:224|208:224|144:268,1,152.999995330811
144,272,103937,2,0,P|112:156|152:104,1,152.999995330811
280,128,104354,6,0,P|308:72|300:24,1,101.999996887207
428,244,104771,1,0,0:0:0:0:
428,244,104875,1,0,0:0:0:0:
428,244,104979,1,0,0:0:0:0:
268,312,105187,2,0,P|184:308|116:252,1,152.999995330811
188,152,105604,2,0,B|208:104|208:104|204:44,1,101.999996887207
368,216,106021,6,0,B|456:272|456:272|416:304,1,152.999995330811
264,268,106437,2,0,P|248:208|256:160,1,101.999996887207
148,32,106854,1,0,0:0:0:0:
12,140,107062,1,0,0:0:0:0:
232,136,107271,1,0,0:0:0:0:
232,136,107687,5,0,0:0:0:0:
252,132,107791,1,0,0:0:0:0:
272,124,107896,1,0,0:0:0:0:
288,112,108000,1,0,0:0:0:0:
304,100,108104,2,0,L|392:168,1,101.999996887207
288,348,108521,1,0,0:0:0:0:
288,348,108625,1,0,0:0:0:0:
288,348,108729,1,0,0:0:0:0:
184,288,108937,1,0,0:0:0:0:
120,124,109146,5,0,0:0:0:0:
120,124,109354,2,0,B|84:80|84:80|32:60,1,101.999996887207
132,212,109771,2,0,B|200:188|200:188|252:192,1,101.999996887207
244,204,110083,1,0,0:0:0:0:
260,216,110187,2,0,P|324:216|340:136,1,152.999995330811
332,124,110604,1,0,0:0:0:0:
108,52,110812,5,0,0:0:0:0:
108,52,110916,1,0,0:0:0:0:
108,52,111021,2,0,B|112:104|112:104|92:152,1,101.999996887207
260,100,111437,2,0,P|324:108|372:92,1,101.999996887207
376,112,111750,1,0,0:0:0:0:
392,124,111854,1,0,0:0:0:0:
364,308,112062,1,0,0:0:0:0:
212,220,112271,1,0,0:0:0:0:
456,224,112479,5,0,0:0:0:0:
436,216,112583,1,0,0:0:0:0:
416,208,112687,2,0,L|304:200,1,101.999996887207
160,280,113104,1,0,0:0:0:0:
88,120,113312,1,0,0:0:0:0:
288,264,113521,2,0,P|352:288|408:236,1,152.999995330811
316,152,113937,2,0,B|256:152|256:152|196:184,1,101.999996887207
220,172,114250,1,0,0:0:0:0:
220,172,114354,6,0,P|172:148|152:96,1,101.999996887207
396,64,114771,2,0,L|364:176,1,101.999996887207
396,280,115187,1,0,0:0:0:0:
276,256,115396,1,0,0:0:0:0:
256,264,115500,1,0,0:0:0:0:
236,272,115604,1,0,0:0:0:0:
304,144,115812,6,0,B|384:164|444:128|444:128|504:160,1,203.999993774414
276,44,116437,1,0,0:0:0:0:
160,80,116646,1,0,0:0:0:0:
140,88,116750,1,0,0:0:0:0:
120,96,116854,2,0,P|68:168|116:220,1,152.999995330811
272,172,117271,2,0,B|352:156|352:156|352:192,1,101.999996887207
332,348,117687,6,0,L|396:336,3,50.9999984436036
412,308,118104,2,0,P|428:248|420:204,1,101.999996887207
324,68,118521,1,0,0:0:0:0:
316,188,118729,1,0,0:0:0:0:
428,140,118937,1,0,0:0:0:0:
208,120,119146,2,0,B|152:116|152:116|104:128,2,101.999996887207
192,312,119771,2,0,P|116:300|92:284,1,101.999996887207
328,336,120187,2,0,B|352:264|304:212|304:212|328:144,1,203.999993774414
104,156,121021,5,0,0:0:0:0:
112,116,121437,1,0,0:0:0:0:
144,88,121854,1,0,0:0:0:0:
184,88,122271,1,0,0:0:0:0:
220,108,122687,1,0,0:0:0:0:
232,148,123104,1,0,0:0:0:0:
220,188,123521,1,0,0:0:0:0:
188,212,123937,1,0,0:0:0:0:
256,192,124354,12,0,127271,0:0:0:0:
328,120,127687,6,0,B|372:92|372:92|424:92,1,101.999996887207
360,256,128104,1,0,0:0:0:0:
264,332,128312,1,0,0:0:0:0:
244,212,128521,1,0,0:0:0:0:
364,288,128729,2,0,L|464:312,1,101.999996887207
224,184,129146,6,0,P|104:192|80:268,1,203.999993774414
304,160,129771,2,0,B|304:96|240:76,1,101.999996887207
336,296,130187,2,0,B|356:228|356:228|432:172,1,152.999995330811,8|0,0:0|0:0,0:0:0:0:
264,256,130604,2,0,P|208:296|116:264,1,152.999995330811,8|0,0:0|0:0,0:0:0:0:
84,108,131021,6,0,L|108:228,1,101.999996887207
244,180,131437,1,0,0:0:0:0:
156,92,131646,1,0,0:0:0:0:
104,208,131854,1,0,0:0:0:0:
384,112,132062,1,0,0:0:0:0:
384,112,132271,1,0,0:0:0:0:
476,204,132479,5,0,0:0:0:0:
376,136,132687,2,0,L|260:104,1,101.999996887207
372,336,133104,2,0,L|408:224,1,101.999996887207
216,152,133521,1,0,0:0:0:0:
268,264,133729,1,0,0:0:0:0:
344,168,133937,2,0,L|388:64,1,101.999996887207
383,74,134250,1,0,0:0:0:0:
383,74,134354,6,0,P|328:136|224:76,1,203.999993774414
80,248,134979,1,0,0:0:0:0:
172,164,135187,1,0,0:0:0:0:
60,128,135396,1,0,0:0:0:0:
196,288,135604,1,0,0:0:0:0:
196,288,135708,1,0,0:0:0:0:
196,288,135812,2,0,L|248:200,1,101.999996887207
300,88,136229,1,0,0:0:0:0:
472,60,136437,2,0,P|412:96|352:80,1,101.999996887207
297,330,136854,6,0,L|400:320,1,95.6250036478044,8|0,0:0|0:0,0:0:0:0:
214,330,137271,2,0,L|112:320,1,95.6250036478044,8|0,0:0|0:0,0:0:0:0:
200,160,137687,1,0,0:0:0:0:
220,164,137791,1,0,0:0:0:0:
240,160,137896,2,0,P|272:196|252:256,1,101.999996887207
424,184,138312,1,0,0:0:0:0:
288,72,138521,5,0,0:0:0:0:
168,48,138729,1,0,0:0:0:0:
292,88,138937,1,0,0:0:0:0:
148,60,139145,1,0,0:0:0:0:
296,104,139354,2,0,L|336:200,1,101.999996887207
352,212,139666,1,0,0:0:0:0:
368,224,139771,2,0,P|304:312|280:268,2,203.999993774414
140,136,141021,6,0,L|12:112,1,101.999996887207
192,252,141437,2,0,P|248:236|268:172,1,101.999996887207
264,180,141750,1,0,0:0:0:0:
260,160,141854,2,0,L|240:56,1,101.999996887207
432,172,142271,1,0,0:0:0:0:
460,200,142375,1,0,0:0:0:0:
468,240,142479,1,0,0:0:0:0:
444,272,142583,1,0,0:0:0:0:
404,280,142687,6,0,L|276:288,1,101.999996887207
104,240,143104,2,0,L|8:176,1,101.999996887207
124,320,143521,2,0,B|184:300|184:300|236:316,1,95.6250036478044
296,200,143937,2,0,B|264:176|264:144|264:144|216:120|164:144,1,152.999995330811
396,160,144354,6,0,L|460:64,1,101.999996887207
296,200,144771,2,0,P|340:248|384:264,1,101.999996887207
256,292,145187,2,0,P|164:252|48:268,1,203.999993774414
128,84,145812,1,0,0:0:0:0:
232,148,146021,6,0,L|336:180,1,101.999996887207
329,177,146333,1,0,0:0:0:0:
329,177,146437,2,0,P|331:111|311:47,1,101.999996887207
264,240,146854,1,0,0:0:0:0:
428,184,147062,1,0,0:0:0:0:
384,352,147271,1,0,0:0:0:0:
212,156,147479,6,0,L|204:84,1,50.9999984436036
112,52,147687,2,0,P|120:100|120:164,1,101.999996887207
204,348,148104,2,0,L|212:284,1,50.9999984436036
132,260,148312,1,0,0:0:0:0:
284,180,148521,2,0,P|292:129|284:79,1,101.999996887207
268,68,148833,1,0,0:0:0:0:
252,56,148937,1,0,0:0:0:0:
48,96,149146,1,0,0:0:0:0:
288,180,149354,6,0,B|336:176|336:176|344:168|344:168|392:164,1,101.999996887207
296,316,149771,1,0,0:0:0:0:
408,184,149979,1,0,0:0:0:0:
272,288,150187,2,0,P|184:304|140:264,1,152.999995330811
408,184,150604,2,0,B|392:288|392:288|352:328,1,152.999995330811
260,192,151021,5,0,0:0:0:0:
224,172,151125,1,0,0:0:0:0:
184,164,151229,1,0,0:0:0:0:
144,172,151333,1,0,0:0:0:0:
108,192,151437,1,0,0:0:0:0:
256,100,151646,2,0,L|240:0,1,101.999996887207
184,264,152062,5,0,0:0:0:0:
268,356,152271,1,0,0:0:0:0:
328,120,152479,5,0,0:0:0:0:
244,28,152688,1,0,0:0:0:0:
328,264,152896,5,0,0:0:0:0:
420,180,153105,1,0,0:0:0:0:
204,252,153312,5,0,0:0:0:0:
124,164,153521,2,0,P|116:112|124:64,1,95.6250036478044
204,252,153937,2,0,B|208:204|208:204|232:156,1,95.6250036478044
104,320,154354,1,0,0:0:0:0:
