osu file format v12

[General]
AudioFilename: Yuzuki YukariI Died To Someone's SongEnglish - Romaji - Translation.mp3
AudioLeadIn: 0
PreviewTime: 127687
Countdown: 0
SampleSet: Normal
StackLeniency: 0.7
Mode: 0
LetterboxInBreaks: 0
CountdownOffset: 1
WidescreenStoryboard: 0

[Editor]
DistanceSpacing: 1.7
BeatDivisor: 4
GridSize: 4
TimelineZoom: 1

[Metadata]
Title:Dareka no Uta de Boku ga Shinu
TitleUnicode:誰かの歌で僕が死ぬ
Artist:36g
ArtistUnicode:36g
Creator:MeatloafCereal
Version:Hard
Source:
Tags:Yuzuki Yukari vocaloid I Died To Someone's Song
BeatmapID:429740
BeatmapSetID:178658

[Difficulty]
HPDrainRate:6
CircleSize:4
OverallDifficulty:7
ApproachRate:8
SliderMultiplier:1.5
SliderTickRate:2

[Events]
//Background and Video events
0,0,"Yuzuki.Yukari.full.1533100.jpg",0,0
//Break Periods
//Storyboard Layer 0 (Background)
//Storyboard Layer 1 (Fail)
//Storyboard Layer 2 (Pass)
//Storyboard Layer 3 (Foreground)
//Storyboard Sound Samples
//Background Colour Transformations
3,100,163,162,255

[TimingPoints]
1021,416.666666666667,4,1,1,70,1,0
14354,-83.3333333333333,4,1,1,70,0,0
16854,-133.333333333333,4,3,0,70,0,0
17687,-83.3333333333333,4,1,1,70,0,0
20187,-83.3333333333333,4,3,1,70,0,0
21021,-83.3333333333333,4,1,1,70,0,0
23521,-200,4,3,0,70,0,0
24250,-83.3333333333333,4,1,1,70,0,0
27479,-100,4,1,1,70,0,0
30396,-133.333333333333,4,1,1,70,0,0
30604,-100,4,1,1,70,0,0
33521,-133.333333333333,4,3,0,70,0,0
33937,-133.333333333333,4,3,0,70,0,0
34354,-100,4,1,1,70,0,0
38729,-100,4,3,0,70,0,0
41021,-83.3333333333333,4,1,1,70,0,1
43312,-100,4,3,0,70,0,1
44354,-83.3333333333333,4,1,1,70,0,1
54354,-100,4,1,1,70,0,0
66021,-100,4,2,0,70,0,0
67687,-100,4,1,1,70,0,0
79354,-133.333333333333,4,2,0,70,0,0
81021,-76.9230769230769,4,1,1,70,0,1
90396,-76.9230769230769,4,1,1,55,0,1
91021,-76.9230769230769,4,1,1,80,0,1
92062,-76.9230769230769,4,1,1,85,0,1
93104,-76.9230769230769,4,1,1,100,0,1
94354,-83.3333333333333,4,1,1,70,0,0
96853,-83.3333333333333,4,3,0,70,0,0
97687,-83.3333333333333,4,1,1,70,0,0
126854,-83.3333333333333,4,1,1,70,0,0
127687,-83.3333333333333,4,1,1,70,0,1
130187,-83.3333333333333,4,3,0,70,0,1
131021,-83.3333333333333,4,1,1,70,0,1
136854,-133.333333333333,4,3,0,70,0,1
137687,-83.3333333333333,4,1,1,70,0,1
140187,-83.3333333333333,4,1,1,70,0,0
143521,-133.333333333333,4,1,1,70,0,0
143937,-83.3333333333333,4,1,1,70,0,0
153521,-133.333333333333,4,1,1,70,0,0

[Colours]
Combo1 : 94,226,255
Combo2 : 198,0,255
Combo3 : 0,72,255

[HitObjects]
100,144,1021,6,0,P|168:132|252:144,1,150,0|8,0:0|0:0,0:0:0:0:
368,188,1646,1,0,0:0:0:0:
288,224,1854,2,0,B|268:340|268:340|300:364,1,150,0|8,0:0|0:0,0:0:0:0:
172,324,2479,1,0,0:0:0:0:
76,240,2687,2,0,P|88:168|128:96,1,150,0|8,0:0|0:0,0:0:0:0:
208,68,3312,1,0,0:0:0:0:
244,152,3521,2,0,P|308:160|396:144,1,150,0|8,0:0|0:0,0:0:0:0:
391,145,4354,6,0,P|388:228|356:308,1,150,0|8,0:0|0:0,0:0:0:0:
284,256,4979,1,0,0:0:0:0:
208,208,5187,2,0,P|120:196|44:208,1,150,0|8,0:0|0:0,0:0:0:0:
48,116,5812,1,0,0:0:0:0:
136,100,6021,2,0,P|224:112|300:100,1,150,0|8,0:0|0:0,0:0:0:0:
368,72,6646,1,0,0:0:0:0:
412,152,6854,5,0,0:0:0:0:
340,204,7062,1,8,0:0:0:0:
340,204,7271,1,8,0:0:0:0:
252,188,7479,2,8,L|248:136,2,37.5
168,224,7896,2,0,P|164:292|172:328,1,75,0|8,0:0|0:0,0:0:0:0:
76,312,8312,1,0,0:0:0:0:
12,248,8521,6,0,P|20:148|44:80,1,150,0|8,0:0|0:0,0:0:0:0:
124,120,9146,1,0,0:0:0:0:
188,56,9354,2,0,P|260:48|340:56,1,150,0|8,0:0|0:0,0:0:0:0:
388,128,9979,2,0,P|432:132|480:124,1,75,0|8,0:0|0:0,0:0:0:0:
472,140,10604,1,8,0:0:0:0:
480,152,11021,5,8,0:0:0:0:
400,252,11229,2,0,P|360:260|304:252,1,75,0|8,0:0|0:0,0:0:0:0:
252,152,11646,2,0,P|260:192|252:248,1,75,0|8,0:0|0:0,0:0:0:0:
140,272,12062,2,0,P|128:224|132:180,1,75,0|8,0:0|0:0,0:0:0:0:
164,116,12479,1,0,0:0:0:0:
256,192,12687,12,0,13937,0:0:0:0:
264,88,14354,6,0,B|296:80|296:80|328:100|328:100|376:68|452:96,1,179.999994506836,0|8,0:0|0:0,0:0:0:0:
472,192,14979,1,0,0:0:0:0:
404,276,15187,2,0,P|332:232|232:240,1,179.999994506836,0|8,0:0|0:0,0:0:0:0:
148,296,15812,1,0,0:0:0:0:
48,256,16021,2,0,B|40:152|40:152|80:84,1,179.999994506836,0|8,0:0|0:0,0:0:0:0:
180,124,16646,1,0,0:0:0:0:
280,88,16854,2,8,P|336:104|396:100,1,112.500004291535
408,96,17687,6,0,B|408:152|368:176|368:176|392:220|356:264,1,179.999994506836,0|8,0:0|0:0,0:0:0:0:
260,300,18312,1,0,0:0:0:0:
172,240,18521,2,0,B|84:216|84:216|-17:255,2,179.999994506836,0|8|0,0:0|0:0|0:0,0:0:0:0:
264,188,19562,1,0,0:0:0:0:
400,116,19771,2,0,P|404:68|400:16,1,89.9999972534181,8|0,0:0|0:0,0:0:0:0:
256,68,20187,2,0,P|208:64|156:68,1,89.9999972534181,4|2,0:0|0:0,0:0:0:0:
20,116,20604,2,0,P|68:120|120:116,1,89.9999972534181,4|2,0:0|0:0,0:0:0:0:
212,148,21021,6,0,B|240:184|296:184|296:184|320:228|292:272,1,179.999994506836,0|8,0:0|0:0,0:0:0:0:
188,260,21646,1,0,0:0:0:0:
84,232,21854,2,0,B|59:269|83:313|83:313|139:313|167:349,1,179.999994506836,0|8,0:0|0:0,0:0:0:0:
272,320,22479,1,0,0:0:0:0:
380,332,22687,2,0,P|400:240|376:152,1,179.999994506836,0|8,0:0|0:0,0:0:0:0:
280,112,23312,2,8,L|292:64,2,44.999998626709,8|8|8,0:0|0:0|0:0,0:0:0:0:
272,116,23937,1,8,0:0:0:0:
256,120,24354,6,0,B|192:132|140:112|140:112|104:120|92:152,1,179.999994506836,0|8,0:0|0:0,0:0:0:0:
116,256,24979,2,0,B|136:296|136:296|192:308,1,89.9999972534181
284,280,25396,2,0,B|264:240|264:240|208:228,1,89.9999972534181,0|8,0:0|0:0,0:0:0:0:
184,128,25812,1,0,0:0:0:0:
292,108,26021,2,0,B|384:112|384:112|476:96,2,179.999994506836,0|8|0,0:0|0:0|0:0,0:0:0:0:
200,56,27062,1,0,0:0:0:0:
136,196,27271,1,0,0:0:0:0:
112,108,27479,1,0,0:0:0:0:
232,148,27687,6,0,B|268:168|268:168|280:212,1,75,0|0,0:0|0:0,0:0:0:0:
236,320,28104,2,0,B|256:284|256:284|300:272,1,75,8|0,0:0|0:0,0:0:0:0:
400,268,28521,2,0,P|416:200|404:112,1,150,0|8,0:0|0:0,0:0:0:0:
316,124,29146,1,0,0:0:0:0:
240,72,29354,2,0,L|160:64,1,75
80,96,29771,1,8,0:0:0:0:
36,176,29979,2,0,L|24:260,1,75
12,256,30604,5,0,0:0:0:0:
0,264,31021,2,0,P|96:260|152:276,1,150,0|8,0:0|0:0,0:0:0:0:
232,304,31646,1,0,0:0:0:0:
316,272,31854,2,0,P|344:294|389:319,2,75,0|0|8,0:0|0:0|0:0,2:0:0:0:
276,192,32479,2,0,P|280:132|296:96,1,75
196,104,32896,2,0,B|156:96|156:96|112:68,1,75,0|8,0:0|0:0,0:0:0:0:
84,156,33312,1,0,0:0:0:0:
132,232,33521,6,8,B|148:284|148:284|136:340,1,112.500004291535
300,264,34354,2,0,L|396:256,1,75
440,124,34771,1,8,0:0:0:0:
464,212,34979,1,0,0:0:0:0:
344,168,35187,2,0,P|264:160|180:168,1,150,0|8,0:0|0:0,0:0:0:0:
124,220,35812,1,0,0:0:0:0:
44,176,36021,6,0,P|32:104|48:24,1,150,0|8,0:0|0:0,0:0:0:0:
124,76,36646,1,0,0:0:0:0:
212,60,36854,1,0,0:0:0:0:
212,60,37271,1,8,0:0:0:0:
212,60,37687,2,0,P|224:112|224:152,1,75
296,188,38104,2,0,P|348:180|392:184,2,75,8|0|0,0:0|0:0|0:0,0:0:0:0:
212,224,38729,2,8,L|196:248,4,18.75
184,224,41021,6,0,B|106:179|106:179|2:197,2,179.999994506836,0|8|0,0:0|0:0|0:0,0:0:0:0:
276,280,42062,2,0,P|344:284|376:280,1,89.9999972534181,0|8,0:0|0:0,0:0:0:0:
460,340,42479,2,0,P|476:264|412:176,1,179.999994506836
428,72,43104,2,0,P|320:88|248:84,1,179.999994506836,8|8,0:0|0:0,0:0:0:0:
236,92,43937,1,8,0:0:0:0:
220,100,44354,6,0,B|196:144|196:144|200:200,1,89.9999972534181
104,304,44771,2,0,B|128:260|128:260|124:204,1,89.9999972534181,8|0,0:0|0:0,0:0:0:0:
276,200,45187,2,0,P|348:216|460:196,1,179.999994506836,0|8,0:0|0:0,0:0:0:0:
500,296,45812,1,0,0:0:0:0:
400,336,46021,2,0,P|272:312|208:324,1,179.999994506836,0|8,0:0|0:0,0:0:0:0:
160,232,46646,1,0,0:0:0:0:
156,124,46854,2,0,B|180:80|180:80|232:52,1,89.9999972534181,8|0,0:0|0:0,0:0:0:0:
320,92,47271,2,0,P|368:100|424:92,1,89.9999972534181,8|0,0:0|0:0,0:0:0:0:
412,104,47687,6,0,P|332:92|232:104,1,179.999994506836,0|8,0:0|0:0,0:0:0:0:
140,156,48312,1,0,0:0:0:0:
52,219,48521,2,0,B|36:264|36:264|58:331,1,89.9999972534181
156,324,48937,1,8,0:0:0:0:
252,276,49146,1,0,0:0:0:0:
360,260,49354,2,0,P|424:260|472:276,1,89.9999972534181
432,160,49771,2,0,P|300:164|240:148,1,179.999994506836,8|0,0:0|0:0,0:0:0:0:
236,160,50604,1,0,0:0:0:0:
220,168,51021,6,0,P|176:172|112:160,1,89.9999972534181,8|0,0:0|0:0,0:0:0:0:
56,244,51437,2,0,P|100:240|164:252,1,89.9999972534181,8|0,0:0|0:0,0:0:0:0:
252,228,51854,1,0,0:0:0:0:
340,288,52062,1,0,0:0:0:0:
436,236,52271,2,0,P|440:168|432:144,1,89.9999972534181,8|0,0:0|0:0,0:0:0:0:
336,100,52687,5,0,0:0:0:0:
240,48,52896,2,8,L|196:32,2,44.999998626709
200,148,53312,2,0,L|188:248,1,89.9999972534181,0|8,0:0|0:0,0:0:0:0:
312,148,53729,2,0,L|328:256,1,89.9999972534181,0|8,0:0|0:0,0:0:0:0:
144,92,54354,6,0,P|72:100|-8:88,1,150,0|8,0:0|0:0,0:0:0:0:
4,180,54979,1,0,0:0:0:0:
92,192,55187,2,0,P|164:184|244:196,1,150,0|8,0:0|0:0,0:0:0:0:
352,132,55812,1,0,0:0:0:0:
400,208,56021,2,0,L|428:296,1,75
316,208,56437,2,0,L|300:288,1,75,8|0,0:0|0:0,0:0:0:0:
172,276,56854,2,0,L|248:216,1,75
112,180,57271,2,0,L|200:156,1,75,8|0,0:0|0:0,0:0:0:0:
276,160,57687,6,0,P|300:92|292:12,1,150,0|8,0:0|0:0,0:0:0:0:
208,44,58312,1,0,0:0:0:0:
120,68,58521,2,0,L|16:80,1,75
32,204,58937,2,0,L|28:296,1,75,8|0,0:0|0:0,0:0:0:0:
136,208,59354,2,0,P|132:296|144:368,2,150,0|8|0,0:0|0:0|0:0,0:0:0:0:
184,132,60396,1,0,0:0:0:0:
260,84,60604,2,0,L|336:80,1,75,8|0,0:0|0:0,0:0:0:0:
296,160,61021,6,0,B|352:156|352:156|388:140|388:140|452:136,1,150,4|8,0:0|0:0,0:0:0:0:
496,208,61646,1,0,0:0:0:0:
436,276,61854,2,0,B|332:296|332:296|272:272,1,150,0|8,0:0|0:0,0:0:0:0:
200,288,62479,1,0,0:0:0:0:
120,244,62687,2,0,B|100:288|100:288|61:330|61:330|38:386,2,150,0|8|0,0:0|0:0|0:0,0:0:0:0:
100,156,63729,1,0,0:0:0:0:
144,76,63937,2,0,L|136:20,2,37.5
176,200,64354,6,0,P|272:208|336:200,1,150,0|8,0:0|0:0,0:0:0:0:
396,148,64979,1,8,0:0:0:0:
372,60,65187,2,8,L|396:16,2,37.5
296,104,65604,1,0,0:0:0:0:
208,128,65812,2,0,B|120:140,1,75,8|0,0:0|0:0,0:0:0:0:
132,136,67687,6,0,L|87:230,1,75,8|0,0:0|0:0,0:0:0:0:
208,136,68104,2,0,L|188:228,1,75,8|0,0:0|0:0,0:0:0:0:
100,300,68521,2,0,L|196:280,1,75,8|0,0:0|0:0,0:0:0:0:
260,264,68937,2,0,P|336:272|412:264,2,150,8|0|8,0:0|0:0|0:0,0:0:0:0:
236,176,69979,1,0,0:0:0:0:
316,136,70187,2,0,P|356:132|412:140,1,75,8|0,0:0|0:0,0:0:0:0:
280,68,70604,2,0,P|240:72|184:64,1,75,8|0,0:0|0:0,0:0:0:0:
76,64,71021,6,0,B|32:128|32:128|16:212,1,150,0|8,0:0|0:0,0:0:0:0:
104,232,71646,1,0,0:0:0:0:
168,292,71854,2,0,B|232:284|232:284|248:272|248:272|320:264,1,150,0|8,0:0|0:0,0:0:0:0:
380,324,72479,1,0,0:0:0:0:
404,236,72687,2,0,P|400:168|388:136,2,75,8|0|8,0:0|0:0|0:0,0:0:0:0:
316,248,73312,1,0,0:0:0:0:
240,196,73521,2,0,P|160:208|92:196,1,150,0|8,0:0|0:0,0:0:0:0:
92,196,74354,6,0,L|80:108,1,75,4|0,0:0|0:0,0:0:0:0:
208,96,74771,2,0,P|248:76|280:48,1,75,8|0,0:0|0:0,0:0:0:0:
304,180,75187,2,0,P|336:112|348:32,1,150,0|8,0:0|0:0,0:0:0:0:
436,28,75812,1,0,0:0:0:0:
504,88,76021,2,0,L|520:172,1,75,8|0,0:0|0:0,0:0:0:0:
428,144,76437,2,0,L|420:232,1,75,8|0,0:0|0:0,0:0:0:0:
332,240,76854,2,0,B|292:244|292:244|248:240,1,75,8|0,0:0|0:0,0:0:0:0:
192,348,77271,2,0,B|188:312|188:312|192:268,1,75,8|0,0:0|0:0,0:0:0:0:
140,172,77687,6,8,P|64:180|-12:164,2,150
224,144,78729,2,0,B|264:140|264:140|304:148,1,75,0|8,0:0|0:0,0:0:0:0:
384,176,79146,1,0,0:0:0:0:
304,220,79354,6,0,B|236:208|200:248|200:248|144:216|148:152,1,225.000008583069
147,155,81021,2,0,B|144:104|144:104|116:64,1,97.4999955368044
216,200,81437,2,0,B|239:153|239:153|235:104,1,97.4999955368044,8|0,0:0|0:0,0:0:0:0:
336,48,81854,2,0,B|416:112|416:112|400:164|416:220,1,194.999991073609,0|8,0:0|0:0,0:0:0:0:
328,284,82479,1,0,0:0:0:0:
212,300,82687,2,0,P|148:288|110:296,1,97.4999955368044
180,196,83104,2,0,P|200:108|216:80,1,97.4999955368044,8|0,0:0|0:0,0:0:0:0:
44,56,83521,2,8,B|84:76|124:68|124:68|96:116|88:180,1,194.999991073609
20,268,84146,6,8,L|-4:324,2,48.7499977684022
132,268,84562,1,0,0:0:0:0:
240,220,84771,2,0,P|288:224|352:216,1,97.4999955368044,8|0,0:0|0:0,0:0:0:0:
408,68,85187,1,8,0:0:0:0:
432,184,85396,1,0,0:0:0:0:
324,144,85604,2,0,P|244:140|216:136,1,97.4999955368044,8|0,0:0|0:0,0:0:0:0:
184,28,86021,2,8,B|108:48|48:32|48:32|24:52|8:80,2,194.999991073609,0|8|0,0:0|0:0|0:0,0:0:0:0:
192,44,87271,1,8,0:0:0:0:
204,60,87687,6,0,L|144:152,1,97.4999955368044,8|0,0:0|0:0,0:0:0:0:
264,116,88104,2,0,P|312:124|368:120,1,97.4999955368044,8|0,0:0|0:0,0:0:0:0:
472,92,88521,1,8,0:0:0:0:
400,184,88729,1,0,0:0:0:0:
284,192,88937,2,0,P|236:188|176:196,1,97.4999955368044,8|0,0:0|0:0,0:0:0:0:
112,104,89354,2,0,P|212:116|308:100,2,194.999991073609,8|8|8,0:0|0:0|0:0,0:0:0:0:
24,184,90396,1,8,0:0:0:0:
136,216,90604,1,8,0:0:0:0:
200,312,90812,1,8,0:0:0:0:
300,252,91021,6,8,B|340:228|340:228|392:240|392:240|424:192|424:192|480:180,2,194.999991073609
240,152,92062,2,8,B|204:148|204:148|180:136|180:136|140:132,1,97.4999955368044
60,56,92479,1,8,0:0:0:0:
176,60,92687,2,8,B|210:63|210:63|234:75|234:75|270:79,1,97.4999955368044
368,148,93104,2,8,L|356:260,1,97.4999955368044
154,244,93521,2,8,L|144:148,1,97.4999955368044
368,148,93937,1,8,0:0:0:0:
368,148,94354,6,0,B|448:108|448:108|500:32,2,179.999994506836,0|8|0,0:0|0:0|0:0,0:0:0:0:
296,232,95396,2,0,B|284:280|284:280|292:340,1,89.9999972534181,0|8,0:0|0:0,0:0:0:0:
196,268,95812,1,0,0:0:0:0:
100,220,96021,2,0,B|56:212|56:212|4:216,1,89.9999972534181
60,120,96437,2,0,P|156:132|248:120,1,179.999994506836,8|8,0:0|0:0,0:0:0:0:
244,140,97271,1,8,0:0:0:0:
252,152,97687,6,0,B|320:164|320:164|336:184,1,89.9999972534181
452,276,98104,2,0,B|384:264|384:264|368:244,1,89.9999972534181,8|0,0:0|0:0,0:0:0:0:
376,96,98521,2,0,L|384:4,2,89.9999972534181,0|0|8,0:0|0:0|0:0,0:0:0:0:
424,192,99146,1,0,0:0:0:0:
320,220,99354,2,0,P|228:212|128:220,1,179.999994506836,0|8,0:0|0:0,0:0:0:0:
76,304,99979,1,0,0:0:0:0:
64,196,100187,2,0,B|60:152|60:152|76:104,1,89.9999972534181,8|0,0:0|0:0,0:0:0:0:
132,252,100604,2,0,B|148:208|148:208|185:176,1,89.9999972534181,8|0,0:0|0:0,0:0:0:0:
272,56,101021,6,0,B|244:100|256:148|256:148|304:144|340:172,1,179.999994506836,0|8,0:0|0:0,0:0:0:0:
436,212,101646,2,0,B|448:260|448:260|432:312,1,89.9999972534181
332,320,102062,1,0,0:0:0:0:
248,248,102271,2,0,P|200:244|144:248,1,89.9999972534181,8|0,0:0|0:0,0:0:0:0:
116,344,102687,1,0,0:0:0:0:
88,240,102896,1,0,0:0:0:0:
168,168,103104,2,0,B|168:120|168:120|152:76,1,89.9999972534181,8|0,0:0|0:0,0:0:0:0:
252,128,103521,2,0,B|344:144|344:144|432:116,1,179.999994506836,0|8,0:0|0:0,0:0:0:0:
444,116,104354,6,0,B|372:120|320:160|320:160|276:160|248:136,1,179.999994506836,0|8,0:0|0:0,0:0:0:0:
208,68,104979,1,0,0:0:0:0:
124,136,105187,2,0,P|120:204|124:248,1,89.9999972534181,8|0,0:0|0:0,0:0:0:0:
200,300,105604,2,0,P|204:232|200:188,1,89.9999972534181,8|0,0:0|0:0,0:0:0:0:
276,132,106021,2,0,B|320:148|368:136|368:136|356:184|376:240,1,179.999994506836,8|0,0:0|0:0,0:0:0:0:
440,304,106646,1,0,0:0:0:0:
288,328,106854,2,0,P|280:252|280:224,1,89.9999972534181,8|0,0:0|0:0,0:0:0:0:
252,88,107271,1,8,0:0:0:0:
252,88,107687,6,0,L|136:72,1,89.9999972534181
292,156,108104,2,0,L|188:168,1,89.9999972534181,8|0,0:0|0:0,0:0:0:0:
156,264,108521,2,0,P|160:312|152:364,2,89.9999972534181,0|0|8,0:0|0:0|0:0,0:0:0:0:
260,240,109146,1,0,0:0:0:0:
340,168,109354,2,8,B|392:160|428:184|428:184|464:152|520:160,2,179.999994506836
328,156,110604,1,8,0:0:0:0:
312,144,111021,6,0,B|280:140|280:140|260:168|260:168|196:144|144:168,1,179.999994506836,0|8,0:0|0:0,0:0:0:0:
208,256,111646,2,0,B|212:300|212:300|180:344,1,89.9999972534181
288,304,112062,2,0,P|280:256|288:200,1,89.9999972534181,0|8,0:0|0:0,0:0:0:0:
384,176,112479,1,0,0:0:0:0:
300,108,112687,2,0,P|208:116|120:100,1,179.999994506836,0|8,0:0|0:0,0:0:0:0:
20,132,113312,1,0,0:0:0:0:
104,204,113521,2,0,B|120:248|120:248|104:300,1,89.9999972534181
196,228,113937,2,0,B|240:240|240:240|288:228,1,89.9999972534181,8|0,0:0|0:0,0:0:0:0:
283,229,114354,6,0,B|272:200|272:200|292:176|292:176|260:120|288:64,2,179.999994506836,0|8|0,0:0|0:0|0:0,0:0:0:0:
372,288,115396,1,0,0:0:0:0:
272,324,115604,2,0,L|168:344,1,89.9999972534181,8|0,0:0|0:0,0:0:0:0:
288,228,116021,2,0,L|192:216,1,89.9999972534181
84,316,116437,2,0,P|80:252|88:212,1,89.9999972534181,8|0,0:0|0:0,0:0:0:0:
96,120,116854,2,0,B|108:76|108:76|152:44,1,89.9999972534181
164,156,117271,2,0,B|190:119|190:119|243:105,1,89.9999972534181,8|0,0:0|0:0,0:0:0:0:
384,96,117687,6,0,B|356:140|376:184|376:184|424:208|408:276,1,179.999994506836,0|8,0:0|0:0,0:0:0:0:
308,292,118312,1,0,0:0:0:0:
204,180,118521,2,0,L|180:92,1,89.9999972534181
328,92,118937,2,0,L|308:179,1,89.9999972534181,8|0,0:0|0:0,0:0:0:0:
456,220,119354,2,0,L|356:264,1,89.9999972534181
138,256,119771,2,0,L|56:220,1,89.9999972534181,8|0,0:0|0:0,0:0:0:0:
208,200,120187,2,0,P|276:216|404:188,1,179.999994506836
412,176,121021,5,0,0:0:0:0:
408,140,121437,1,0,0:0:0:0:
392,108,121854,1,0,0:0:0:0:
364,88,122271,1,0,0:0:0:0:
328,88,122687,1,0,0:0:0:0:
296,104,123104,1,0,0:0:0:0:
280,136,123521,1,0,0:0:0:0:
280,172,123937,1,0,0:0:0:0:
256,192,124354,12,0,127271,0:0:0:0:
192,268,127687,6,0,B|236:252|236:252|272:276|272:276|324:264|372:268,1,179.999994506836,0|8,0:0|0:0,0:0:0:0:
456,324,128312,1,0,0:0:0:0:
460,216,128521,2,0,L|408:120,1,89.9999972534181
312,152,128937,1,8,0:0:0:0:
264,56,129146,2,0,P|176:44|80:60,1,179.999994506836,0|8,0:0|0:0,0:0:0:0:
32,152,129771,1,8,0:0:0:0:
76,252,129979,1,0,0:0:0:0:
172,204,130187,2,0,P|176:148|168:104,1,89.9999972534181,8|0,0:0|0:0,0:0:0:0:
180,116,130604,2,0,P|228:120|280:116,1,89.9999972534181,8|0,0:0|0:0,0:0:0:0:
280,116,131021,6,0,B|196:136|196:136|136:212,1,179.999994506836,0|8,0:0|0:0,0:0:0:0:
200,296,131646,2,0,L|304:336,1,89.9999972534181
392,316,132062,1,0,0:0:0:0:
328,228,132271,2,0,L|216:216,1,89.9999972534181,8|0,0:0|0:0,0:0:0:0:
376,156,132687,1,0,0:0:0:0:
480,132,132896,1,0,0:0:0:0:
336,84,133104,1,8,0:0:0:0:
232,48,133312,1,0,0:0:0:0:
140,108,133521,2,0,P|80:120|32:120,2,89.9999972534181,0|0|8,0:0|0:0|0:0,0:0:0:0:
156,100,134354,6,0,B|176:144|176:144|152:204,1,89.9999972534181
172,292,134771,2,0,B|220:300|220:300|268:288,1,89.9999972534181,8|0,0:0|0:0,0:0:0:0:
412,276,135187,2,0,L|312:216,1,89.9999972534181
232,200,135604,1,8,0:0:0:0:
380,160,135812,1,0,0:0:0:0:
408,56,136021,2,0,P|280:64|216:48,1,179.999994506836,0|8,0:0|0:0,0:0:0:0:
156,132,136646,1,0,0:0:0:0:
48,128,136854,2,8,B|40:184|40:184|-8:216,1,112.500004291535
8,208,137687,6,0,P|92:200|196:208,1,179.999994506836,0|8,0:0|0:0,0:0:0:0:
292,236,138312,1,0,0:0:0:0:
228,324,138521,1,0,0:0:0:0:
256,172,138729,2,8,B|248:128|248:128|268:80,1,89.9999972534181
360,36,139146,1,0,0:0:0:0:
208,48,139354,2,0,P|108:72|12:56,1,179.999994506836,8|8,0:0|0:0,0:0:0:0:
60,168,139979,1,0,0:0:0:0:
168,184,140187,2,0,B|168:240|168:240|128:280,1,89.9999972534181,8|0,0:0|0:0,0:0:0:0:
124,112,140604,2,0,B|164:92|164:92|216:88,1,89.9999972534181,8|0,0:0|0:0,0:0:0:0:
316,104,141021,6,0,P|368:112|424:104,1,89.9999972534181
336,192,141437,2,0,P|388:184|444:188,1,89.9999972534181,8|0,0:0|0:0,0:0:0:0:
352,268,141854,2,0,B|276:260|228:284|228:284|184:284|172:244,1,179.999994506836,0|8,0:0|0:0,0:0:0:0:
184,112,142479,1,0,0:0:0:0:
88,160,142687,2,0,P|76:268|92:340,1,179.999994506836,0|8,0:0|0:0,0:0:0:0:
188,288,143312,1,0,0:0:0:0:
292,316,143521,2,0,B|348:324|348:324|412:292,1,112.500004291535
392,284,144354,6,0,P|400:176|368:104,1,179.999994506836,0|8,0:0|0:0,0:0:0:0:
296,184,144979,2,0,B|252:200|252:200|200:184,1,89.9999972534181,0|8,0:0|0:0,0:0:0:0:
192,80,145396,1,0,0:0:0:0:
88,60,145604,1,0,0:0:0:0:
44,160,145812,1,0,0:0:0:0:
128,228,146021,2,0,L|152:328,1,89.9999972534181,8|0,0:0|0:0,0:0:0:0:
244,256,146437,2,0,B|328:248|328:248|348:236|348:236|432:228,2,179.999994506836,0|8|0,0:0|0:0|0:0,0:0:0:0:
228,252,147687,6,0,P|300:260|380:176,1,179.999994506836,0|8,0:0|0:0,0:0:0:0:
360,84,148312,1,0,0:0:0:0:
280,156,148521,2,0,L|172:140,1,89.9999972534181
84,144,148937,2,0,L|128:52,1,89.9999972534181,8|0,0:0|0:0,0:0:0:0:
128,216,149354,2,0,L|212:56,1,179.999994506836,0|8,0:0|0:0,0:0:0:0:
364,76,149979,1,0,0:0:0:0:
288,152,150187,2,0,B|300:196|300:196|292:248,1,89.9999972534181
208,308,150604,2,0,B|168:288|168:288|112:296,1,89.9999972534181,8|0,0:0|0:0,0:0:0:0:
48,216,151021,6,0,B|180:192|180:192|232:220,1,179.999994506836,0|8,0:0|0:0,0:0:0:0:
308,276,151646,1,0,0:0:0:0:
328,172,151854,2,0,B|350:135|344:84|344:84|297:64|255:76,1,179.999994506836
148,88,152479,1,8,0:0:0:0:
92,180,152687,2,8,L|76:276,1,89.9999972534181
172,216,153104,2,8,L|188:304,1,89.9999972534181
296,264,153521,2,0,B|352:232|352:232|416:236,1,112.500004291535,8|0,0:0|0:0,0:0:0:0:
408,228,154354,1,0,0:0:0:0:
