osu file format v14

[General]
AudioFilename: ns18_07_07_amo.mp3
AudioLeadIn: 1500
PreviewTime: 52206
Countdown: 0
SampleSet: None
StackLeniency: 0.7
Mode: 3
LetterboxInBreaks: 0
SpecialStyle: 0
WidescreenStoryboard: 0

[Editor]
DistanceSpacing: 1.1
BeatDivisor: 4
GridSize: 16
TimelineZoom: 1

[Metadata]
Title:NS18
TitleUnicode:NS18
Artist:3034
ArtistUnicode:3034
Creator:Fullerene-
Version:EXTREME
Source:BMS
Tags:EXTREMEBEAT
BeatmapID:777353
BeatmapSetID:352757

[Difficulty]
HPDrainRate:8
CircleSize:4
OverallDifficulty:5.5
ApproachRate:9
SliderMultiplier:1.4
SliderTickRate:1

[Events]
//Background and Video events
0,0,"bg.png",0,0
//Break Periods
//Storyboard Layer 0 (Background)
//Storyboard Layer 1 (Fail)
//Storyboard Layer 2 (Pass)
//Storyboard Layer 3 (Foreground)
//Storyboard Sound Samples

[TimingPoints]
1029.9,260.87,4,1,0,15,1,0
1029.9,-99.9998333336111,4,1,0,15,0,0
52206.8,255.319,4,1,0,15,1,0
52206.8,-102.173972644962,4,1,0,15,0,0
68547.2,250,4,1,0,15,1,0
68547.2,-104.347826086957,4,1,0,15,0,0
101588,244.898,4,1,0,15,1,0
101588,-106.521721376815,4,1,0,15,0,0
117261,240,4,1,0,15,1,0
117261,-108.695652173913,4,1,0,15,0,0
128781,235.294,4,1,0,15,1,0
128781,-110.869620652202,4,1,0,15,0,0

[HitObjects]
64,0,1029,5,0,1:0:0:0:
192,0,1095,1,0,1:0:0:0:
320,0,1160,1,0,1:0:0:0:
448,0,1225,1,0,1:0:0:0:
64,0,1290,1,0,1:0:0:0:
192,0,1355,1,0,1:0:0:0:
448,0,1421,1,0,1:0:0:0:
320,0,1486,1,0,1:0:0:0:
192,0,1551,1,0,1:0:0:0:
448,0,1616,1,0,1:0:0:0:
64,0,1682,1,0,1:0:0:0:
320,0,1747,1,0,1:0:0:0:
192,0,1812,1,0,1:0:0:0:
448,0,1877,1,0,1:0:0:0:
320,0,1986,1,0,1:0:0:0:
64,0,2073,1,0,1:0:0:0:
192,0,2073,1,0,1:0:0:0:
448,0,2073,1,0,1:0:0:0:
320,0,2138,1,0,1:0:0:0:
192,0,2203,1,0,1:0:0:0:
64,0,2269,1,0,1:0:0:0:
320,0,2334,1,0,1:0:0:0:
448,0,2334,1,0,1:0:0:0:
64,0,2399,1,0,1:0:0:0:
192,0,2464,1,0,1:0:0:0:
320,0,2529,1,0,1:0:0:0:
64,0,2595,1,0,1:0:0:0:
448,0,2595,1,0,1:0:0:0:
192,0,2660,1,0,1:0:0:0:
320,0,2725,1,0,1:0:0:0:
192,0,2790,1,0,1:0:0:0:
320,0,2855,1,0,1:0:0:0:
448,0,2855,1,0,1:0:0:0:
64,0,2921,1,0,1:0:0:0:
192,0,2986,1,0,1:0:0:0:
320,0,3051,1,0,1:0:0:0:
64,0,3116,1,0,1:0:0:0:
448,0,3116,1,0,1:0:0:0:
320,0,3182,1,0,1:0:0:0:
192,0,3247,1,0,1:0:0:0:
64,0,3312,1,0,1:0:0:0:
320,0,3377,1,0,1:0:0:0:
448,0,3377,1,0,1:0:0:0:
192,0,3442,1,0,1:0:0:0:
64,0,3508,1,0,1:0:0:0:
320,0,3573,1,0,1:0:0:0:
64,0,3638,1,0,1:0:0:0:
448,0,3638,1,0,1:0:0:0:
192,0,3703,1,0,1:0:0:0:
448,0,3769,1,0,1:0:0:0:
320,0,3834,1,0,1:0:0:0:
64,0,3899,1,0,1:0:0:0:
192,0,3899,1,0,1:0:0:0:
320,0,3964,1,0,1:0:0:0:
448,0,4029,1,0,1:0:0:0:
64,0,4095,1,0,1:0:0:0:
192,0,4160,1,0,1:0:0:0:
320,0,4160,1,0,1:0:0:0:
64,0,4225,1,0,1:0:0:0:
448,0,4290,1,0,1:0:0:0:
320,0,4355,1,0,1:0:0:0:
64,0,4421,1,0,1:0:0:0:
192,0,4421,1,0,1:0:0:0:
320,0,4486,1,0,1:0:0:0:
192,0,4551,1,0,1:0:0:0:
64,0,4616,1,0,1:0:0:0:
320,0,4682,1,0,1:0:0:0:
448,0,4682,1,0,1:0:0:0:
64,0,4747,1,0,1:0:0:0:
192,0,4812,1,0,1:0:0:0:
320,0,4877,1,0,1:0:0:0:
64,0,4942,1,0,1:0:0:0:
192,0,4942,1,0,1:0:0:0:
320,0,5008,1,0,1:0:0:0:
448,0,5073,1,0,1:0:0:0:
64,0,5138,1,0,1:0:0:0:
192,0,5203,1,0,1:0:0:0:
448,0,5203,1,0,1:0:0:0:
320,0,5269,1,0,1:0:0:0:
192,0,5334,1,0,1:0:0:0:
64,0,5399,1,0,1:0:0:0:
320,0,5464,1,0,1:0:0:0:
448,0,5464,1,0,1:0:0:0:
192,0,5529,1,0,1:0:0:0:
320,0,5595,1,0,1:0:0:0:
448,0,5660,1,0,1:0:0:0:
64,0,5725,1,0,1:0:0:0:
192,0,5725,1,0,1:0:0:0:
448,0,5790,1,0,1:0:0:0:
320,0,5855,1,0,1:0:0:0:
192,0,5921,1,0,1:0:0:0:
64,0,5986,1,0,1:0:0:0:
448,0,5986,1,0,1:0:0:0:
320,0,6051,1,0,1:0:0:0:
64,0,6116,1,0,1:0:0:0:
192,0,6116,1,0,1:0:0:0:
320,0,6182,1,0,1:0:0:0:
64,0,6247,1,0,1:0:0:0:
192,0,6247,1,0,1:0:0:0:
448,0,6312,1,0,1:0:0:0:
320,0,6377,1,0,1:0:0:0:
192,0,6442,1,0,1:0:0:0:
64,0,6508,1,0,1:0:0:0:
448,0,6508,1,0,1:0:0:0:
320,0,6573,1,0,1:0:0:0:
192,0,6638,1,0,1:0:0:0:
320,0,6703,1,0,1:0:0:0:
64,0,6769,1,0,1:0:0:0:
448,0,6769,1,0,1:0:0:0:
192,0,6834,1,0,1:0:0:0:
64,0,6899,1,0,1:0:0:0:
448,0,6964,1,0,1:0:0:0:
192,0,7029,1,0,1:0:0:0:
320,0,7029,1,0,1:0:0:0:
448,0,7095,1,0,1:0:0:0:
64,0,7160,1,0,1:0:0:0:
192,0,7225,1,0,1:0:0:0:
320,0,7290,1,0,1:0:0:0:
448,0,7290,1,0,1:0:0:0:
64,0,7355,1,0,1:0:0:0:
192,0,7421,1,0,1:0:0:0:
64,0,7486,1,0,1:0:0:0:
320,0,7551,1,0,1:0:0:0:
448,0,7551,1,0,1:0:0:0:
192,0,7616,1,0,1:0:0:0:
448,0,7682,1,0,1:0:0:0:
64,0,7747,1,0,1:0:0:0:
192,0,7812,1,0,1:0:0:0:
320,0,7812,1,0,1:0:0:0:
64,0,7877,1,0,1:0:0:0:
448,0,7942,1,0,1:0:0:0:
320,0,8008,1,0,1:0:0:0:
64,0,8073,1,0,1:0:0:0:
192,0,8073,1,0,1:0:0:0:
448,0,8138,1,0,1:0:0:0:
64,0,8203,1,0,1:0:0:0:
192,0,8269,1,0,1:0:0:0:
320,0,8334,1,0,1:0:0:0:
448,0,8334,1,0,1:0:0:0:
192,0,8399,1,0,1:0:0:0:
320,0,8464,1,0,1:0:0:0:
64,0,8529,1,0,1:0:0:0:
192,0,8595,1,0,1:0:0:0:
448,0,8595,1,0,1:0:0:0:
320,0,8660,1,0,1:0:0:0:
192,0,8725,1,0,1:0:0:0:
320,0,8790,1,0,1:0:0:0:
64,0,8855,1,0,1:0:0:0:
448,0,8855,1,0,1:0:0:0:
192,0,8921,1,0,1:0:0:0:
64,0,8986,1,0,1:0:0:0:
320,0,9051,1,0,1:0:0:0:
192,0,9116,1,0,1:0:0:0:
448,0,9116,1,0,1:0:0:0:
64,0,9182,1,0,1:0:0:0:
320,0,9247,1,0,1:0:0:0:
192,0,9312,1,0,1:0:0:0:
320,0,9377,1,0,1:0:0:0:
448,0,9377,1,0,1:0:0:0:
64,0,9442,1,0,1:0:0:0:
192,0,9508,1,0,1:0:0:0:
320,0,9573,1,0,1:0:0:0:
64,0,9638,1,0,1:0:0:0:
448,0,9638,1,0,1:0:0:0:
320,0,9703,1,0,1:0:0:0:
192,0,9769,1,0,1:0:0:0:
64,0,9834,1,0,1:0:0:0:
320,0,9899,1,0,1:0:0:0:
448,0,9899,1,0,1:0:0:0:
64,0,9964,1,0,1:0:0:0:
192,0,10029,1,0,1:0:0:0:
320,0,10095,1,0,1:0:0:0:
64,0,10160,1,0,1:0:0:0:
192,0,10160,1,0,1:0:0:0:
448,0,10160,1,0,1:0:0:0:
320,0,10225,1,0,1:0:0:0:
64,0,10290,1,0,1:0:0:0:
192,0,10290,1,0,1:0:0:0:
320,0,10355,1,0,1:0:0:0:
64,0,10421,1,0,1:0:0:0:
192,0,10421,1,0,1:0:0:0:
448,0,10421,1,0,1:0:0:0:
320,0,10486,1,0,1:0:0:0:
192,0,10551,1,0,1:0:0:0:
64,0,10616,1,0,1:0:0:0:
320,0,10682,1,0,1:0:0:0:
448,0,10682,1,0,1:0:0:0:
192,0,10747,1,0,1:0:0:0:
320,0,10812,1,0,1:0:0:0:
192,0,10877,1,0,1:0:0:0:
64,0,10942,1,0,1:0:0:0:
448,0,10942,1,0,1:0:0:0:
320,0,11008,1,0,1:0:0:0:
192,0,11073,1,0,1:0:0:0:
320,0,11138,1,0,1:0:0:0:
64,0,11203,1,0,1:0:0:0:
192,0,11203,1,0,1:0:0:0:
448,0,11269,1,0,1:0:0:0:
320,0,11334,1,0,1:0:0:0:
192,0,11399,1,0,1:0:0:0:
64,0,11464,1,0,1:0:0:0:
448,0,11464,1,0,1:0:0:0:
192,0,11529,1,0,1:0:0:0:
320,0,11595,1,0,1:0:0:0:
448,0,11660,1,0,1:0:0:0:
64,0,11725,1,0,1:0:0:0:
192,0,11725,1,0,1:0:0:0:
320,0,11790,1,0,1:0:0:0:
448,0,11855,1,0,1:0:0:0:
192,0,11921,1,0,1:0:0:0:
64,0,11986,1,0,1:0:0:0:
448,0,11986,1,0,1:0:0:0:
320,0,12051,1,0,1:0:0:0:
64,0,12116,1,0,1:0:0:0:
192,0,12182,1,0,1:0:0:0:
320,0,12247,1,0,1:0:0:0:
448,0,12247,1,0,1:0:0:0:
192,0,12312,1,0,1:0:0:0:
64,0,12377,1,0,1:0:0:0:
448,0,12442,1,0,1:0:0:0:
192,0,12508,1,0,1:0:0:0:
320,0,12508,1,0,1:0:0:0:
448,0,12573,1,0,1:0:0:0:
64,0,12638,1,0,1:0:0:0:
192,0,12703,1,0,1:0:0:0:
320,0,12769,1,0,1:0:0:0:
448,0,12769,1,0,1:0:0:0:
192,0,12834,1,0,1:0:0:0:
320,0,12899,1,0,1:0:0:0:
448,0,12964,1,0,1:0:0:0:
64,0,13029,1,0,1:0:0:0:
192,0,13029,1,0,1:0:0:0:
448,0,13095,1,0,1:0:0:0:
320,0,13160,1,0,1:0:0:0:
192,0,13225,1,0,1:0:0:0:
320,0,13290,1,0,1:0:0:0:
448,0,13290,1,0,1:0:0:0:
192,0,13355,1,0,1:0:0:0:
64,0,13421,1,0,1:0:0:0:
448,0,13486,1,0,1:0:0:0:
64,0,13551,1,0,1:0:0:0:
320,0,13551,1,0,1:0:0:0:
192,0,13616,1,0,1:0:0:0:
320,0,13682,1,0,1:0:0:0:
448,0,13747,1,0,1:0:0:0:
64,0,13812,1,0,1:0:0:0:
192,0,13812,1,0,1:0:0:0:
320,0,13877,1,0,1:0:0:0:
192,0,13942,1,0,1:0:0:0:
64,0,14008,1,0,1:0:0:0:
320,0,14073,1,0,1:0:0:0:
448,0,14073,1,0,1:0:0:0:
64,0,14138,1,0,1:0:0:0:
192,0,14203,1,0,1:0:0:0:
320,0,14269,1,0,1:0:0:0:
64,0,14334,1,0,1:0:0:0:
448,0,14334,1,0,1:0:0:0:
192,0,14399,1,0,1:0:0:0:
320,0,14464,1,0,1:0:0:0:
448,0,14464,1,0,1:0:0:0:
192,0,14529,1,0,1:0:0:0:
320,0,14595,1,0,1:0:0:0:
448,0,14595,1,0,1:0:0:0:
192,0,14660,1,0,1:0:0:0:
64,0,14725,1,0,1:0:0:0:
320,0,14790,1,0,1:0:0:0:
192,0,14855,1,0,1:0:0:0:
448,0,14855,1,0,1:0:0:0:
64,0,14921,1,0,1:0:0:0:
192,0,14986,1,0,1:0:0:0:
320,0,15051,1,0,1:0:0:0:
64,0,15116,1,0,1:0:0:0:
448,0,15116,1,0,1:0:0:0:
192,0,15182,1,0,1:0:0:0:
64,0,15247,1,0,1:0:0:0:
320,0,15312,1,0,1:0:0:0:
192,0,15377,1,0,1:0:0:0:
448,0,15377,1,0,1:0:0:0:
64,0,15442,1,0,1:0:0:0:
320,0,15508,1,0,1:0:0:0:
448,0,15573,1,0,1:0:0:0:
192,0,15638,1,0,1:0:0:0:
320,0,15638,1,0,1:0:0:0:
64,0,15703,1,0,1:0:0:0:
448,0,15769,1,0,1:0:0:0:
320,0,15834,1,0,1:0:0:0:
64,0,15899,1,0,1:0:0:0:
192,0,15899,1,0,1:0:0:0:
320,0,15964,1,0,1:0:0:0:
64,0,16029,1,0,1:0:0:0:
448,0,16095,1,0,1:0:0:0:
192,0,16160,1,0,1:0:0:0:
320,0,16160,1,0,1:0:0:0:
448,0,16225,1,0,1:0:0:0:
64,0,16290,1,0,1:0:0:0:
192,0,16355,1,0,1:0:0:0:
320,0,16421,1,0,1:0:0:0:
448,0,16421,1,0,1:0:0:0:
64,0,16486,1,0,1:0:0:0:
448,0,16551,1,0,1:0:0:0:
320,0,16616,1,0,1:0:0:0:
64,0,16682,1,0,1:0:0:0:
192,0,16682,1,0,1:0:0:0:
320,0,16747,1,0,1:0:0:0:
192,0,16812,1,0,1:0:0:0:
448,0,16877,1,0,1:0:0:0:
64,0,16942,1,0,1:0:0:0:
320,0,16942,1,0,1:0:0:0:
192,0,17008,1,0,1:0:0:0:
320,0,17073,1,0,1:0:0:0:
192,0,17138,1,0,1:0:0:0:
64,0,17203,1,0,1:0:0:0:
448,0,17203,1,0,1:0:0:0:
320,0,17269,1,0,1:0:0:0:
448,0,17334,1,0,1:0:0:0:
192,0,17399,1,0,1:0:0:0:
64,0,17464,1,0,1:0:0:0:
320,0,17464,1,0,1:0:0:0:
448,0,17529,1,0,1:0:0:0:
192,0,17595,1,0,1:0:0:0:
320,0,17660,1,0,1:0:0:0:
64,0,17725,128,0,17790:0:0:0:0:
192,0,17725,1,0,1:0:0:0:
448,0,17725,1,0,1:0:0:0:
320,0,17790,1,0,1:0:0:0:
192,0,17855,1,0,1:0:0:0:
64,0,17921,1,0,1:0:0:0:
192,0,17986,128,0,18051:0:0:0:0:
320,0,18051,1,0,1:0:0:0:
448,0,18116,1,0,1:0:0:0:
192,0,18182,1,0,1:0:0:0:
64,0,18247,1,0,1:0:0:0:
320,0,18247,128,0,18312:0:0:0:0:
448,0,18312,1,0,1:0:0:0:
192,0,18377,1,0,1:0:0:0:
320,0,18442,1,0,1:0:0:0:
64,0,18508,1,0,1:0:0:0:
192,0,18508,1,0,1:0:0:0:
448,0,18508,128,0,18573:0:0:0:0:
320,0,18573,1,0,1:0:0:0:
64,0,18638,1,0,1:0:0:0:
192,0,18682,1,0,1:0:0:0:
64,0,18769,1,0,1:0:0:0:
320,0,18769,1,0,1:0:0:0:
448,0,18769,1,0,1:0:0:0:
192,0,18834,1,0,1:0:0:0:
320,0,18899,1,0,1:0:0:0:
448,0,18964,1,0,1:0:0:0:
64,0,19029,1,0,1:0:0:0:
192,0,19029,1,0,1:0:0:0:
448,0,19095,1,0,1:0:0:0:
320,0,19160,1,0,1:0:0:0:
192,0,19225,1,0,1:0:0:0:
64,0,19290,1,0,1:0:0:0:
448,0,19290,1,0,1:0:0:0:
320,0,19355,1,0,1:0:0:0:
448,0,19421,1,0,1:0:0:0:
320,0,19486,1,0,1:0:0:0:
192,0,19551,1,0,1:0:0:0:
448,0,19551,1,0,1:0:0:0:
64,0,19616,1,0,1:0:0:0:
192,0,19682,1,0,1:0:0:0:
64,0,19747,1,0,1:0:0:0:
192,0,19812,1,0,1:0:0:0:
320,0,19812,1,0,1:0:0:0:
448,0,19877,1,0,1:0:0:0:
64,0,19942,1,0,1:0:0:0:
192,0,20008,1,0,1:0:0:0:
320,0,20073,1,0,1:0:0:0:
448,0,20073,1,0,1:0:0:0:
64,0,20138,1,0,1:0:0:0:
192,0,20203,1,0,1:0:0:0:
320,0,20269,1,0,1:0:0:0:
64,0,20334,1,0,1:0:0:0:
448,0,20334,1,0,1:0:0:0:
192,0,20399,1,0,1:0:0:0:
64,0,20464,1,0,1:0:0:0:
192,0,20529,1,0,1:0:0:0:
64,0,20595,1,0,1:0:0:0:
320,0,20595,1,0,1:0:0:0:
448,0,20660,1,0,1:0:0:0:
320,0,20725,1,0,1:0:0:0:
448,0,20790,1,0,1:0:0:0:
192,0,20855,1,0,1:0:0:0:
320,0,20855,1,0,1:0:0:0:
64,0,20921,1,0,1:0:0:0:
192,0,20986,1,0,1:0:0:0:
320,0,21051,1,0,1:0:0:0:
64,0,21116,1,0,1:0:0:0:
448,0,21116,1,0,1:0:0:0:
192,0,21182,1,0,1:0:0:0:
320,0,21247,1,0,1:0:0:0:
64,0,21312,1,0,1:0:0:0:
192,0,21377,1,0,1:0:0:0:
448,0,21377,1,0,1:0:0:0:
320,0,21442,1,0,1:0:0:0:
448,0,21508,1,0,1:0:0:0:
320,0,21573,1,0,1:0:0:0:
192,0,21638,1,0,1:0:0:0:
448,0,21638,1,0,1:0:0:0:
64,0,21703,1,0,1:0:0:0:
192,0,21769,1,0,1:0:0:0:
64,0,21834,1,0,1:0:0:0:
320,0,21899,1,0,1:0:0:0:
448,0,21899,1,0,1:0:0:0:
192,0,21964,1,0,1:0:0:0:
64,0,22029,1,0,1:0:0:0:
320,0,22095,1,0,1:0:0:0:
64,0,22160,1,0,1:0:0:0:
448,0,22160,1,0,1:0:0:0:
192,0,22225,1,0,1:0:0:0:
320,0,22290,1,0,1:0:0:0:
448,0,22355,1,0,1:0:0:0:
192,0,22421,1,0,1:0:0:0:
320,0,22421,1,0,1:0:0:0:
64,0,22486,1,0,1:0:0:0:
192,0,22551,1,0,1:0:0:0:
320,0,22616,1,0,1:0:0:0:
64,0,22682,1,0,1:0:0:0:
448,0,22682,1,0,1:0:0:0:
192,0,22747,1,0,1:0:0:0:
320,0,22812,1,0,1:0:0:0:
448,0,22812,1,0,1:0:0:0:
192,0,22877,1,0,1:0:0:0:
64,0,22942,1,0,1:0:0:0:
448,0,22942,1,0,1:0:0:0:
320,0,23008,1,0,1:0:0:0:
192,0,23073,1,0,1:0:0:0:
320,0,23138,1,0,1:0:0:0:
64,0,23203,1,0,1:0:0:0:
448,0,23203,1,0,1:0:0:0:
192,0,23269,1,0,1:0:0:0:
320,0,23334,1,0,1:0:0:0:
448,0,23399,1,0,1:0:0:0:
64,0,23464,1,0,1:0:0:0:
320,0,23464,1,0,1:0:0:0:
192,0,23529,1,0,1:0:0:0:
64,0,23595,1,0,1:0:0:0:
192,0,23660,1,0,1:0:0:0:
64,0,23725,1,0,1:0:0:0:
448,0,23725,1,0,1:0:0:0:
320,0,23790,1,0,1:0:0:0:
448,0,23855,1,0,1:0:0:0:
320,0,23921,1,0,1:0:0:0:
64,0,23986,1,0,1:0:0:0:
192,0,23986,1,0,1:0:0:0:
448,0,24051,1,0,1:0:0:0:
320,0,24116,1,0,1:0:0:0:
192,0,24182,1,0,1:0:0:0:
64,0,24247,1,0,1:0:0:0:
448,0,24247,1,0,1:0:0:0:
320,0,24312,1,0,1:0:0:0:
192,0,24377,1,0,1:0:0:0:
64,0,24442,1,0,1:0:0:0:
192,0,24508,1,0,1:0:0:0:
448,0,24508,1,0,1:0:0:0:
320,0,24573,1,0,1:0:0:0:
448,0,24638,1,0,1:0:0:0:
320,0,24703,1,0,1:0:0:0:
64,0,24769,1,0,1:0:0:0:
448,0,24769,1,0,1:0:0:0:
192,0,24834,1,0,1:0:0:0:
64,0,24899,1,0,1:0:0:0:
192,0,24964,1,0,1:0:0:0:
320,0,25029,1,0,1:0:0:0:
448,0,25029,1,0,1:0:0:0:
64,0,25095,1,0,1:0:0:0:
320,0,25160,1,0,1:0:0:0:
192,0,25225,1,0,1:0:0:0:
64,0,25290,1,0,1:0:0:0:
448,0,25290,1,0,1:0:0:0:
320,0,25355,1,0,1:0:0:0:
192,0,25421,1,0,1:0:0:0:
320,0,25486,1,0,1:0:0:0:
64,0,25551,1,0,1:0:0:0:
448,0,25551,1,0,1:0:0:0:
192,0,25616,1,0,1:0:0:0:
64,0,25682,1,0,1:0:0:0:
192,0,25747,1,0,1:0:0:0:
64,0,25812,1,0,1:0:0:0:
448,0,25812,1,0,1:0:0:0:
320,0,25877,1,0,1:0:0:0:
448,0,25942,1,0,1:0:0:0:
320,0,26008,1,0,1:0:0:0:
192,0,26073,1,0,1:0:0:0:
448,0,26073,1,0,1:0:0:0:
64,0,26138,1,0,1:0:0:0:
320,0,26203,1,0,1:0:0:0:
192,0,26269,1,0,1:0:0:0:
320,0,26334,1,0,1:0:0:0:
448,0,26334,1,0,1:0:0:0:
64,0,26399,1,0,1:0:0:0:
192,0,26464,1,0,1:0:0:0:
320,0,26529,1,0,1:0:0:0:
64,0,26595,1,0,1:0:0:0:
448,0,26595,1,0,1:0:0:0:
320,0,26660,1,0,1:0:0:0:
192,0,26725,1,0,1:0:0:0:
64,0,26790,1,0,1:0:0:0:
320,0,26855,1,0,1:0:0:0:
448,0,26855,1,0,1:0:0:0:
64,0,26921,1,0,1:0:0:0:
320,0,26986,1,0,1:0:0:0:
448,0,26986,1,0,1:0:0:0:
64,0,27051,1,0,1:0:0:0:
192,0,27116,1,0,1:0:0:0:
320,0,27116,1,0,1:0:0:0:
448,0,27116,1,0,1:0:0:0:
64,0,27182,1,0,1:0:0:0:
192,0,27247,1,0,1:0:0:0:
448,0,27312,1,0,1:0:0:0:
64,0,27377,1,0,1:0:0:0:
320,0,27377,1,0,1:0:0:0:
192,0,27442,1,0,1:0:0:0:
448,0,27508,1,0,1:0:0:0:
320,0,27573,1,0,1:0:0:0:
64,0,27638,1,0,1:0:0:0:
448,0,27638,1,0,1:0:0:0:
192,0,27703,1,0,1:0:0:0:
64,0,27769,1,0,1:0:0:0:
192,0,27834,1,0,1:0:0:0:
64,0,27899,1,0,1:0:0:0:
320,0,27899,1,0,1:0:0:0:
448,0,27964,1,0,1:0:0:0:
320,0,28029,1,0,1:0:0:0:
448,0,28095,1,0,1:0:0:0:
192,0,28160,1,0,1:0:0:0:
320,0,28160,1,0,1:0:0:0:
64,0,28225,1,0,1:0:0:0:
448,0,28290,1,0,1:0:0:0:
320,0,28355,1,0,1:0:0:0:
64,0,28421,1,0,1:0:0:0:
192,0,28421,1,0,1:0:0:0:
448,0,28486,1,0,1:0:0:0:
320,0,28551,1,0,1:0:0:0:
192,0,28616,1,0,1:0:0:0:
64,0,28682,1,0,1:0:0:0:
448,0,28682,1,0,1:0:0:0:
320,0,28747,1,0,1:0:0:0:
448,0,28812,1,0,1:0:0:0:
320,0,28877,1,0,1:0:0:0:
192,0,28942,1,0,1:0:0:0:
448,0,28942,1,0,1:0:0:0:
64,0,29008,1,0,1:0:0:0:
192,0,29073,1,0,1:0:0:0:
64,0,29138,1,0,1:0:0:0:
192,0,29203,1,0,1:0:0:0:
320,0,29203,1,0,1:0:0:0:
448,0,29269,1,0,1:0:0:0:
320,0,29334,1,0,1:0:0:0:
192,0,29399,1,0,1:0:0:0:
64,0,29464,1,0,1:0:0:0:
448,0,29464,1,0,1:0:0:0:
320,0,29529,1,0,1:0:0:0:
192,0,29595,1,0,1:0:0:0:
448,0,29660,1,0,1:0:0:0:
64,0,29725,1,0,1:0:0:0:
320,0,29725,1,0,1:0:0:0:
192,0,29790,1,0,1:0:0:0:
64,0,29855,1,0,1:0:0:0:
192,0,29921,1,0,1:0:0:0:
64,0,29986,1,0,1:0:0:0:
320,0,29986,1,0,1:0:0:0:
448,0,30051,1,0,1:0:0:0:
320,0,30116,1,0,1:0:0:0:
448,0,30182,1,0,1:0:0:0:
64,0,30247,1,0,1:0:0:0:
192,0,30247,1,0,1:0:0:0:
320,0,30247,1,0,1:0:0:0:
448,0,30312,1,0,1:0:0:0:
64,0,30377,1,0,1:0:0:0:
192,0,30442,1,0,1:0:0:0:
320,0,30508,1,0,1:0:0:0:
448,0,30508,1,0,1:0:0:0:
192,0,30573,1,0,1:0:0:0:
64,0,30638,1,0,1:0:0:0:
448,0,30703,1,0,1:0:0:0:
192,0,30769,1,0,1:0:0:0:
320,0,30769,1,0,1:0:0:0:
448,0,30834,1,0,1:0:0:0:
64,0,30899,1,0,1:0:0:0:
192,0,30964,1,0,1:0:0:0:
320,0,31029,1,0,1:0:0:0:
448,0,31029,1,0,1:0:0:0:
192,0,31095,1,0,1:0:0:0:
64,0,31160,1,0,1:0:0:0:
448,0,31160,1,0,1:0:0:0:
320,0,31225,1,0,1:0:0:0:
64,0,31290,1,0,1:0:0:0:
192,0,31290,1,0,1:0:0:0:
448,0,31290,1,0,1:0:0:0:
320,0,31355,1,0,1:0:0:0:
192,0,31421,1,0,1:0:0:0:
64,0,31486,1,0,1:0:0:0:
320,0,31551,1,0,1:0:0:0:
448,0,31551,1,0,1:0:0:0:
192,0,31616,1,0,1:0:0:0:
320,0,31682,1,0,1:0:0:0:
64,0,31747,1,0,1:0:0:0:
192,0,31812,1,0,1:0:0:0:
448,0,31812,1,0,1:0:0:0:
320,0,31877,1,0,1:0:0:0:
448,0,31942,1,0,1:0:0:0:
320,0,32008,1,0,1:0:0:0:
64,0,32073,1,0,1:0:0:0:
448,0,32073,1,0,1:0:0:0:
192,0,32138,1,0,1:0:0:0:
64,0,32203,1,0,1:0:0:0:
192,0,32269,1,0,1:0:0:0:
320,0,32334,1,0,1:0:0:0:
448,0,32334,1,0,1:0:0:0:
64,0,32399,1,0,1:0:0:0:
192,0,32464,1,0,1:0:0:0:
320,0,32529,1,0,1:0:0:0:
64,0,32595,1,0,1:0:0:0:
448,0,32595,1,0,1:0:0:0:
192,0,32660,1,0,1:0:0:0:
320,0,32725,1,0,1:0:0:0:
448,0,32790,1,0,1:0:0:0:
64,0,32855,1,0,1:0:0:0:
320,0,32855,1,0,1:0:0:0:
192,0,32921,1,0,1:0:0:0:
64,0,32986,1,0,1:0:0:0:
192,0,33051,1,0,1:0:0:0:
64,0,33116,1,0,1:0:0:0:
448,0,33116,1,0,1:0:0:0:
320,0,33182,1,0,1:0:0:0:
448,0,33247,1,0,1:0:0:0:
320,0,33312,1,0,1:0:0:0:
64,0,33377,1,0,1:0:0:0:
192,0,33377,1,0,1:0:0:0:
448,0,33377,1,0,1:0:0:0:
320,0,33442,1,0,1:0:0:0:
192,0,33508,1,0,1:0:0:0:
64,0,33573,1,0,1:0:0:0:
320,0,33638,1,0,1:0:0:0:
448,0,33638,1,0,1:0:0:0:
192,0,33703,1,0,1:0:0:0:
320,0,33769,1,0,1:0:0:0:
192,0,33834,1,0,1:0:0:0:
64,0,33899,1,0,1:0:0:0:
448,0,33899,1,0,1:0:0:0:
320,0,33964,1,0,1:0:0:0:
448,0,34029,1,0,1:0:0:0:
320,0,34095,1,0,1:0:0:0:
64,0,34160,1,0,1:0:0:0:
448,0,34160,1,0,1:0:0:0:
192,0,34225,1,0,1:0:0:0:
64,0,34290,1,0,1:0:0:0:
192,0,34355,1,0,1:0:0:0:
64,0,34421,1,0,1:0:0:0:
320,0,34421,1,0,1:0:0:0:
448,0,34421,1,0,1:0:0:0:
192,0,34486,1,0,1:0:0:0:
320,0,34551,1,0,1:0:0:0:
448,0,34616,1,0,1:0:0:0:
64,0,34682,1,0,1:0:0:0:
320,0,34747,1,0,1:0:0:0:
448,0,34812,1,0,1:0:0:0:
192,0,34877,1,0,1:0:0:0:
64,0,34942,1,0,1:0:0:0:
320,0,34942,1,0,1:0:0:0:
448,0,35008,1,0,1:0:0:0:
64,0,35073,1,0,1:0:0:0:
192,0,35138,1,0,1:0:0:0:
64,0,35203,1,0,1:0:0:0:
320,0,35203,1,0,1:0:0:0:
448,0,35203,1,0,1:0:0:0:
192,0,35269,1,0,1:0:0:0:
448,0,35334,1,0,1:0:0:0:
320,0,35377,1,0,1:0:0:0:
64,0,35464,1,0,1:0:0:0:
192,0,35464,1,0,1:0:0:0:
448,0,35464,1,0,1:0:0:0:
192,0,35595,1,0,1:0:0:0:
448,0,35725,1,0,1:0:0:0:
448,0,35855,1,0,1:0:0:0:
192,0,36247,1,0,1:0:0:0:
64,0,36508,1,0,1:0:0:0:
448,0,36769,1,0,1:0:0:0:
448,0,36899,1,0,1:0:0:0:
192,0,37551,1,0,1:0:0:0:
448,0,37812,1,0,1:0:0:0:
448,0,37942,1,0,1:0:0:0:
320,0,38269,128,0,38529:0:0:0:0:
448,0,38595,1,0,1:0:0:0:
448,0,39116,1,0,1:0:0:0:
448,0,39247,1,0,1:0:0:0:
448,0,39377,1,0,1:0:0:0:
448,0,39508,1,0,1:0:0:0:
192,0,39638,1,0,1:0:0:0:
320,0,39638,1,0,1:0:0:0:
192,0,39769,1,0,1:0:0:0:
64,0,39899,1,0,1:0:0:0:
64,0,40029,1,0,1:0:0:0:
192,0,40421,1,0,1:0:0:0:
448,0,40682,1,0,1:0:0:0:
64,0,40942,1,0,1:0:0:0:
64,0,41073,1,0,1:0:0:0:
192,0,41725,1,0,1:0:0:0:
64,0,41986,1,0,1:0:0:0:
64,0,42116,1,0,1:0:0:0:
320,0,42442,128,0,42703:0:0:0:0:
64,0,42769,1,0,1:0:0:0:
64,0,43290,1,0,1:0:0:0:
64,0,43421,1,0,1:0:0:0:
64,0,43551,1,0,1:0:0:0:
64,0,43682,1,0,1:0:0:0:
192,0,43812,1,0,1:0:0:0:
448,0,43812,1,0,1:0:0:0:
192,0,43942,1,0,1:0:0:0:
448,0,44334,1,0,1:0:0:0:
192,0,44595,1,0,1:0:0:0:
64,0,44855,1,0,1:0:0:0:
448,0,44855,1,0,1:0:0:0:
64,0,44986,1,0,1:0:0:0:
64,0,45116,1,0,1:0:0:0:
64,0,45377,128,0,45638:0:0:0:0:
448,0,45377,1,0,1:0:0:0:
64,0,45899,1,0,1:0:0:0:
192,0,45899,1,0,1:0:0:0:
64,0,46421,1,0,1:0:0:0:
320,0,46616,128,0,46877:0:0:0:0:
64,0,46942,1,0,1:0:0:0:
448,0,46942,1,0,1:0:0:0:
448,0,47073,1,0,1:0:0:0:
448,0,47203,1,0,1:0:0:0:
448,0,47334,1,0,1:0:0:0:
64,0,47464,1,0,1:0:0:0:
448,0,47464,128,0,47725:0:0:0:0:
64,0,47595,1,0,1:0:0:0:
64,0,47725,1,0,1:0:0:0:
64,0,47855,1,0,1:0:0:0:
192,0,47986,1,0,1:0:0:0:
448,0,47986,1,0,1:0:0:0:
192,0,48116,1,0,1:0:0:0:
448,0,48508,1,0,1:0:0:0:
192,0,48769,1,0,1:0:0:0:
64,0,49029,1,0,1:0:0:0:
448,0,49029,1,0,1:0:0:0:
64,0,49160,1,0,1:0:0:0:
64,0,49290,1,0,1:0:0:0:
64,0,49551,128,0,49812:0:0:0:0:
448,0,49551,1,0,1:0:0:0:
64,0,50073,1,0,1:0:0:0:
192,0,50073,1,0,1:0:0:0:
64,0,50595,1,0,1:0:0:0:
320,0,50790,128,0,51051:0:0:0:0:
64,0,51116,128,0,51182:0:0:0:0:
320,0,51182,1,0,1:0:0:0:
192,0,51247,1,0,1:0:0:0:
320,0,51312,1,0,1:0:0:0:
64,0,51377,128,0,51442:0:0:0:0:
448,0,51442,1,0,1:0:0:0:
192,0,51508,1,0,1:0:0:0:
448,0,51573,1,0,1:0:0:0:
64,0,51638,128,0,51703:0:0:0:0:
320,0,51703,1,0,1:0:0:0:
192,0,51769,1,0,1:0:0:0:
64,0,51899,1,0,1:0:0:0:
192,0,51899,1,0,1:0:0:0:
320,0,51899,1,0,1:0:0:0:
448,0,51899,1,0,1:0:0:0:
64,0,52206,1,0,1:0:0:0:
320,0,52206,1,0,1:0:0:0:
448,0,52206,1,0,1:0:0:0:
192,0,52270,1,0,1:0:0:0:
320,0,52334,1,0,1:0:0:0:
192,0,52398,1,0,1:0:0:0:
64,0,52462,1,0,1:0:0:0:
448,0,52462,1,0,1:0:0:0:
320,0,52525,1,0,1:0:0:0:
192,0,52589,1,0,1:0:0:0:
320,0,52653,1,0,1:0:0:0:
64,0,52717,1,0,1:0:0:0:
448,0,52717,1,0,1:0:0:0:
192,0,52781,1,0,1:0:0:0:
320,0,52845,1,0,1:0:0:0:
448,0,52908,1,0,1:0:0:0:
64,0,52972,1,0,1:0:0:0:
192,0,52972,1,0,1:0:0:0:
448,0,53036,1,0,1:0:0:0:
320,0,53100,1,0,1:0:0:0:
192,0,53164,1,0,1:0:0:0:
64,0,53228,1,0,1:0:0:0:
448,0,53228,1,0,1:0:0:0:
320,0,53291,1,0,1:0:0:0:
64,0,53355,1,0,1:0:0:0:
192,0,53355,1,0,1:0:0:0:
448,0,53419,1,0,1:0:0:0:
192,0,53483,1,0,1:0:0:0:
320,0,53483,1,0,1:0:0:0:
64,0,53547,1,0,1:0:0:0:
448,0,53611,1,0,1:0:0:0:
64,0,53674,1,0,1:0:0:0:
192,0,53738,1,0,1:0:0:0:
320,0,53738,1,0,1:0:0:0:
448,0,53802,1,0,1:0:0:0:
192,0,53866,1,0,1:0:0:0:
448,0,53930,1,0,1:0:0:0:
64,0,53994,1,0,1:0:0:0:
320,0,53994,1,0,1:0:0:0:
192,0,54057,1,0,1:0:0:0:
448,0,54121,1,0,1:0:0:0:
320,0,54185,1,0,1:0:0:0:
64,0,54249,1,0,1:0:0:0:
192,0,54249,1,0,1:0:0:0:
320,0,54313,1,0,1:0:0:0:
448,0,54377,1,0,1:0:0:0:
64,0,54440,1,0,1:0:0:0:
192,0,54504,1,0,1:0:0:0:
320,0,54504,1,0,1:0:0:0:
448,0,54568,1,0,1:0:0:0:
320,0,54632,1,0,1:0:0:0:
192,0,54696,1,0,1:0:0:0:
64,0,54759,1,0,1:0:0:0:
448,0,54759,1,0,1:0:0:0:
320,0,54823,1,0,1:0:0:0:
192,0,54887,1,0,1:0:0:0:
320,0,54951,1,0,1:0:0:0:
64,0,55015,1,0,1:0:0:0:
192,0,55015,1,0,1:0:0:0:
448,0,55079,1,0,1:0:0:0:
320,0,55142,1,0,1:0:0:0:
192,0,55206,1,0,1:0:0:0:
64,0,55270,1,0,1:0:0:0:
448,0,55270,1,0,1:0:0:0:
192,0,55334,1,0,1:0:0:0:
320,0,55398,1,0,1:0:0:0:
448,0,55398,1,0,1:0:0:0:
64,0,55462,1,0,1:0:0:0:
192,0,55525,1,0,1:0:0:0:
320,0,55525,1,0,1:0:0:0:
448,0,55589,1,0,1:0:0:0:
64,0,55653,1,0,1:0:0:0:
192,0,55653,1,0,1:0:0:0:
448,0,55717,1,0,1:0:0:0:
64,0,55781,1,0,1:0:0:0:
320,0,55781,1,0,1:0:0:0:
192,0,55845,1,0,1:0:0:0:
320,0,55908,1,0,1:0:0:0:
192,0,55972,1,0,1:0:0:0:
64,0,56036,1,0,1:0:0:0:
448,0,56036,1,0,1:0:0:0:
320,0,56100,1,0,1:0:0:0:
64,0,56164,1,0,1:0:0:0:
192,0,56164,1,0,1:0:0:0:
320,0,56228,1,0,1:0:0:0:
64,0,56291,1,0,1:0:0:0:
192,0,56291,1,0,1:0:0:0:
320,0,56355,1,0,1:0:0:0:
448,0,56419,1,0,1:0:0:0:
192,0,56483,1,0,1:0:0:0:
320,0,56547,1,0,1:0:0:0:
448,0,56547,1,0,1:0:0:0:
64,0,56611,1,0,1:0:0:0:
192,0,56674,1,0,1:0:0:0:
320,0,56738,1,0,1:0:0:0:
64,0,56802,1,0,1:0:0:0:
448,0,56802,1,0,1:0:0:0:
320,0,56866,1,0,1:0:0:0:
192,0,56930,1,0,1:0:0:0:
64,0,56994,1,0,1:0:0:0:
320,0,57057,1,0,1:0:0:0:
448,0,57057,1,0,1:0:0:0:
192,0,57121,1,0,1:0:0:0:
448,0,57185,1,0,1:0:0:0:
320,0,57249,1,0,1:0:0:0:
64,0,57313,1,0,1:0:0:0:
192,0,57313,1,0,1:0:0:0:
448,0,57377,1,0,1:0:0:0:
64,0,57440,1,0,1:0:0:0:
320,0,57440,1,0,1:0:0:0:
192,0,57504,1,0,1:0:0:0:
320,0,57568,1,0,1:0:0:0:
448,0,57568,1,0,1:0:0:0:
192,0,57632,1,0,1:0:0:0:
64,0,57696,1,0,1:0:0:0:
320,0,57759,1,0,1:0:0:0:
192,0,57823,1,0,1:0:0:0:
448,0,57823,1,0,1:0:0:0:
64,0,57887,1,0,1:0:0:0:
448,0,57951,1,0,1:0:0:0:
64,0,58015,1,0,1:0:0:0:
192,0,58079,1,0,1:0:0:0:
320,0,58079,1,0,1:0:0:0:
448,0,58142,1,0,1:0:0:0:
64,0,58206,1,0,1:0:0:0:
320,0,58270,1,0,1:0:0:0:
64,0,58334,1,0,1:0:0:0:
192,0,58334,1,0,1:0:0:0:
448,0,58398,1,0,1:0:0:0:
320,0,58462,1,0,1:0:0:0:
192,0,58525,1,0,1:0:0:0:
320,0,58589,1,0,1:0:0:0:
448,0,58589,1,0,1:0:0:0:
64,0,58653,1,0,1:0:0:0:
192,0,58717,1,0,1:0:0:0:
320,0,58781,1,0,1:0:0:0:
64,0,58845,1,0,1:0:0:0:
448,0,58845,1,0,1:0:0:0:
192,0,58908,1,0,1:0:0:0:
320,0,58972,1,0,1:0:0:0:
192,0,59036,1,0,1:0:0:0:
320,0,59100,1,0,1:0:0:0:
448,0,59100,1,0,1:0:0:0:
64,0,59164,1,0,1:0:0:0:
192,0,59228,1,0,1:0:0:0:
320,0,59291,1,0,1:0:0:0:
64,0,59355,1,0,1:0:0:0:
448,0,59355,1,0,1:0:0:0:
192,0,59419,1,0,1:0:0:0:
320,0,59483,1,0,1:0:0:0:
448,0,59483,1,0,1:0:0:0:
64,0,59547,1,0,1:0:0:0:
192,0,59611,1,0,1:0:0:0:
448,0,59611,1,0,1:0:0:0:
320,0,59674,1,0,1:0:0:0:
64,0,59738,1,0,1:0:0:0:
192,0,59738,1,0,1:0:0:0:
320,0,59802,1,0,1:0:0:0:
64,0,59866,1,0,1:0:0:0:
448,0,59866,1,0,1:0:0:0:
192,0,59930,1,0,1:0:0:0:
320,0,59994,1,0,1:0:0:0:
448,0,60057,1,0,1:0:0:0:
64,0,60121,1,0,1:0:0:0:
192,0,60121,1,0,1:0:0:0:
320,0,60185,1,0,1:0:0:0:
64,0,60249,1,0,1:0:0:0:
192,0,60249,1,0,1:0:0:0:
320,0,60313,1,0,1:0:0:0:
64,0,60377,1,0,1:0:0:0:
192,0,60377,1,0,1:0:0:0:
448,0,60377,1,0,1:0:0:0:
320,0,60440,1,0,1:0:0:0:
192,0,60504,1,0,1:0:0:0:
320,0,60568,1,0,1:0:0:0:
64,0,60632,1,0,1:0:0:0:
448,0,60632,1,0,1:0:0:0:
192,0,60696,1,0,1:0:0:0:
320,0,60759,1,0,1:0:0:0:
192,0,60823,1,0,1:0:0:0:
64,0,60887,1,0,1:0:0:0:
448,0,60887,1,0,1:0:0:0:
320,0,60951,1,0,1:0:0:0:
192,0,61015,1,0,1:0:0:0:
64,0,61079,1,0,1:0:0:0:
320,0,61142,1,0,1:0:0:0:
448,0,61142,1,0,1:0:0:0:
64,0,61206,1,0,1:0:0:0:
192,0,61270,1,0,1:0:0:0:
320,0,61334,1,0,1:0:0:0:
64,0,61398,1,0,1:0:0:0:
448,0,61398,1,0,1:0:0:0:
192,0,61462,1,0,1:0:0:0:
320,0,61525,1,0,1:0:0:0:
448,0,61525,1,0,1:0:0:0:
64,0,61589,1,0,1:0:0:0:
192,0,61653,1,0,1:0:0:0:
320,0,61653,1,0,1:0:0:0:
448,0,61717,1,0,1:0:0:0:
64,0,61781,1,0,1:0:0:0:
448,0,61845,1,0,1:0:0:0:
192,0,61908,1,0,1:0:0:0:
320,0,61908,1,0,1:0:0:0:
64,0,61972,1,0,1:0:0:0:
320,0,62036,1,0,1:0:0:0:
64,0,62100,1,0,1:0:0:0:
192,0,62164,1,0,1:0:0:0:
448,0,62164,1,0,1:0:0:0:
320,0,62228,1,0,1:0:0:0:
64,0,62291,1,0,1:0:0:0:
192,0,62355,1,0,1:0:0:0:
320,0,62419,1,0,1:0:0:0:
448,0,62419,1,0,1:0:0:0:
192,0,62483,1,0,1:0:0:0:
64,0,62547,1,0,1:0:0:0:
448,0,62611,1,0,1:0:0:0:
192,0,62674,1,0,1:0:0:0:
320,0,62674,1,0,1:0:0:0:
64,0,62738,1,0,1:0:0:0:
192,0,62802,1,0,1:0:0:0:
320,0,62866,1,0,1:0:0:0:
64,0,62930,1,0,1:0:0:0:
448,0,62930,1,0,1:0:0:0:
192,0,62994,1,0,1:0:0:0:
320,0,63057,1,0,1:0:0:0:
192,0,63121,1,0,1:0:0:0:
320,0,63185,1,0,1:0:0:0:
448,0,63185,1,0,1:0:0:0:
64,0,63249,1,0,1:0:0:0:
192,0,63313,1,0,1:0:0:0:
320,0,63377,1,0,1:0:0:0:
64,0,63440,1,0,1:0:0:0:
448,0,63440,1,0,1:0:0:0:
320,0,63504,1,0,1:0:0:0:
64,0,63568,1,0,1:0:0:0:
192,0,63568,1,0,1:0:0:0:
448,0,63632,1,0,1:0:0:0:
192,0,63696,1,0,1:0:0:0:
320,0,63696,1,0,1:0:0:0:
64,0,63759,1,0,1:0:0:0:
320,0,63823,1,0,1:0:0:0:
448,0,63823,1,0,1:0:0:0:
64,0,63887,1,0,1:0:0:0:
192,0,63951,1,0,1:0:0:0:
448,0,63951,1,0,1:0:0:0:
320,0,64015,1,0,1:0:0:0:
192,0,64079,1,0,1:0:0:0:
320,0,64142,1,0,1:0:0:0:
64,0,64206,1,0,1:0:0:0:
448,0,64206,1,0,1:0:0:0:
192,0,64270,1,0,1:0:0:0:
320,0,64334,1,0,1:0:0:0:
448,0,64334,1,0,1:0:0:0:
192,0,64398,1,0,1:0:0:0:
320,0,64462,1,0,1:0:0:0:
448,0,64462,1,0,1:0:0:0:
192,0,64525,1,0,1:0:0:0:
64,0,64589,1,0,1:0:0:0:
320,0,64653,1,0,1:0:0:0:
64,0,64717,1,0,1:0:0:0:
192,0,64717,1,0,1:0:0:0:
448,0,64781,1,0,1:0:0:0:
320,0,64845,1,0,1:0:0:0:
192,0,64908,1,0,1:0:0:0:
64,0,64972,1,0,1:0:0:0:
448,0,64972,1,0,1:0:0:0:
192,0,65036,1,0,1:0:0:0:
320,0,65100,1,0,1:0:0:0:
448,0,65164,1,0,1:0:0:0:
64,0,65228,1,0,1:0:0:0:
192,0,65228,1,0,1:0:0:0:
320,0,65291,1,0,1:0:0:0:
64,0,65355,1,0,1:0:0:0:
192,0,65419,1,0,1:0:0:0:
320,0,65483,1,0,1:0:0:0:
448,0,65483,1,0,1:0:0:0:
64,0,65547,1,0,1:0:0:0:
192,0,65611,1,0,1:0:0:0:
448,0,65611,1,0,1:0:0:0:
320,0,65674,1,0,1:0:0:0:
64,0,65738,1,0,1:0:0:0:
192,0,65738,1,0,1:0:0:0:
320,0,65802,1,0,1:0:0:0:
448,0,65866,1,0,1:0:0:0:
192,0,65930,1,0,1:0:0:0:
64,0,65994,1,0,1:0:0:0:
320,0,65994,1,0,1:0:0:0:
448,0,66057,1,0,1:0:0:0:
64,0,66121,1,0,1:0:0:0:
448,0,66185,1,0,1:0:0:0:
192,0,66249,1,0,1:0:0:0:
320,0,66249,1,0,1:0:0:0:
64,0,66313,1,0,1:0:0:0:
192,0,66377,1,0,1:0:0:0:
320,0,66440,1,0,1:0:0:0:
64,0,66504,1,0,1:0:0:0:
448,0,66504,1,0,1:0:0:0:
192,0,66568,1,0,1:0:0:0:
320,0,66632,1,0,1:0:0:0:
448,0,66696,1,0,1:0:0:0:
64,0,66759,1,0,1:0:0:0:
192,0,66759,1,0,1:0:0:0:
448,0,66823,1,0,1:0:0:0:
320,0,66887,1,0,1:0:0:0:
192,0,66951,1,0,1:0:0:0:
64,0,67015,1,0,1:0:0:0:
448,0,67015,1,0,1:0:0:0:
320,0,67079,1,0,1:0:0:0:
192,0,67142,1,0,1:0:0:0:
320,0,67206,1,0,1:0:0:0:
64,0,67270,1,0,1:0:0:0:
192,0,67270,1,0,1:0:0:0:
448,0,67334,1,0,1:0:0:0:
320,0,67398,1,0,1:0:0:0:
192,0,67462,1,0,1:0:0:0:
64,0,67525,1,0,1:0:0:0:
320,0,67525,1,0,1:0:0:0:
448,0,67525,1,0,1:0:0:0:
192,0,67589,1,0,1:0:0:0:
320,0,67653,1,0,1:0:0:0:
448,0,67717,1,0,1:0:0:0:
64,0,67781,1,0,1:0:0:0:
192,0,67845,1,0,1:0:0:0:
448,0,67908,1,0,1:0:0:0:
320,0,67972,1,0,1:0:0:0:
64,0,68036,1,0,1:0:0:0:
192,0,68036,1,0,1:0:0:0:
448,0,68036,1,0,1:0:0:0:
320,0,68100,1,0,1:0:0:0:
64,0,68164,1,0,1:0:0:0:
192,0,68228,1,0,1:0:0:0:
64,0,68291,1,0,1:0:0:0:
320,0,68291,1,0,1:0:0:0:
448,0,68291,1,0,1:0:0:0:
192,0,68355,1,0,1:0:0:0:
448,0,68419,1,0,1:0:0:0:
320,0,68483,1,0,1:0:0:0:
64,0,68547,1,0,1:0:0:0:
192,0,68547,1,0,1:0:0:0:
448,0,68547,1,0,1:0:0:0:
320,0,68609,1,0,1:0:0:0:
64,0,68672,1,0,1:0:0:0:
192,0,68672,1,0,1:0:0:0:
448,0,68734,1,0,1:0:0:0:
64,0,68797,1,0,1:0:0:0:
320,0,68797,1,0,1:0:0:0:
192,0,68859,1,0,1:0:0:0:
448,0,68922,1,0,1:0:0:0:
320,0,68984,1,0,1:0:0:0:
64,0,69047,1,0,1:0:0:0:
448,0,69047,1,0,1:0:0:0:
192,0,69109,1,0,1:0:0:0:
64,0,69172,1,0,1:0:0:0:
192,0,69234,1,0,1:0:0:0:
320,0,69297,1,0,1:0:0:0:
448,0,69297,1,0,1:0:0:0:
64,0,69359,1,0,1:0:0:0:
192,0,69422,1,0,1:0:0:0:
320,0,69484,1,0,1:0:0:0:
64,0,69547,1,0,1:0:0:0:
192,0,69547,1,0,1:0:0:0:
448,0,69609,1,0,1:0:0:0:
64,0,69672,1,0,1:0:0:0:
320,0,69672,1,0,1:0:0:0:
192,0,69734,1,0,1:0:0:0:
64,0,69797,1,0,1:0:0:0:
448,0,69797,1,0,1:0:0:0:
320,0,69859,1,0,1:0:0:0:
192,0,69922,1,0,1:0:0:0:
64,0,69984,1,0,1:0:0:0:
192,0,70047,1,0,1:0:0:0:
448,0,70047,1,0,1:0:0:0:
320,0,70109,1,0,1:0:0:0:
448,0,70172,1,0,1:0:0:0:
320,0,70234,1,0,1:0:0:0:
64,0,70297,1,0,1:0:0:0:
192,0,70297,1,0,1:0:0:0:
448,0,70359,1,0,1:0:0:0:
320,0,70422,1,0,1:0:0:0:
192,0,70484,1,0,1:0:0:0:
64,0,70547,1,0,1:0:0:0:
448,0,70547,1,0,1:0:0:0:
192,0,70609,1,0,1:0:0:0:
320,0,70672,1,0,1:0:0:0:
64,0,70734,1,0,1:0:0:0:
192,0,70797,1,0,1:0:0:0:
448,0,70797,1,0,1:0:0:0:
320,0,70859,1,0,1:0:0:0:
192,0,70922,1,0,1:0:0:0:
320,0,70984,1,0,1:0:0:0:
64,0,71047,1,0,1:0:0:0:
448,0,71047,1,0,1:0:0:0:
192,0,71109,1,0,1:0:0:0:
64,0,71172,1,0,1:0:0:0:
192,0,71234,1,0,1:0:0:0:
448,0,71234,1,0,1:0:0:0:
64,0,71297,1,0,1:0:0:0:
320,0,71297,1,0,1:0:0:0:
448,0,71359,1,0,1:0:0:0:
192,0,71422,1,0,1:0:0:0:
320,0,71484,1,0,1:0:0:0:
64,0,71547,1,0,1:0:0:0:
448,0,71547,1,0,1:0:0:0:
192,0,71609,1,0,1:0:0:0:
320,0,71672,1,0,1:0:0:0:
448,0,71672,1,0,1:0:0:0:
64,0,71734,1,0,1:0:0:0:
192,0,71797,1,0,1:0:0:0:
320,0,71797,1,0,1:0:0:0:
448,0,71859,1,0,1:0:0:0:
64,0,71922,1,0,1:0:0:0:
192,0,71922,1,0,1:0:0:0:
320,0,71984,1,0,1:0:0:0:
64,0,72047,1,0,1:0:0:0:
448,0,72047,1,0,1:0:0:0:
192,0,72109,1,0,1:0:0:0:
64,0,72172,1,0,1:0:0:0:
192,0,72234,1,0,1:0:0:0:
320,0,72297,1,0,1:0:0:0:
448,0,72297,1,0,1:0:0:0:
64,0,72359,1,0,1:0:0:0:
320,0,72422,1,0,1:0:0:0:
448,0,72422,1,0,1:0:0:0:
64,0,72484,1,0,1:0:0:0:
320,0,72547,1,0,1:0:0:0:
448,0,72547,1,0,1:0:0:0:
64,0,72609,1,0,1:0:0:0:
192,0,72672,1,0,1:0:0:0:
320,0,72672,1,0,1:0:0:0:
448,0,72734,1,0,1:0:0:0:
64,0,72797,1,0,1:0:0:0:
192,0,72797,1,0,1:0:0:0:
448,0,72859,1,0,1:0:0:0:
320,0,72922,1,0,1:0:0:0:
64,0,72984,1,0,1:0:0:0:
192,0,73047,1,0,1:0:0:0:
448,0,73047,1,0,1:0:0:0:
320,0,73109,1,0,1:0:0:0:
448,0,73172,1,0,1:0:0:0:
320,0,73234,1,0,1:0:0:0:
64,0,73297,1,0,1:0:0:0:
192,0,73297,1,0,1:0:0:0:
448,0,73359,1,0,1:0:0:0:
64,0,73422,1,0,1:0:0:0:
192,0,73484,1,0,1:0:0:0:
320,0,73547,1,0,1:0:0:0:
448,0,73547,1,0,1:0:0:0:
192,0,73609,1,0,1:0:0:0:
64,0,73672,1,0,1:0:0:0:
320,0,73672,1,0,1:0:0:0:
448,0,73734,1,0,1:0:0:0:
64,0,73797,1,0,1:0:0:0:
192,0,73797,1,0,1:0:0:0:
320,0,73859,1,0,1:0:0:0:
192,0,73922,1,0,1:0:0:0:
448,0,73984,1,0,1:0:0:0:
64,0,74047,1,0,1:0:0:0:
320,0,74047,1,0,1:0:0:0:
192,0,74109,1,0,1:0:0:0:
64,0,74172,1,0,1:0:0:0:
192,0,74234,1,0,1:0:0:0:
320,0,74297,1,0,1:0:0:0:
448,0,74297,1,0,1:0:0:0:
64,0,74359,1,0,1:0:0:0:
192,0,74422,1,0,1:0:0:0:
320,0,74484,1,0,1:0:0:0:
64,0,74547,1,0,1:0:0:0:
448,0,74547,1,0,1:0:0:0:
192,0,74609,1,0,1:0:0:0:
64,0,74672,1,0,1:0:0:0:
448,0,74734,1,0,1:0:0:0:
192,0,74797,1,0,1:0:0:0:
320,0,74797,1,0,1:0:0:0:
448,0,74859,1,0,1:0:0:0:
64,0,74922,1,0,1:0:0:0:
192,0,74984,1,0,1:0:0:0:
64,0,75047,1,0,1:0:0:0:
320,0,75047,1,0,1:0:0:0:
448,0,75109,1,0,1:0:0:0:
320,0,75172,1,0,1:0:0:0:
64,0,75234,1,0,1:0:0:0:
448,0,75234,1,0,1:0:0:0:
192,0,75297,1,0,1:0:0:0:
320,0,75297,1,0,1:0:0:0:
64,0,75359,1,0,1:0:0:0:
448,0,75422,1,0,1:0:0:0:
192,0,75484,1,0,1:0:0:0:
320,0,75547,1,0,1:0:0:0:
448,0,75547,1,0,1:0:0:0:
64,0,75609,1,0,1:0:0:0:
192,0,75672,1,0,1:0:0:0:
448,0,75672,1,0,1:0:0:0:
320,0,75734,1,0,1:0:0:0:
64,0,75797,1,0,1:0:0:0:
192,0,75797,1,0,1:0:0:0:
448,0,75859,1,0,1:0:0:0:
64,0,75922,1,0,1:0:0:0:
320,0,75922,1,0,1:0:0:0:
192,0,75984,1,0,1:0:0:0:
64,0,76047,1,0,1:0:0:0:
448,0,76047,1,0,1:0:0:0:
320,0,76109,1,0,1:0:0:0:
448,0,76172,1,0,1:0:0:0:
320,0,76234,1,0,1:0:0:0:
64,0,76297,1,0,1:0:0:0:
192,0,76297,1,0,1:0:0:0:
448,0,76359,1,0,1:0:0:0:
64,0,76422,1,0,1:0:0:0:
192,0,76422,1,0,1:0:0:0:
448,0,76484,1,0,1:0:0:0:
64,0,76547,1,0,1:0:0:0:
192,0,76547,1,0,1:0:0:0:
448,0,76609,1,0,1:0:0:0:
64,0,76672,1,0,1:0:0:0:
320,0,76672,1,0,1:0:0:0:
192,0,76734,1,0,1:0:0:0:
320,0,76797,1,0,1:0:0:0:
448,0,76797,1,0,1:0:0:0:
64,0,76859,1,0,1:0:0:0:
192,0,76922,1,0,1:0:0:0:
448,0,76984,1,0,1:0:0:0:
64,0,77047,1,0,1:0:0:0:
320,0,77047,1,0,1:0:0:0:
192,0,77109,1,0,1:0:0:0:
64,0,77172,1,0,1:0:0:0:
192,0,77234,1,0,1:0:0:0:
320,0,77297,1,0,1:0:0:0:
448,0,77297,1,0,1:0:0:0:
64,0,77359,1,0,1:0:0:0:
192,0,77422,1,0,1:0:0:0:
320,0,77484,1,0,1:0:0:0:
64,0,77547,1,0,1:0:0:0:
448,0,77547,1,0,1:0:0:0:
320,0,77609,1,0,1:0:0:0:
64,0,77672,1,0,1:0:0:0:
192,0,77672,1,0,1:0:0:0:
448,0,77734,1,0,1:0:0:0:
64,0,77797,1,0,1:0:0:0:
320,0,77797,1,0,1:0:0:0:
192,0,77859,1,0,1:0:0:0:
320,0,77922,1,0,1:0:0:0:
192,0,77984,1,0,1:0:0:0:
64,0,78047,1,0,1:0:0:0:
448,0,78047,1,0,1:0:0:0:
320,0,78109,1,0,1:0:0:0:
448,0,78172,1,0,1:0:0:0:
320,0,78234,1,0,1:0:0:0:
64,0,78297,1,0,1:0:0:0:
192,0,78297,1,0,1:0:0:0:
448,0,78359,1,0,1:0:0:0:
320,0,78422,1,0,1:0:0:0:
64,0,78484,1,0,1:0:0:0:
192,0,78547,1,0,1:0:0:0:
448,0,78547,1,0,1:0:0:0:
320,0,78609,1,0,1:0:0:0:
448,0,78672,1,0,1:0:0:0:
64,0,78734,1,0,1:0:0:0:
192,0,78797,1,0,1:0:0:0:
320,0,78797,1,0,1:0:0:0:
64,0,78859,1,0,1:0:0:0:
448,0,78922,1,0,1:0:0:0:
320,0,78984,1,0,1:0:0:0:
192,0,79047,1,0,1:0:0:0:
448,0,79047,1,0,1:0:0:0:
64,0,79109,1,0,1:0:0:0:
192,0,79172,1,0,1:0:0:0:
64,0,79234,1,0,1:0:0:0:
448,0,79234,1,0,1:0:0:0:
192,0,79297,1,0,1:0:0:0:
320,0,79297,1,0,1:0:0:0:
448,0,79359,1,0,1:0:0:0:
320,0,79422,1,0,1:0:0:0:
192,0,79484,1,0,1:0:0:0:
64,0,79547,1,0,1:0:0:0:
448,0,79547,1,0,1:0:0:0:
320,0,79609,1,0,1:0:0:0:
64,0,79672,1,0,1:0:0:0:
192,0,79672,1,0,1:0:0:0:
320,0,79734,1,0,1:0:0:0:
192,0,79797,1,0,1:0:0:0:
448,0,79797,1,0,1:0:0:0:
64,0,79859,1,0,1:0:0:0:
320,0,79922,1,0,1:0:0:0:
448,0,79922,1,0,1:0:0:0:
64,0,79984,1,0,1:0:0:0:
192,0,80047,1,0,1:0:0:0:
320,0,80047,1,0,1:0:0:0:
448,0,80109,1,0,1:0:0:0:
320,0,80172,1,0,1:0:0:0:
448,0,80234,1,0,1:0:0:0:
64,0,80297,1,0,1:0:0:0:
192,0,80297,1,0,1:0:0:0:
320,0,80359,1,0,1:0:0:0:
64,0,80422,1,0,1:0:0:0:
192,0,80422,1,0,1:0:0:0:
320,0,80484,1,0,1:0:0:0:
64,0,80547,1,0,1:0:0:0:
192,0,80547,1,0,1:0:0:0:
320,0,80609,1,0,1:0:0:0:
64,0,80672,1,0,1:0:0:0:
448,0,80672,1,0,1:0:0:0:
192,0,80734,1,0,1:0:0:0:
320,0,80797,1,0,1:0:0:0:
448,0,80797,1,0,1:0:0:0:
64,0,80859,1,0,1:0:0:0:
192,0,80922,1,0,1:0:0:0:
320,0,80984,1,0,1:0:0:0:
64,0,81047,1,0,1:0:0:0:
448,0,81047,1,0,1:0:0:0:
192,0,81109,1,0,1:0:0:0:
64,0,81172,1,0,1:0:0:0:
192,0,81234,1,0,1:0:0:0:
320,0,81297,1,0,1:0:0:0:
448,0,81297,1,0,1:0:0:0:
64,0,81359,1,0,1:0:0:0:
192,0,81422,1,0,1:0:0:0:
448,0,81484,1,0,1:0:0:0:
64,0,81547,1,0,1:0:0:0:
320,0,81547,1,0,1:0:0:0:
192,0,81609,1,0,1:0:0:0:
64,0,81672,1,0,1:0:0:0:
448,0,81672,1,0,1:0:0:0:
320,0,81734,1,0,1:0:0:0:
192,0,81797,1,0,1:0:0:0:
448,0,81797,1,0,1:0:0:0:
64,0,81859,1,0,1:0:0:0:
320,0,81922,1,0,1:0:0:0:
192,0,81984,1,0,1:0:0:0:
64,0,82047,1,0,1:0:0:0:
448,0,82047,1,0,1:0:0:0:
320,0,82109,1,0,1:0:0:0:
448,0,82172,1,0,1:0:0:0:
320,0,82234,1,0,1:0:0:0:
64,0,82297,1,0,1:0:0:0:
192,0,82297,1,0,1:0:0:0:
448,0,82359,1,0,1:0:0:0:
320,0,82422,1,0,1:0:0:0:
192,0,82484,1,0,1:0:0:0:
64,0,82547,1,0,1:0:0:0:
448,0,82547,1,0,1:0:0:0:
192,0,82609,1,0,1:0:0:0:
320,0,82672,1,0,1:0:0:0:
448,0,82734,1,0,1:0:0:0:
192,0,82797,1,0,1:0:0:0:
320,0,82797,1,0,1:0:0:0:
64,0,82859,1,0,1:0:0:0:
192,0,82922,1,0,1:0:0:0:
320,0,82984,1,0,1:0:0:0:
64,0,83047,1,0,1:0:0:0:
448,0,83047,1,0,1:0:0:0:
192,0,83109,1,0,1:0:0:0:
64,0,83172,1,0,1:0:0:0:
192,0,83234,1,0,1:0:0:0:
448,0,83234,1,0,1:0:0:0:
64,0,83297,1,0,1:0:0:0:
320,0,83297,1,0,1:0:0:0:
448,0,83359,1,0,1:0:0:0:
192,0,83422,1,0,1:0:0:0:
320,0,83484,1,0,1:0:0:0:
64,0,83547,1,0,1:0:0:0:
192,0,83547,1,0,1:0:0:0:
448,0,83547,1,0,1:0:0:0:
320,0,83609,1,0,1:0:0:0:
64,0,83672,1,0,1:0:0:0:
192,0,83734,1,0,1:0:0:0:
448,0,83797,1,0,1:0:0:0:
320,0,83859,1,0,1:0:0:0:
192,0,83922,1,0,1:0:0:0:
64,0,83984,1,0,1:0:0:0:
192,0,84047,1,0,1:0:0:0:
320,0,84047,1,0,1:0:0:0:
448,0,84047,1,0,1:0:0:0:
64,0,84109,1,0,1:0:0:0:
448,0,84172,1,0,1:0:0:0:
320,0,84234,1,0,1:0:0:0:
64,0,84297,1,0,1:0:0:0:
192,0,84297,1,0,1:0:0:0:
448,0,84297,1,0,1:0:0:0:
320,0,84359,1,0,1:0:0:0:
64,0,84422,1,0,1:0:0:0:
192,0,84463,1,0,1:0:0:0:
64,0,84547,1,0,1:0:0:0:
320,0,84547,1,0,1:0:0:0:
448,0,84547,1,0,1:0:0:0:
320,0,84672,1,0,1:0:0:0:
448,0,84734,1,0,1:0:0:0:
448,0,84922,1,0,1:0:0:0:
320,0,84984,1,0,1:0:0:0:
192,0,85047,1,0,1:0:0:0:
320,0,85172,1,0,1:0:0:0:
448,0,85234,1,0,1:0:0:0:
448,0,85422,1,0,1:0:0:0:
320,0,85484,1,0,1:0:0:0:
64,0,85547,1,0,1:0:0:0:
320,0,85672,1,0,1:0:0:0:
448,0,85734,1,0,1:0:0:0:
448,0,85922,1,0,1:0:0:0:
320,0,85984,1,0,1:0:0:0:
192,0,86047,1,0,1:0:0:0:
320,0,86172,1,0,1:0:0:0:
448,0,86234,1,0,1:0:0:0:
448,0,86422,1,0,1:0:0:0:
320,0,86484,1,0,1:0:0:0:
64,0,86547,1,0,1:0:0:0:
320,0,86672,1,0,1:0:0:0:
448,0,86734,1,0,1:0:0:0:
448,0,86922,1,0,1:0:0:0:
320,0,86984,1,0,1:0:0:0:
192,0,87047,1,0,1:0:0:0:
320,0,87172,1,0,1:0:0:0:
448,0,87234,1,0,1:0:0:0:
448,0,87422,1,0,1:0:0:0:
320,0,87484,1,0,1:0:0:0:
64,0,87547,1,0,1:0:0:0:
320,0,87672,1,0,1:0:0:0:
448,0,87734,1,0,1:0:0:0:
448,0,87922,1,0,1:0:0:0:
320,0,87984,1,0,1:0:0:0:
192,0,88047,128,0,88422:0:0:0:0:
320,0,88172,1,0,1:0:0:0:
448,0,88234,1,0,1:0:0:0:
448,0,88422,1,0,1:0:0:0:
320,0,88484,1,0,1:0:0:0:
64,0,88547,1,0,1:0:0:0:
192,0,88547,1,0,1:0:0:0:
448,0,88547,1,0,1:0:0:0:
192,0,88672,1,0,1:0:0:0:
64,0,88734,1,0,1:0:0:0:
64,0,88922,1,0,1:0:0:0:
192,0,88984,1,0,1:0:0:0:
320,0,89047,1,0,1:0:0:0:
192,0,89172,1,0,1:0:0:0:
64,0,89234,1,0,1:0:0:0:
64,0,89422,1,0,1:0:0:0:
192,0,89484,1,0,1:0:0:0:
448,0,89547,1,0,1:0:0:0:
192,0,89672,1,0,1:0:0:0:
64,0,89734,1,0,1:0:0:0:
64,0,89922,1,0,1:0:0:0:
192,0,89984,1,0,1:0:0:0:
320,0,90047,1,0,1:0:0:0:
192,0,90172,1,0,1:0:0:0:
64,0,90234,1,0,1:0:0:0:
64,0,90422,1,0,1:0:0:0:
192,0,90484,1,0,1:0:0:0:
448,0,90547,1,0,1:0:0:0:
192,0,90672,1,0,1:0:0:0:
64,0,90734,1,0,1:0:0:0:
64,0,90922,1,0,1:0:0:0:
192,0,90984,1,0,1:0:0:0:
320,0,91047,1,0,1:0:0:0:
192,0,91172,1,0,1:0:0:0:
64,0,91234,1,0,1:0:0:0:
64,0,91422,1,0,1:0:0:0:
192,0,91484,1,0,1:0:0:0:
448,0,91547,1,0,1:0:0:0:
192,0,91672,1,0,1:0:0:0:
64,0,91734,1,0,1:0:0:0:
64,0,91922,1,0,1:0:0:0:
192,0,91984,1,0,1:0:0:0:
320,0,92047,1,0,1:0:0:0:
192,0,92172,1,0,1:0:0:0:
64,0,92234,1,0,1:0:0:0:
192,0,92297,1,0,1:0:0:0:
320,0,92297,1,0,1:0:0:0:
448,0,92297,1,0,1:0:0:0:
64,0,92422,1,0,1:0:0:0:
192,0,92484,1,0,1:0:0:0:
64,0,92547,1,0,1:0:0:0:
320,0,92547,1,0,1:0:0:0:
448,0,92547,1,0,1:0:0:0:
320,0,92672,1,0,1:0:0:0:
448,0,92734,1,0,1:0:0:0:
320,0,92922,1,0,1:0:0:0:
448,0,92984,1,0,1:0:0:0:
64,0,93047,1,0,1:0:0:0:
320,0,93172,1,0,1:0:0:0:
448,0,93234,1,0,1:0:0:0:
320,0,93422,1,0,1:0:0:0:
448,0,93484,1,0,1:0:0:0:
64,0,93547,1,0,1:0:0:0:
448,0,93672,1,0,1:0:0:0:
320,0,93734,1,0,1:0:0:0:
448,0,93922,1,0,1:0:0:0:
320,0,93984,1,0,1:0:0:0:
64,0,94047,1,0,1:0:0:0:
448,0,94172,1,0,1:0:0:0:
320,0,94234,1,0,1:0:0:0:
448,0,94422,1,0,1:0:0:0:
320,0,94484,1,0,1:0:0:0:
64,0,94547,1,0,1:0:0:0:
192,0,94547,1,0,1:0:0:0:
448,0,94547,1,0,1:0:0:0:
192,0,94672,1,0,1:0:0:0:
64,0,94734,1,0,1:0:0:0:
192,0,94922,1,0,1:0:0:0:
64,0,94984,1,0,1:0:0:0:
448,0,95047,1,0,1:0:0:0:
192,0,95172,1,0,1:0:0:0:
64,0,95234,1,0,1:0:0:0:
192,0,95422,1,0,1:0:0:0:
64,0,95484,1,0,1:0:0:0:
448,0,95547,1,0,1:0:0:0:
64,0,95672,1,0,1:0:0:0:
192,0,95734,1,0,1:0:0:0:
64,0,95922,1,0,1:0:0:0:
192,0,95984,1,0,1:0:0:0:
448,0,96047,128,0,96422:0:0:0:0:
64,0,96172,1,0,1:0:0:0:
192,0,96234,1,0,1:0:0:0:
64,0,96422,1,0,1:0:0:0:
192,0,96484,1,0,1:0:0:0:
64,0,96547,1,0,1:0:0:0:
320,0,96547,1,0,1:0:0:0:
448,0,96547,1,0,1:0:0:0:
448,0,96672,1,0,1:0:0:0:
320,0,96734,1,0,1:0:0:0:
448,0,96922,1,0,1:0:0:0:
320,0,96984,1,0,1:0:0:0:
64,0,97047,1,0,1:0:0:0:
192,0,97047,1,0,1:0:0:0:
448,0,97172,1,0,1:0:0:0:
320,0,97234,1,0,1:0:0:0:
64,0,97297,1,0,1:0:0:0:
448,0,97422,1,0,1:0:0:0:
320,0,97484,1,0,1:0:0:0:
64,0,97547,1,0,1:0:0:0:
192,0,97547,1,0,1:0:0:0:
448,0,97547,1,0,1:0:0:0:
64,0,97672,1,0,1:0:0:0:
192,0,97734,1,0,1:0:0:0:
64,0,97922,1,0,1:0:0:0:
192,0,97984,1,0,1:0:0:0:
320,0,98047,1,0,1:0:0:0:
448,0,98047,1,0,1:0:0:0:
64,0,98172,1,0,1:0:0:0:
192,0,98234,1,0,1:0:0:0:
448,0,98297,1,0,1:0:0:0:
64,0,98422,1,0,1:0:0:0:
192,0,98484,1,0,1:0:0:0:
64,0,98547,128,0,98609:0:0:0:0:
320,0,98547,128,0,98609:0:0:0:0:
448,0,98547,128,0,98609:0:0:0:0:
192,0,98672,1,0,1:0:0:0:
192,0,98922,128,0,98984:0:0:0:0:
320,0,98984,1,0,1:0:0:0:
64,0,99047,1,0,1:0:0:0:
192,0,99047,1,0,1:0:0:0:
448,0,99047,1,0,1:0:0:0:
448,0,99172,1,0,1:0:0:0:
320,0,99234,1,0,1:0:0:0:
64,0,99297,1,0,1:0:0:0:
448,0,99422,1,0,1:0:0:0:
192,0,99484,1,0,1:0:0:0:
64,0,99547,1,0,1:0:0:0:
320,0,99547,1,0,1:0:0:0:
448,0,99547,1,0,1:0:0:0:
192,0,99609,1,0,1:0:0:0:
448,0,99672,1,0,1:0:0:0:
320,0,99734,1,0,1:0:0:0:
64,0,99797,1,0,1:0:0:0:
192,0,99859,1,0,1:0:0:0:
448,0,99922,1,0,1:0:0:0:
320,0,99984,1,0,1:0:0:0:
64,0,100047,1,0,1:0:0:0:
192,0,100047,1,0,1:0:0:0:
448,0,100047,1,0,1:0:0:0:
320,0,100109,1,0,1:0:0:0:
64,0,100172,1,0,1:0:0:0:
192,0,100234,1,0,1:0:0:0:
64,0,100297,1,0,1:0:0:0:
320,0,100297,1,0,1:0:0:0:
448,0,100297,1,0,1:0:0:0:
192,0,100359,1,0,1:0:0:0:
448,0,100422,1,0,1:0:0:0:
320,0,100484,1,0,1:0:0:0:
64,0,100547,128,0,100609:0:0:0:0:
192,0,100547,1,0,1:0:0:0:
448,0,100609,1,0,1:0:0:0:
192,0,100672,1,0,1:0:0:0:
448,0,100734,1,0,1:0:0:0:
64,0,100797,128,0,100859:0:0:0:0:
320,0,100859,1,0,1:0:0:0:
192,0,100922,1,0,1:0:0:0:
320,0,100984,1,0,1:0:0:0:
64,0,101047,128,0,101109:0:0:0:0:
448,0,101109,1,0,1:0:0:0:
192,0,101172,128,0,101234:0:0:0:0:
64,0,101297,1,0,1:0:0:0:
192,0,101297,1,0,1:0:0:0:
320,0,101297,1,0,1:0:0:0:
448,0,101297,1,0,1:0:0:0:
64,0,101587,1,0,1:0:0:0:
320,0,101587,1,0,1:0:0:0:
448,0,101587,1,0,1:0:0:0:
192,0,101649,1,0,1:0:0:0:
64,0,101710,1,0,1:0:0:0:
192,0,101771,1,0,1:0:0:0:
64,0,101832,1,0,1:0:0:0:
320,0,101832,1,0,1:0:0:0:
448,0,101893,1,0,1:0:0:0:
192,0,101955,1,0,1:0:0:0:
320,0,101955,1,0,1:0:0:0:
448,0,102016,1,0,1:0:0:0:
64,0,102077,1,0,1:0:0:0:
320,0,102077,1,0,1:0:0:0:
192,0,102138,1,0,1:0:0:0:
448,0,102200,1,0,1:0:0:0:
320,0,102261,1,0,1:0:0:0:
64,0,102322,1,0,1:0:0:0:
192,0,102322,1,0,1:0:0:0:
448,0,102383,1,0,1:0:0:0:
320,0,102444,1,0,1:0:0:0:
192,0,102506,1,0,1:0:0:0:
64,0,102567,1,0,1:0:0:0:
448,0,102567,1,0,1:0:0:0:
320,0,102628,1,0,1:0:0:0:
448,0,102689,1,0,1:0:0:0:
320,0,102751,1,0,1:0:0:0:
192,0,102812,1,0,1:0:0:0:
448,0,102812,1,0,1:0:0:0:
64,0,102873,1,0,1:0:0:0:
192,0,102934,1,0,1:0:0:0:
320,0,102934,1,0,1:0:0:0:
64,0,102996,1,0,1:0:0:0:
192,0,103057,1,0,1:0:0:0:
448,0,103057,1,0,1:0:0:0:
320,0,103118,1,0,1:0:0:0:
64,0,103179,1,0,1:0:0:0:
192,0,103240,1,0,1:0:0:0:
320,0,103302,1,0,1:0:0:0:
448,0,103302,1,0,1:0:0:0:
192,0,103363,1,0,1:0:0:0:
64,0,103424,1,0,1:0:0:0:
320,0,103485,1,0,1:0:0:0:
192,0,103547,1,0,1:0:0:0:
448,0,103547,1,0,1:0:0:0:
64,0,103608,1,0,1:0:0:0:
192,0,103669,1,0,1:0:0:0:
64,0,103730,1,0,1:0:0:0:
192,0,103791,1,0,1:0:0:0:
320,0,103791,1,0,1:0:0:0:
448,0,103853,1,0,1:0:0:0:
64,0,103914,1,0,1:0:0:0:
320,0,103914,1,0,1:0:0:0:
448,0,103975,1,0,1:0:0:0:
192,0,104036,1,0,1:0:0:0:
320,0,104036,1,0,1:0:0:0:
64,0,104098,1,0,1:0:0:0:
448,0,104159,1,0,1:0:0:0:
320,0,104220,1,0,1:0:0:0:
64,0,104281,1,0,1:0:0:0:
192,0,104281,1,0,1:0:0:0:
320,0,104342,1,0,1:0:0:0:
448,0,104404,1,0,1:0:0:0:
192,0,104465,1,0,1:0:0:0:
64,0,104526,1,0,1:0:0:0:
320,0,104526,1,0,1:0:0:0:
448,0,104587,1,0,1:0:0:0:
320,0,104649,1,0,1:0:0:0:
448,0,104710,1,0,1:0:0:0:
192,0,104771,1,0,1:0:0:0:
320,0,104771,1,0,1:0:0:0:
64,0,104832,1,0,1:0:0:0:
192,0,104893,1,0,1:0:0:0:
448,0,104893,1,0,1:0:0:0:
64,0,104955,1,0,1:0:0:0:
192,0,105016,1,0,1:0:0:0:
320,0,105016,1,0,1:0:0:0:
448,0,105077,1,0,1:0:0:0:
64,0,105138,1,0,1:0:0:0:
192,0,105200,1,0,1:0:0:0:
320,0,105261,1,0,1:0:0:0:
448,0,105261,1,0,1:0:0:0:
64,0,105322,1,0,1:0:0:0:
320,0,105383,1,0,1:0:0:0:
448,0,105383,1,0,1:0:0:0:
192,0,105444,1,0,1:0:0:0:
64,0,105506,1,0,1:0:0:0:
320,0,105506,1,0,1:0:0:0:
448,0,105506,1,0,1:0:0:0:
192,0,105567,1,0,1:0:0:0:
64,0,105628,1,0,1:0:0:0:
192,0,105689,1,0,1:0:0:0:
64,0,105751,1,0,1:0:0:0:
448,0,105751,1,0,1:0:0:0:
320,0,105812,1,0,1:0:0:0:
192,0,105873,1,0,1:0:0:0:
448,0,105873,1,0,1:0:0:0:
320,0,105934,1,0,1:0:0:0:
64,0,105996,1,0,1:0:0:0:
448,0,105996,1,0,1:0:0:0:
192,0,106057,1,0,1:0:0:0:
320,0,106118,1,0,1:0:0:0:
448,0,106179,1,0,1:0:0:0:
64,0,106240,1,0,1:0:0:0:
192,0,106240,1,0,1:0:0:0:
448,0,106302,1,0,1:0:0:0:
320,0,106363,1,0,1:0:0:0:
64,0,106424,1,0,1:0:0:0:
192,0,106485,1,0,1:0:0:0:
448,0,106485,1,0,1:0:0:0:
320,0,106547,1,0,1:0:0:0:
448,0,106608,1,0,1:0:0:0:
320,0,106669,1,0,1:0:0:0:
64,0,106730,1,0,1:0:0:0:
448,0,106730,1,0,1:0:0:0:
192,0,106791,1,0,1:0:0:0:
64,0,106853,1,0,1:0:0:0:
320,0,106853,1,0,1:0:0:0:
192,0,106914,1,0,1:0:0:0:
64,0,106975,1,0,1:0:0:0:
448,0,106975,1,0,1:0:0:0:
320,0,107036,1,0,1:0:0:0:
192,0,107098,1,0,1:0:0:0:
64,0,107159,1,0,1:0:0:0:
320,0,107220,1,0,1:0:0:0:
448,0,107220,1,0,1:0:0:0:
192,0,107281,1,0,1:0:0:0:
64,0,107342,1,0,1:0:0:0:
320,0,107404,1,0,1:0:0:0:
192,0,107465,1,0,1:0:0:0:
448,0,107465,1,0,1:0:0:0:
64,0,107526,1,0,1:0:0:0:
192,0,107587,1,0,1:0:0:0:
64,0,107649,1,0,1:0:0:0:
192,0,107710,1,0,1:0:0:0:
448,0,107710,1,0,1:0:0:0:
320,0,107771,1,0,1:0:0:0:
64,0,107832,1,0,1:0:0:0:
448,0,107832,1,0,1:0:0:0:
320,0,107893,1,0,1:0:0:0:
192,0,107955,1,0,1:0:0:0:
448,0,107955,1,0,1:0:0:0:
64,0,108016,1,0,1:0:0:0:
320,0,108077,1,0,1:0:0:0:
192,0,108138,1,0,1:0:0:0:
64,0,108200,1,0,1:0:0:0:
448,0,108200,1,0,1:0:0:0:
320,0,108261,1,0,1:0:0:0:
448,0,108322,1,0,1:0:0:0:
192,0,108383,1,0,1:0:0:0:
64,0,108444,1,0,1:0:0:0:
320,0,108444,1,0,1:0:0:0:
448,0,108506,1,0,1:0:0:0:
320,0,108567,1,0,1:0:0:0:
448,0,108628,1,0,1:0:0:0:
64,0,108689,1,0,1:0:0:0:
320,0,108689,1,0,1:0:0:0:
192,0,108751,1,0,1:0:0:0:
64,0,108812,1,0,1:0:0:0:
448,0,108812,1,0,1:0:0:0:
192,0,108873,1,0,1:0:0:0:
64,0,108934,1,0,1:0:0:0:
320,0,108934,1,0,1:0:0:0:
448,0,108996,1,0,1:0:0:0:
320,0,109057,1,0,1:0:0:0:
192,0,109118,1,0,1:0:0:0:
64,0,109179,1,0,1:0:0:0:
448,0,109179,1,0,1:0:0:0:
320,0,109240,1,0,1:0:0:0:
64,0,109302,1,0,1:0:0:0:
192,0,109302,1,0,1:0:0:0:
320,0,109363,1,0,1:0:0:0:
64,0,109424,1,0,1:0:0:0:
192,0,109424,1,0,1:0:0:0:
448,0,109424,1,0,1:0:0:0:
320,0,109485,1,0,1:0:0:0:
448,0,109547,1,0,1:0:0:0:
320,0,109608,1,0,1:0:0:0:
192,0,109669,1,0,1:0:0:0:
448,0,109669,1,0,1:0:0:0:
64,0,109730,1,0,1:0:0:0:
192,0,109791,1,0,1:0:0:0:
320,0,109791,1,0,1:0:0:0:
64,0,109853,1,0,1:0:0:0:
192,0,109914,1,0,1:0:0:0:
448,0,109914,1,0,1:0:0:0:
320,0,109975,1,0,1:0:0:0:
64,0,110036,1,0,1:0:0:0:
192,0,110098,1,0,1:0:0:0:
320,0,110159,1,0,1:0:0:0:
448,0,110159,1,0,1:0:0:0:
64,0,110220,1,0,1:0:0:0:
192,0,110281,1,0,1:0:0:0:
320,0,110342,1,0,1:0:0:0:
64,0,110404,1,0,1:0:0:0:
448,0,110404,1,0,1:0:0:0:
192,0,110465,1,0,1:0:0:0:
64,0,110526,1,0,1:0:0:0:
192,0,110587,1,0,1:0:0:0:
64,0,110649,1,0,1:0:0:0:
320,0,110649,1,0,1:0:0:0:
448,0,110710,1,0,1:0:0:0:
192,0,110771,1,0,1:0:0:0:
320,0,110771,1,0,1:0:0:0:
448,0,110832,1,0,1:0:0:0:
64,0,110893,1,0,1:0:0:0:
320,0,110893,1,0,1:0:0:0:
192,0,110955,1,0,1:0:0:0:
448,0,111016,1,0,1:0:0:0:
320,0,111077,1,0,1:0:0:0:
64,0,111138,1,0,1:0:0:0:
192,0,111138,1,0,1:0:0:0:
320,0,111200,1,0,1:0:0:0:
448,0,111261,1,0,1:0:0:0:
192,0,111322,1,0,1:0:0:0:
64,0,111383,1,0,1:0:0:0:
320,0,111383,1,0,1:0:0:0:
448,0,111444,1,0,1:0:0:0:
320,0,111506,1,0,1:0:0:0:
448,0,111567,1,0,1:0:0:0:
192,0,111628,1,0,1:0:0:0:
320,0,111628,1,0,1:0:0:0:
64,0,111689,1,0,1:0:0:0:
192,0,111751,1,0,1:0:0:0:
448,0,111751,1,0,1:0:0:0:
64,0,111812,1,0,1:0:0:0:
192,0,111873,1,0,1:0:0:0:
320,0,111873,1,0,1:0:0:0:
448,0,111934,1,0,1:0:0:0:
64,0,111996,1,0,1:0:0:0:
192,0,112057,1,0,1:0:0:0:
320,0,112118,1,0,1:0:0:0:
448,0,112118,1,0,1:0:0:0:
192,0,112179,1,0,1:0:0:0:
64,0,112240,1,0,1:0:0:0:
320,0,112302,1,0,1:0:0:0:
192,0,112363,1,0,1:0:0:0:
448,0,112363,1,0,1:0:0:0:
64,0,112424,1,0,1:0:0:0:
192,0,112485,1,0,1:0:0:0:
64,0,112547,1,0,1:0:0:0:
192,0,112608,1,0,1:0:0:0:
320,0,112608,1,0,1:0:0:0:
448,0,112669,1,0,1:0:0:0:
64,0,112730,1,0,1:0:0:0:
320,0,112730,1,0,1:0:0:0:
448,0,112791,1,0,1:0:0:0:
192,0,112853,1,0,1:0:0:0:
320,0,112853,1,0,1:0:0:0:
64,0,112914,1,0,1:0:0:0:
448,0,112975,1,0,1:0:0:0:
320,0,113036,1,0,1:0:0:0:
64,0,113098,1,0,1:0:0:0:
192,0,113098,1,0,1:0:0:0:
448,0,113159,1,0,1:0:0:0:
64,0,113220,1,0,1:0:0:0:
192,0,113220,1,0,1:0:0:0:
320,0,113281,1,0,1:0:0:0:
64,0,113342,1,0,1:0:0:0:
192,0,113342,1,0,1:0:0:0:
448,0,113342,1,0,1:0:0:0:
320,0,113404,1,0,1:0:0:0:
448,0,113465,1,0,1:0:0:0:
320,0,113526,1,0,1:0:0:0:
64,0,113587,1,0,1:0:0:0:
448,0,113587,1,0,1:0:0:0:
192,0,113649,1,0,1:0:0:0:
64,0,113710,1,0,1:0:0:0:
320,0,113710,1,0,1:0:0:0:
192,0,113771,1,0,1:0:0:0:
64,0,113832,1,0,1:0:0:0:
448,0,113832,1,0,1:0:0:0:
320,0,113893,1,0,1:0:0:0:
192,0,113955,1,0,1:0:0:0:
64,0,114016,1,0,1:0:0:0:
320,0,114077,1,0,1:0:0:0:
448,0,114077,1,0,1:0:0:0:
64,0,114138,1,0,1:0:0:0:
192,0,114200,1,0,1:0:0:0:
448,0,114261,1,0,1:0:0:0:
64,0,114322,1,0,1:0:0:0:
320,0,114322,1,0,1:0:0:0:
192,0,114383,1,0,1:0:0:0:
64,0,114444,1,0,1:0:0:0:
192,0,114506,1,0,1:0:0:0:
64,0,114567,1,0,1:0:0:0:
448,0,114567,1,0,1:0:0:0:
320,0,114628,1,0,1:0:0:0:
192,0,114689,1,0,1:0:0:0:
448,0,114689,1,0,1:0:0:0:
320,0,114751,1,0,1:0:0:0:
64,0,114812,1,0,1:0:0:0:
448,0,114812,1,0,1:0:0:0:
192,0,114873,1,0,1:0:0:0:
320,0,114934,1,0,1:0:0:0:
448,0,114996,1,0,1:0:0:0:
64,0,115057,1,0,1:0:0:0:
192,0,115057,1,0,1:0:0:0:
320,0,115118,1,0,1:0:0:0:
448,0,115179,1,0,1:0:0:0:
192,0,115240,1,0,1:0:0:0:
64,0,115302,1,0,1:0:0:0:
320,0,115302,1,0,1:0:0:0:
448,0,115363,1,0,1:0:0:0:
320,0,115424,1,0,1:0:0:0:
448,0,115485,1,0,1:0:0:0:
64,0,115547,1,0,1:0:0:0:
320,0,115547,1,0,1:0:0:0:
192,0,115608,1,0,1:0:0:0:
64,0,115669,1,0,1:0:0:0:
448,0,115669,1,0,1:0:0:0:
192,0,115730,1,0,1:0:0:0:
64,0,115791,1,0,1:0:0:0:
320,0,115791,1,0,1:0:0:0:
448,0,115853,1,0,1:0:0:0:
192,0,115914,1,0,1:0:0:0:
320,0,115975,1,0,1:0:0:0:
64,0,116036,1,0,1:0:0:0:
448,0,116036,1,0,1:0:0:0:
192,0,116098,1,0,1:0:0:0:
64,0,116159,1,0,1:0:0:0:
320,0,116220,1,0,1:0:0:0:
64,0,116281,1,0,1:0:0:0:
192,0,116281,1,0,1:0:0:0:
448,0,116281,1,0,1:0:0:0:
320,0,116342,1,0,1:0:0:0:
192,0,116404,1,0,1:0:0:0:
64,0,116465,1,0,1:0:0:0:
448,0,116526,1,0,1:0:0:0:
192,0,116587,1,0,1:0:0:0:
320,0,116649,1,0,1:0:0:0:
64,0,116710,1,0,1:0:0:0:
192,0,116771,1,0,1:0:0:0:
320,0,116771,1,0,1:0:0:0:
448,0,116771,1,0,1:0:0:0:
64,0,116832,1,0,1:0:0:0:
192,0,116893,1,0,1:0:0:0:
448,0,116955,1,0,1:0:0:0:
64,0,117016,1,0,1:0:0:0:
192,0,117016,1,0,1:0:0:0:
320,0,117016,1,0,1:0:0:0:
448,0,117077,1,0,1:0:0:0:
320,0,117138,1,0,1:0:0:0:
192,0,117200,1,0,1:0:0:0:
64,0,117261,1,0,1:0:0:0:
320,0,117261,1,0,1:0:0:0:
448,0,117261,1,0,1:0:0:0:
192,0,117321,1,0,1:0:0:0:
320,0,117381,1,0,1:0:0:0:
448,0,117381,1,0,1:0:0:0:
64,0,117441,1,0,1:0:0:0:
192,0,117501,1,0,1:0:0:0:
448,0,117501,1,0,1:0:0:0:
320,0,117561,1,0,1:0:0:0:
64,0,117621,1,0,1:0:0:0:
192,0,117681,1,0,1:0:0:0:
64,0,117741,1,0,1:0:0:0:
448,0,117741,1,0,1:0:0:0:
320,0,117801,1,0,1:0:0:0:
448,0,117861,1,0,1:0:0:0:
320,0,117921,1,0,1:0:0:0:
64,0,117981,1,0,1:0:0:0:
192,0,117981,1,0,1:0:0:0:
448,0,118041,1,0,1:0:0:0:
320,0,118101,1,0,1:0:0:0:
192,0,118161,1,0,1:0:0:0:
320,0,118221,1,0,1:0:0:0:
448,0,118221,1,0,1:0:0:0:
64,0,118281,1,0,1:0:0:0:
192,0,118341,1,0,1:0:0:0:
448,0,118341,1,0,1:0:0:0:
320,0,118401,1,0,1:0:0:0:
64,0,118461,1,0,1:0:0:0:
448,0,118461,1,0,1:0:0:0:
192,0,118521,1,0,1:0:0:0:
320,0,118581,1,0,1:0:0:0:
448,0,118641,1,0,1:0:0:0:
64,0,118701,1,0,1:0:0:0:
320,0,118701,1,0,1:0:0:0:
192,0,118761,1,0,1:0:0:0:
64,0,118821,1,0,1:0:0:0:
192,0,118881,1,0,1:0:0:0:
320,0,118941,1,0,1:0:0:0:
448,0,118941,1,0,1:0:0:0:
64,0,119001,1,0,1:0:0:0:
192,0,119061,1,0,1:0:0:0:
320,0,119121,1,0,1:0:0:0:
64,0,119181,1,0,1:0:0:0:
448,0,119181,1,0,1:0:0:0:
320,0,119241,1,0,1:0:0:0:
192,0,119301,1,0,1:0:0:0:
448,0,119361,1,0,1:0:0:0:
64,0,119421,1,0,1:0:0:0:
320,0,119421,1,0,1:0:0:0:
192,0,119481,1,0,1:0:0:0:
320,0,119541,1,0,1:0:0:0:
192,0,119601,1,0,1:0:0:0:
64,0,119661,1,0,1:0:0:0:
448,0,119661,1,0,1:0:0:0:
320,0,119721,1,0,1:0:0:0:
448,0,119781,1,0,1:0:0:0:
64,0,119841,1,0,1:0:0:0:
320,0,119841,1,0,1:0:0:0:
192,0,119901,1,0,1:0:0:0:
448,0,119901,1,0,1:0:0:0:
64,0,119961,1,0,1:0:0:0:
320,0,120021,1,0,1:0:0:0:
192,0,120081,1,0,1:0:0:0:
64,0,120141,1,0,1:0:0:0:
448,0,120141,1,0,1:0:0:0:
320,0,120201,1,0,1:0:0:0:
64,0,120261,1,0,1:0:0:0:
192,0,120261,1,0,1:0:0:0:
448,0,120321,1,0,1:0:0:0:
192,0,120381,1,0,1:0:0:0:
320,0,120381,1,0,1:0:0:0:
64,0,120441,1,0,1:0:0:0:
320,0,120501,1,0,1:0:0:0:
448,0,120501,1,0,1:0:0:0:
192,0,120561,1,0,1:0:0:0:
64,0,120621,1,0,1:0:0:0:
448,0,120621,1,0,1:0:0:0:
320,0,120681,1,0,1:0:0:0:
448,0,120741,1,0,1:0:0:0:
320,0,120801,1,0,1:0:0:0:
64,0,120861,1,0,1:0:0:0:
192,0,120861,1,0,1:0:0:0:
448,0,120921,1,0,1:0:0:0:
64,0,120981,1,0,1:0:0:0:
192,0,120981,1,0,1:0:0:0:
448,0,121041,1,0,1:0:0:0:
64,0,121101,1,0,1:0:0:0:
192,0,121101,1,0,1:0:0:0:
320,0,121101,1,0,1:0:0:0:
448,0,121161,1,0,1:0:0:0:
64,0,121221,1,0,1:0:0:0:
192,0,121221,1,0,1:0:0:0:
320,0,121281,1,0,1:0:0:0:
64,0,121341,1,0,1:0:0:0:
448,0,121341,1,0,1:0:0:0:
192,0,121401,1,0,1:0:0:0:
320,0,121461,1,0,1:0:0:0:
448,0,121521,1,0,1:0:0:0:
64,0,121581,1,0,1:0:0:0:
320,0,121581,1,0,1:0:0:0:
192,0,121641,1,0,1:0:0:0:
64,0,121701,1,0,1:0:0:0:
192,0,121761,1,0,1:0:0:0:
320,0,121821,1,0,1:0:0:0:
448,0,121821,1,0,1:0:0:0:
64,0,121881,1,0,1:0:0:0:
448,0,121941,1,0,1:0:0:0:
320,0,122001,1,0,1:0:0:0:
64,0,122061,1,0,1:0:0:0:
192,0,122061,1,0,1:0:0:0:
320,0,122121,1,0,1:0:0:0:
192,0,122181,1,0,1:0:0:0:
448,0,122181,1,0,1:0:0:0:
64,0,122241,1,0,1:0:0:0:
320,0,122301,1,0,1:0:0:0:
448,0,122301,1,0,1:0:0:0:
192,0,122361,1,0,1:0:0:0:
320,0,122421,1,0,1:0:0:0:
64,0,122481,1,0,1:0:0:0:
192,0,122541,1,0,1:0:0:0:
448,0,122541,1,0,1:0:0:0:
320,0,122601,1,0,1:0:0:0:
448,0,122661,1,0,1:0:0:0:
320,0,122721,1,0,1:0:0:0:
64,0,122781,1,0,1:0:0:0:
192,0,122781,1,0,1:0:0:0:
448,0,122841,1,0,1:0:0:0:
320,0,122901,1,0,1:0:0:0:
192,0,122961,1,0,1:0:0:0:
64,0,123021,1,0,1:0:0:0:
448,0,123021,1,0,1:0:0:0:
320,0,123081,1,0,1:0:0:0:
448,0,123141,1,0,1:0:0:0:
64,0,123201,1,0,1:0:0:0:
192,0,123261,1,0,1:0:0:0:
320,0,123261,1,0,1:0:0:0:
64,0,123321,1,0,1:0:0:0:
448,0,123381,1,0,1:0:0:0:
320,0,123441,1,0,1:0:0:0:
192,0,123501,1,0,1:0:0:0:
448,0,123501,1,0,1:0:0:0:
64,0,123561,1,0,1:0:0:0:
192,0,123621,1,0,1:0:0:0:
64,0,123681,1,0,1:0:0:0:
448,0,123681,1,0,1:0:0:0:
192,0,123741,1,0,1:0:0:0:
320,0,123741,1,0,1:0:0:0:
448,0,123801,1,0,1:0:0:0:
64,0,123861,1,0,1:0:0:0:
320,0,123921,1,0,1:0:0:0:
64,0,123981,1,0,1:0:0:0:
192,0,123981,1,0,1:0:0:0:
448,0,124041,1,0,1:0:0:0:
64,0,124101,1,0,1:0:0:0:
320,0,124101,1,0,1:0:0:0:
192,0,124161,1,0,1:0:0:0:
320,0,124221,1,0,1:0:0:0:
448,0,124221,1,0,1:0:0:0:
64,0,124281,1,0,1:0:0:0:
192,0,124341,1,0,1:0:0:0:
448,0,124341,1,0,1:0:0:0:
320,0,124401,1,0,1:0:0:0:
64,0,124461,1,0,1:0:0:0:
448,0,124461,1,0,1:0:0:0:
192,0,124521,1,0,1:0:0:0:
64,0,124581,1,0,1:0:0:0:
192,0,124641,1,0,1:0:0:0:
64,0,124701,1,0,1:0:0:0:
320,0,124701,1,0,1:0:0:0:
448,0,124701,1,0,1:0:0:0:
192,0,124761,1,0,1:0:0:0:
320,0,124821,1,0,1:0:0:0:
448,0,124821,1,0,1:0:0:0:
192,0,124881,1,0,1:0:0:0:
64,0,124941,1,0,1:0:0:0:
320,0,124941,1,0,1:0:0:0:
448,0,124941,1,0,1:0:0:0:
192,0,125001,1,0,1:0:0:0:
320,0,125061,1,0,1:0:0:0:
448,0,125061,1,0,1:0:0:0:
64,0,125121,1,0,1:0:0:0:
192,0,125181,1,0,1:0:0:0:
448,0,125181,1,0,1:0:0:0:
320,0,125241,1,0,1:0:0:0:
64,0,125301,1,0,1:0:0:0:
192,0,125361,1,0,1:0:0:0:
64,0,125421,1,0,1:0:0:0:
448,0,125421,1,0,1:0:0:0:
320,0,125481,1,0,1:0:0:0:
448,0,125541,1,0,1:0:0:0:
320,0,125601,1,0,1:0:0:0:
64,0,125661,1,0,1:0:0:0:
192,0,125661,1,0,1:0:0:0:
448,0,125721,1,0,1:0:0:0:
320,0,125781,1,0,1:0:0:0:
192,0,125841,1,0,1:0:0:0:
64,0,125901,1,0,1:0:0:0:
448,0,125901,1,0,1:0:0:0:
192,0,125961,1,0,1:0:0:0:
320,0,126021,1,0,1:0:0:0:
448,0,126021,1,0,1:0:0:0:
64,0,126081,1,0,1:0:0:0:
192,0,126141,1,0,1:0:0:0:
448,0,126141,1,0,1:0:0:0:
320,0,126201,1,0,1:0:0:0:
192,0,126261,1,0,1:0:0:0:
320,0,126321,1,0,1:0:0:0:
64,0,126381,1,0,1:0:0:0:
448,0,126381,1,0,1:0:0:0:
192,0,126441,1,0,1:0:0:0:
64,0,126501,1,0,1:0:0:0:
192,0,126561,1,0,1:0:0:0:
320,0,126621,1,0,1:0:0:0:
448,0,126621,1,0,1:0:0:0:
64,0,126681,1,0,1:0:0:0:
192,0,126741,1,0,1:0:0:0:
448,0,126801,1,0,1:0:0:0:
64,0,126861,1,0,1:0:0:0:
320,0,126861,1,0,1:0:0:0:
192,0,126921,1,0,1:0:0:0:
64,0,126981,1,0,1:0:0:0:
448,0,127041,1,0,1:0:0:0:
192,0,127101,1,0,1:0:0:0:
320,0,127101,1,0,1:0:0:0:
448,0,127161,1,0,1:0:0:0:
64,0,127221,1,0,1:0:0:0:
192,0,127281,1,0,1:0:0:0:
64,0,127341,1,0,1:0:0:0:
320,0,127341,1,0,1:0:0:0:
448,0,127401,1,0,1:0:0:0:
320,0,127461,1,0,1:0:0:0:
64,0,127521,1,0,1:0:0:0:
448,0,127521,1,0,1:0:0:0:
192,0,127581,1,0,1:0:0:0:
320,0,127581,1,0,1:0:0:0:
64,0,127641,1,0,1:0:0:0:
192,0,127701,1,0,1:0:0:0:
320,0,127761,1,0,1:0:0:0:
64,0,127821,1,0,1:0:0:0:
192,0,127821,1,0,1:0:0:0:
448,0,127821,1,0,1:0:0:0:
320,0,127881,1,0,1:0:0:0:
64,0,127941,1,0,1:0:0:0:
192,0,128001,1,0,1:0:0:0:
320,0,128061,1,0,1:0:0:0:
448,0,128121,1,0,1:0:0:0:
64,0,128181,1,0,1:0:0:0:
320,0,128241,1,0,1:0:0:0:
192,0,128301,1,0,1:0:0:0:
448,0,128301,1,0,1:0:0:0:
64,0,128361,1,0,1:0:0:0:
320,0,128421,1,0,1:0:0:0:
192,0,128481,1,0,1:0:0:0:
64,0,128541,1,0,1:0:0:0:
448,0,128541,1,0,1:0:0:0:
320,0,128601,1,0,1:0:0:0:
448,0,128661,1,0,1:0:0:0:
192,0,128701,1,0,1:0:0:0:
64,0,128781,1,0,1:0:0:0:
320,0,128781,1,0,1:0:0:0:
448,0,128781,1,0,1:0:0:0:
192,0,128840,1,0,1:0:0:0:
320,0,128898,1,0,1:0:0:0:
448,0,128898,1,0,1:0:0:0:
64,0,128957,1,0,1:0:0:0:
192,0,129016,1,0,1:0:0:0:
320,0,129016,1,0,1:0:0:0:
448,0,129075,1,0,1:0:0:0:
64,0,129134,1,0,1:0:0:0:
192,0,129193,1,0,1:0:0:0:
64,0,129251,1,0,1:0:0:0:
448,0,129251,1,0,1:0:0:0:
320,0,129310,1,0,1:0:0:0:
448,0,129369,1,0,1:0:0:0:
320,0,129428,1,0,1:0:0:0:
64,0,129487,1,0,1:0:0:0:
192,0,129487,1,0,1:0:0:0:
448,0,129546,1,0,1:0:0:0:
320,0,129604,1,0,1:0:0:0:
192,0,129663,1,0,1:0:0:0:
64,0,129722,1,0,1:0:0:0:
320,0,129722,1,0,1:0:0:0:
448,0,129722,1,0,1:0:0:0:
192,0,129781,1,0,1:0:0:0:
320,0,129840,1,0,1:0:0:0:
448,0,129840,1,0,1:0:0:0:
192,0,129898,1,0,1:0:0:0:
64,0,129957,1,0,1:0:0:0:
448,0,129957,1,0,1:0:0:0:
320,0,130016,1,0,1:0:0:0:
64,0,130075,1,0,1:0:0:0:
448,0,130134,1,0,1:0:0:0:
192,0,130193,1,0,1:0:0:0:
320,0,130193,1,0,1:0:0:0:
64,0,130251,1,0,1:0:0:0:
192,0,130310,1,0,1:0:0:0:
64,0,130369,1,0,1:0:0:0:
192,0,130428,1,0,1:0:0:0:
320,0,130428,1,0,1:0:0:0:
448,0,130487,1,0,1:0:0:0:
64,0,130546,1,0,1:0:0:0:
320,0,130546,1,0,1:0:0:0:
192,0,130604,1,0,1:0:0:0:
64,0,130663,1,0,1:0:0:0:
320,0,130663,1,0,1:0:0:0:
448,0,130663,1,0,1:0:0:0:
192,0,130722,1,0,1:0:0:0:
448,0,130781,1,0,1:0:0:0:
320,0,130840,1,0,1:0:0:0:
64,0,130898,1,0,1:0:0:0:
192,0,130898,1,0,1:0:0:0:
448,0,130957,1,0,1:0:0:0:
320,0,131016,1,0,1:0:0:0:
192,0,131075,1,0,1:0:0:0:
64,0,131134,1,0,1:0:0:0:
448,0,131134,1,0,1:0:0:0:
320,0,131193,1,0,1:0:0:0:
192,0,131251,1,0,1:0:0:0:
64,0,131310,1,0,1:0:0:0:
320,0,131310,1,0,1:0:0:0:
192,0,131369,1,0,1:0:0:0:
448,0,131369,1,0,1:0:0:0:
320,0,131428,1,0,1:0:0:0:
64,0,131487,1,0,1:0:0:0:
192,0,131546,1,0,1:0:0:0:
64,0,131604,1,0,1:0:0:0:
320,0,131604,1,0,1:0:0:0:
448,0,131604,1,0,1:0:0:0:
192,0,131663,1,0,1:0:0:0:
320,0,131722,1,0,1:0:0:0:
448,0,131781,1,0,1:0:0:0:
64,0,131840,1,0,1:0:0:0:
192,0,131840,1,0,1:0:0:0:
320,0,131840,1,0,1:0:0:0:
448,0,131898,1,0,1:0:0:0:
192,0,131957,1,0,1:0:0:0:
64,0,132016,1,0,1:0:0:0:
192,0,132075,1,0,1:0:0:0:
320,0,132075,1,0,1:0:0:0:
448,0,132075,1,0,1:0:0:0:
64,0,132134,1,0,1:0:0:0:
448,0,132193,1,0,1:0:0:0:
320,0,132251,1,0,1:0:0:0:
64,0,132310,1,0,1:0:0:0:
192,0,132310,1,0,1:0:0:0:
448,0,132310,1,0,1:0:0:0:
320,0,132369,1,0,1:0:0:0:
64,0,132428,1,0,1:0:0:0:
192,0,132428,1,0,1:0:0:0:
320,0,132487,1,0,1:0:0:0:
64,0,132546,1,0,1:0:0:0:
192,0,132546,1,0,1:0:0:0:
448,0,132546,1,0,1:0:0:0:
