osu file format v13

[General]
AudioFilename: 04 This Is War.mp3
AudioLeadIn: 0
PreviewTime: 80740
Countdown: 1
SampleSet: Normal
StackLeniency: 0.7
Mode: 0
LetterboxInBreaks: 1
WidescreenStoryboard: 1

[Editor]
DistanceSpacing: 1.2
BeatDivisor: 4
GridSize: 4
TimelineZoom: 1.5

[Metadata]
Title:This Is War (Short Ver)
TitleUnicode:This Is War (Short Ver)
Artist:30 Seconds To Mars
ArtistUnicode:30 Seconds To Mars
Creator:SolrosRepica
Version:Normal
Source:
Tags:Rock Emo short version
BeatmapID:556266
BeatmapSetID:239151

[Difficulty]
HPDrainRate:4
CircleSize:3
OverallDifficulty:4
ApproachRate:4
SliderMultiplier:1.2
SliderTickRate:2

[Events]
//Background and Video events
0,0,"30-Seconds-To-Mars-This-Is-War-Music-Video-30-seconds-to-mars-33760567-1920-1080.jpg",0,0
//Break Periods
2,50940,55795
2,62940,67795
2,105315,115795
2,134940,139795
//Storyboard Layer 0 (Background)
//Storyboard Layer 1 (Fail)
//Storyboard Layer 2 (Pass)
//Storyboard Layer 3 (Foreground)
//Storyboard Sound Samples
//Background Colour Transformations
3,100,255,255,255

[TimingPoints]
115,375,4,1,0,65,1,0
33115,-100,4,1,0,65,0,0
69115,375,4,1,0,75,1,0
80740,-100,4,2,0,90,0,1
105302,-100,4,1,0,65,0,0
141115,-100,4,1,0,75,0,0
152552,-100,4,1,0,90,0,1
180115,-100,4,1,0,100,0,0

[Colours]
Combo1 : 234,175,0
Combo2 : 240,234,0
Combo3 : 193,11,24
Combo4 : 11,255,237

[HitObjects]
356,84,33115,5,0,0:0:0:0:
392,164,33677,1,0,0:0:0:0:
440,232,34240,1,0,0:0:0:0:
472,304,34615,2,0,P|312:276|316:228,1,240
216,232,35740,1,0,0:0:0:0:
152,336,36115,1,0,0:0:0:0:
60,248,36677,1,0,0:0:0:0:
88,144,37240,1,0,0:0:0:0:
128,52,37615,2,0,P|244:24|364:72,1,240
432,84,38740,1,0,0:0:0:0:
432,188,39115,6,0,P|384:312|288:308,1,240
180,304,40240,1,0,0:0:0:0:
108,240,40615,1,0,0:0:0:0:
60,144,41177,2,0,P|144:56|320:48,1,300
432,88,42865,2,0,P|380:144|372:188,1,120
408,256,43615,1,0,0:0:0:0:
332,328,44365,1,0,0:0:0:0:
256,248,44740,1,0,0:0:0:0:
188,304,45115,6,0,P|48:268|68:212,1,240
128,132,46240,1,0,0:0:0:0:
224,48,46615,2,0,P|360:148|424:140,1,240
456,224,47740,1,0,0:0:0:0:
432,304,48115,2,0,P|292:336|204:272,1,240
120,268,49240,1,0,0:0:0:0:
68,188,49615,2,0,P|128:68|224:80,1,240
292,124,50740,1,0,0:0:0:0:
452,144,57115,6,0,P|400:268|296:300,1,240
224,304,58240,1,0,0:0:0:0:
140,328,58615,2,0,P|48:240|88:136,1,240
120,72,59740,1,0,0:0:0:0:
224,68,60115,2,0,P|376:40|432:96,1,240
444,192,61240,1,0,0:0:0:0:
440,276,61615,2,0,P|316:332|196:308,1,240
84,328,62740,1,0,0:0:0:0:
80,64,69115,6,0,L|328:64,1,240
432,320,70615,2,0,L|184:320,1,240
432,76,72115,2,0,L|432:328,1,240
80,308,73615,2,0,L|80:56,1,240
256,52,75115,6,0,L|396:52,1,120
380,192,75865,2,0,L|380:320,1,120
256,332,76615,2,0,L|116:332,1,120
132,192,77365,2,0,L|132:64,1,120
256,192,78865,12,0,80740,0:0:0:0:
84,144,81115,6,0,P|208:72|408:164,1,360
428,240,82615,2,0,P|304:312|104:220,1,360
356,116,84115,2,0,P|356:308|200:308,1,360
156,268,85615,2,0,P|156:76|312:76,1,360
408,344,87115,6,0,P|456:236|364:148,1,240
312,120,88240,1,8,0:0:0:0:
256,48,88615,2,0,B|80:88|60:108|40:176,1,240
40,232,89740,1,8,0:0:0:0:
152,232,90115,2,2,L|300:232,3,120,0|0|0|0,0:0|0:0|0:0|0:0,0:0:0:0:
360,152,91615,2,2,L|212:152,3,120,0|0|0|0,0:0|0:0|0:0|0:0,0:0:0:0:
84,144,93115,6,0,P|208:72|408:164,1,360
428,240,94615,2,0,P|304:312|104:220,1,360
356,116,96115,2,0,P|356:308|200:308,1,360
156,268,97615,2,0,P|156:76|312:76,1,360
408,344,99115,6,0,P|456:236|364:148,1,240
312,120,100240,1,8,0:0:0:0:
256,48,100615,2,0,B|80:88|60:108|40:176,1,240
40,232,101740,1,8,0:0:0:0:
152,232,102115,2,0,L|300:232,3,120,0|0|0|0,0:0|0:0|0:0|0:0,0:0:0:0:
360,152,103615,2,0,L|212:152,3,120,0|0|0|0,0:0|0:0|0:0|0:0,0:0:0:0:
256,228,105115,1,4,0:0:0:0:
356,84,117115,5,4,0:0:0:0:
392,164,117677,1,0,0:0:0:0:
440,232,118240,1,0,0:0:0:0:
472,304,118615,2,0,P|312:276|316:228,1,240
216,232,119740,1,0,0:0:0:0:
152,336,120115,1,0,0:0:0:0:
60,248,120677,1,0,0:0:0:0:
88,144,121240,1,0,0:0:0:0:
128,52,121615,2,0,P|244:24|364:72,1,240
432,84,122740,1,0,0:0:0:0:
432,188,123115,6,0,P|384:312|288:308,1,240
180,304,124240,1,0,0:0:0:0:
108,240,124615,1,0,0:0:0:0:
60,144,125177,2,0,P|144:56|320:48,1,300
432,88,126865,2,0,P|380:144|372:188,1,120
408,256,127615,1,0,0:0:0:0:
332,328,128365,1,8,0:0:0:0:
256,248,128740,1,8,0:0:0:0:
188,304,129115,6,0,P|48:268|68:212,1,240
128,132,130240,1,0,0:0:0:0:
224,48,130615,2,0,P|360:148|424:140,1,240
456,224,131740,1,0,0:0:0:0:
432,304,132115,2,0,P|292:336|204:272,1,240
160,208,133240,1,0,0:0:0:0:
68,188,133615,2,0,P|128:68|224:80,1,240
292,124,134740,1,0,0:0:0:0:
304,52,141115,6,0,P|460:136|392:264,1,360
208,332,142615,2,0,P|52:248|120:120,1,360
256,36,144115,2,0,P|340:116|260:208,1,240
256,348,145615,2,0,P|172:268|252:176,1,240
448,152,147115,6,0,P|388:80|244:72,1,240
176,120,148615,2,0,P|116:244|184:316,1,240
256,312,149740,2,0,L|344:312,1,60
316,120,150490,2,0,L|240:120,1,60
256,192,151240,12,0,152740,0:0:0:0:
84,144,153115,6,0,P|208:72|408:164,1,360
428,240,154615,2,0,P|304:312|104:220,1,360
356,116,156115,2,0,P|356:308|200:308,1,360
156,268,157615,2,0,P|156:76|312:76,1,360
408,344,159115,6,0,P|456:236|364:148,1,240
312,120,160240,1,8,0:0:0:0:
256,48,160615,2,0,B|80:88|60:108|40:176,1,240
40,232,161740,1,8,0:0:0:0:
152,232,162115,2,2,L|300:232,3,120,0|0|0|0,0:0|0:0|0:0|0:0,0:0:0:0:
360,152,163615,2,2,L|212:152,3,120,0|0|0|0,0:0|0:0|0:0|0:0,0:0:0:0:
84,144,165115,6,0,P|208:72|408:164,1,360
428,240,166615,2,0,P|304:312|104:220,1,360
356,116,168115,2,0,P|356:308|200:308,1,360
156,268,169615,2,0,P|156:76|312:76,1,360
408,344,171115,6,4,P|456:236|364:148,1,240
312,120,172240,1,8,0:0:0:0:
256,48,172615,2,0,B|80:88|60:108|40:176,1,240
40,232,173740,1,8,0:0:0:0:
152,232,174115,2,0,L|300:232,3,120,0|0|0|0,0:0|0:0|0:0|0:0,0:0:0:0:
360,152,175615,2,0,L|212:152,3,120,0|0|0|0,0:0|0:0|0:0|0:0,0:0:0:0:
224,192,177115,6,4,L|312:192|312:192,16,60,0|0|0|0|0|0|0|0|0|0|0|0|0|0|0|0|4,0:0|0:0|0:0|0:0|0:0|0:0|0:0|0:0|0:0|0:0|0:0|0:0|0:0|0:0|0:0|0:0|0:0,0:0:0:0:
