osu file format v12

[General]
AudioFilename: 04 This Is War.mp3
AudioLeadIn: 0
PreviewTime: 80552
Countdown: 0
SampleSet: Soft
StackLeniency: 0.7
Mode: 0
LetterboxInBreaks: 0

[Editor]
Bookmarks: 33115,117115
DistanceSpacing: 1
BeatDivisor: 4
GridSize: 4

[Metadata]
Title:This Is War
TitleUnicode:This Is War
Artist:30 Seconds To Mars
ArtistUnicode:30 Seconds To Mars
Creator:Kyshiro
Version:Fine
Source:
Tags:Cut Short Version
BeatmapID:262102
BeatmapSetID:97192

[Difficulty]
HPDrainRate:2
CircleSize:2
OverallDifficulty:2
ApproachRate:3
SliderMultiplier:0.9
SliderTickRate:2

[Events]
//Background and Video events
0,0,"30stm.jpg",0,0
//Break Periods
2,105315,115675
//Storyboard Layer 0 (Background)
//Storyboard Layer 1 (Fail)
//Storyboard Layer 2 (Pass)
//Storyboard Layer 3 (Foreground)
//Storyboard Sound Samples
//Background Colour Transformations
3,100,163,162,255

[TimingPoints]
115,375,4,2,1,40,1,0
33115,-100,4,2,1,40,0,0
45115,-100,4,2,1,55,0,0
57115,-100,4,2,1,55,0,0
69115,-100,4,2,1,65,0,0
81115,-100,4,2,1,100,0,1
92552,-100,4,3,1,100,0,1
93021,-100,4,2,1,100,0,0
93115,-100,4,2,1,100,0,1
105115,-100,4,2,1,70,0,0
117115,-100,4,2,1,65,0,0
141115,-100,4,2,1,65,0,0
153115,-100,4,2,1,100,0,1
165021,-100,4,2,1,100,0,0
165115,-100,4,2,1,100,0,1
180115,-100,4,2,1,70,0,0

[HitObjects]
128,224,33115,2,0,B|208:176|256:224|304:272|384:224,1,270,2|0,0:0|0:0,0:0:0:0:
444,156,34615,2,0,P|460:112|436:24,2,135,2|0|0,0:0|0:0|0:0,0:0:0:0:
356,136,36115,5,2,0:0:0:0:
244,60,36677,2,0,P|176:32|48:104,1,225,0|2,0:0|0:0,0:0:0:0:
80,232,38177,2,0,P|148:260|276:188,1,225,0|2,0:0|0:0,0:0:0:0:
320,68,39677,5,0,0:0:0:0:
440,132,40240,2,0,P|456:176|448:232,1,90,0|2,0:0|0:0,0:0:0:0:
400,340,41177,2,0,P|344:368|192:304,1,225,0|2,0:0|0:0,0:0:0:0:
112,216,42677,6,0,P|168:188|316:252,1,225,0|2,0:0|0:0,0:0:0:0:
435,292,44177,2,0,P|438:247|343:97,1,225,0|2,0:0|0:0,0:0:0:0:
257,200,45677,6,0,P|190:196|132:143,1,135
108,69,46615,1,2,0:0:0:0:
12,164,47177,2,0,L|28:304,1,135
100,351,48115,5,2,0:0:0:0:
231,320,48677,2,0,P|273:279|282:198,1,135
349,143,49615,2,0,P|286:135|245:75,2,135,2|0|0,0:0|0:0|0:0,0:0:0:0:
416,84,51115,6,0,P|464:104|500:192,2,135,2|0|0,0:0|0:0|0:0,0:0:0:0:
408,176,52615,1,2,0:0:0:0:
274,192,53177,6,0,P|226:172|190:84,1,135
282,100,54115,1,2,0:0:0:0:
256,192,54677,12,0,55990,0:0:0:0:
389,282,57115,5,0,3:0:0:0:
326,213,57490,2,0,P|261:175|160:198,1,180,2|0,0:0|0:0,0:0:0:0:
170,285,58615,6,0,P|191:338|184:375,1,90,0|0,0:0|0:0,0:0:0:0:
100,342,59365,2,0,P|52:260|70:181,1,180,2|0,0:0|0:0,0:0:0:0:
144,72,60677,6,0,B|240:36|240:36|236:88|266:126|315:137,1,225,2|0,0:0|0:0,0:0:0:0:
332,48,61990,1,0,0:0:0:0:
332,48,62365,2,0,P|400:68|428:168,1,180,2|0,0:0|0:0,0:0:0:0:
368,288,63677,6,0,P|284:288|188:192,1,225,2|0,0:0|0:0,0:0:0:0:
323,193,65177,2,0,P|228:288|144:288,1,225,2|0,0:0|0:0,0:0:0:0:
256,192,66677,12,0,68365,0:0:0:0:
176,112,69115,6,0,P|236:76|336:112,1,180,2|0,0:0|0:0,0:0:0:0:
256,220,70427,2,0,P|284:296|384:344,2,180,2|0|2,0:0|0:0|0:0,0:0:0:0:
280,132,72302,5,0,0:0:0:0:
316,48,72677,2,0,P|368:104|336:204,1,180,0|2,0:0|0:0,0:0:0:0:
308,280,73802,1,0,0:0:0:0:
244,216,74177,2,0,P|192:160|215:67,2,180,0|2|0,0:0|0:0|0:0,0:0:0:0:
424,224,76427,5,2,0:0:0:0:
256,288,77177,1,0,0:0:0:0:
88,224,77927,1,2,0:0:0:0:
256,160,78677,1,0,0:0:0:0:
400,272,79427,2,0,P|256:328|112:272,1,315,2|0,0:0|1:0,0:0:0:0:
92,184,81115,6,0,P|72:120|12:88,2,135,4|0|0,0:0|1:0|1:0,0:0:0:0:
180,168,82615,2,0,P|232:200|316:192,1,135,0|0,1:0|1:0,0:0:0:0:
432,148,83740,2,0,L|424:44,1,90,0|0,1:0|1:0,0:0:0:0:
296,100,84677,6,0,L|313:325,1,225,0|0,1:0|1:0,0:0:0:0:
208,240,86177,2,0,P|268:204|420:240,1,225,0|0,1:0|1:0,0:0:0:0:
508,136,87677,6,0,P|440:136|376:96,1,135,0|0,1:0|0:0,0:0:0:0:
304,64,88615,2,0,P|236:48|160:76,2,135,0|0|0,1:0|1:0|0:0,0:0:0:0:
290,153,90115,6,0,B|252:205|185:234|185:234|252:263|290:316,1,270,0|0,1:0|0:0,0:0:0:0:
340,235,91615,2,0,B|378:182|445:153|445:153|378:124|340:72,1,270,0|0,1:0|0:0,0:0:0:0:
255,37,93115,6,0,P|219:69|131:69,1,135,0|0,1:0|1:0,0:0:0:0:
52,184,94240,1,0,0:0:0:0:
140,192,94615,2,0,P|196:220|224:288,2,135,0|0|0,1:0|1:0|0:0,0:0:0:0:
128,280,96115,6,0,P|208:376|300:224,2,360,0|0|0,1:0|1:0|1:0,0:0:0:0:
128,144,99677,6,0,B|192:168|192:168|240:108,1,135,0|0,1:0|0:0,0:0:0:0:
304,172,100615,2,0,B|345:119|345:119|409:143,1,135,0|0,1:0|1:0,0:0:0:0:
352,272,101740,1,0,0:0:0:0:
352,272,102115,2,0,P|220:344|160:272,1,270,0|0,1:0|0:0,0:0:0:0:
256,192,103427,12,4,105115,0:0:0:0:
92,88,117115,5,0,0:0:0:0:
108,176,117490,2,0,P|136:232|244:264,1,180,2|0,0:0|0:0,0:0:0:0:
328,236,118615,2,0,P|412:236|456:280,2,135,0|2|0,0:0|0:0|0:0,0:0:0:0:
372,316,120115,5,0,0:0:0:0:
240,292,120677,2,0,P|224:240|256:156,1,135,2|0,0:0|0:0,0:0:0:0:
332,128,121615,1,0,0:0:0:0:
428,224,122177,2,0,P|408:312|284:360,1,225,2|0,0:0|0:0,0:0:0:0:
156,340,123677,6,0,P|76:260|92:152,1,225,2|0,0:0|0:0,0:0:0:0:
136,36,125177,2,0,P|216:116|200:224,1,225,2|0,0:0|0:0,0:0:0:0:
256,192,126677,12,0,127990,0:0:0:0:
224,344,129115,5,0,3:0:0:0:
136,340,129490,2,0,L|76:208,1,135,2|0,0:0|0:0,0:0:0:0:
80,84,130615,6,0,P|116:128|196:132,1,135,2|0,0:0|0:0,0:0:0:0:
272,100,131552,2,0,P|346:106|382:150,1,135,0|0,0:0|0:0,0:0:0:0:
388,240,132490,2,0,L|388:348,2,90,2|0|0,0:0|0:0|0:0,0:0:0:0:
308,200,133615,5,0,0:0:0:0:
220,300,134177,2,0,P|152:316|60:200,1,225,2|0,0:0|3:0,0:0:0:0:
104,84,135677,2,0,B|170:43|210:84|250:124|317:84,1,225,2|0,0:0|0:0,0:0:0:0:
316,220,137177,2,0,B|249:179|209:220|169:260|102:220,1,225,2|0,0:0|0:0,0:0:0:0:
256,192,138677,12,0,140177,3:0:0:0:
44,144,141115,6,0,P|84:124|176:160,2,135,0|0|0,3:0|0:0|0:0,0:0:0:0:
104,212,142615,2,0,P|186:236|226:216,2,135,2|0|0,0:0|0:0|0:0,0:0:0:0:
168,148,144115,6,0,L|220:64,1,90,2|0,0:0|0:0,0:0:0:0:
284,128,144865,2,0,L|371:81,1,90,2|0,0:0|0:0,0:0:0:0:
412,160,145615,2,0,L|510:163,1,90,2|0,0:0|0:0,0:0:0:0:
472,248,146365,2,0,L|274:241,1,180,2|0,0:0|0:0,0:0:0:0:
228,124,147677,6,0,P|184:88|72:132,2,180,2|0|2,0:0|0:0|0:0,0:0:0:0:
256,304,149927,2,0,P|344:304|392:216,1,180,0|2,0:0|0:0,0:0:0:0:
400,48,151427,2,0,B|316:32|256:92|256:92|196:32|112:48,1,315,2|0,0:0|1:0,0:0:0:0:
44,108,153115,6,0,L|52:252,2,135,4|0|0,0:0|1:0|0:0,0:0:0:0:
132,124,154615,2,0,P|192:192|248:200,1,135,0|0,1:0|1:0,0:0:0:0:
368,192,155740,1,0,0:0:0:0:
456,168,156115,6,0,P|404:108|336:104,2,135,0|0|0,1:0|1:0|0:0,0:0:0:0:
440,256,157615,2,0,P|328:280|280:148,1,270,0|0,1:0|0:0,0:0:0:0:
208,96,159115,6,0,P|152:72|72:112,2,135,0|0|0,1:0|1:0|0:0,0:0:0:0:
148,164,160615,1,0,1:0:0:0:
232,268,161177,2,0,B|280:268|280:268|312:252|312:252|376:252,1,135,0|0,1:0|0:0,0:0:0:0:
452,248,162115,6,0,P|384:164|348:164,2,135,0|0|0,1:0|1:0|0:0,0:0:0:0:
363,252,163615,2,0,B|312:252|312:252|280:268|280:268|232:268,2,135,0|0|0,1:0|1:0|0:0,0:0:0:0:
452,248,165115,6,0,P|384:164|348:164,1,135,0|0,1:0|1:0,0:0:0:0:
276,60,166240,1,0,0:0:0:0:
276,60,166615,2,0,P|232:120|168:136,1,135,0|0,1:0|1:0,0:0:0:0:
80,228,167740,1,0,0:0:0:0:
144,304,168115,6,0,P|256:368|368:304,1,270,0|0,1:0|0:0,0:0:0:0:
368,212,169615,2,0,P|256:148|144:212,1,270,0|0,1:0|0:0,0:0:0:0:
188,288,171115,6,0,L|324:288,2,135,0|0|0,1:0|1:0|0:0,0:0:0:0:
144,212,172615,2,0,P|124:172|36:108,2,135,0|0|0,1:0|1:0|0:0,0:0:0:0:
224,168,174115,6,0,P|296:240|384:240,1,180,0|0,1:0|0:0,0:0:0:0:
492,188,175427,2,0,P|420:116|332:116,1,180,0|0,1:0|0:0,0:0:0:0:
224,168,176740,1,0,0:0:0:0:
256,192,177115,12,4,180115,0:0:0:0:
