osu file format v12

[General]
AudioFilename: 04 This Is War.mp3
AudioLeadIn: 0
PreviewTime: 80552
Countdown: 0
SampleSet: Soft
StackLeniency: 0.7
Mode: 0
LetterboxInBreaks: 0

[Editor]
Bookmarks: 33115,117115
DistanceSpacing: 1.2
BeatDivisor: 4
GridSize: 4

[Metadata]
Title:This Is War
TitleUnicode:This Is War
Artist:30 Seconds To Mars
ArtistUnicode:30 Seconds To Mars
Creator:Kyshiro
Version:Exquisite
Source:
Tags:Cut Short Version
BeatmapID:260022
BeatmapSetID:97192

[Difficulty]
HPDrainRate:6
CircleSize:4
OverallDifficulty:7
ApproachRate:8
SliderMultiplier:1.8
SliderTickRate:2

[Events]
//Background and Video events
0,0,"30stm.jpg",0,0
//Break Periods
2,105314,116365
//Storyboard Layer 0 (Background)
//Storyboard Layer 1 (Fail)
//Storyboard Layer 2 (Pass)
//Storyboard Layer 3 (Foreground)
//Storyboard Sound Samples
//Background Colour Transformations
3,100,163,162,255

[TimingPoints]
115,375,4,2,1,40,1,0
33115,-133.333333333333,4,2,1,40,0,0
45115,-117.647058823529,4,2,1,55,0,0
57115,-108.695652173913,4,2,1,55,0,0
69302,-108.695652173913,4,2,1,65,0,0
81115,-100,4,2,1,100,0,1
93021,-100,4,2,1,100,0,0
93115,-100,4,2,1,100,0,1
105115,-100,4,2,1,100,0,0
117115,-117.647058823529,4,2,1,65,0,0
141115,-108.695652173913,4,2,1,65,0,0
153115,-100,4,2,1,100,0,1
165021,-100,4,2,1,100,0,0
165115,-100,4,2,1,100,0,1
180115,-100,4,2,1,100,0,0

[HitObjects]
56,104,33115,2,0,P|44:144|64:192,2,67.5000025749208,2|0|0,0:0|0:0|0:0,0:0:0:0:
128,144,33677,2,0,P|176:184|252:172,1,135.000005149842,2|0,0:0|0:0,0:0:0:0:
304,120,34240,2,0,P|312:80|304:44,1,67.5000025749208
232,80,34615,5,2,0:0:0:0:
304,120,34802,1,0,0:0:0:0:
384,124,34990,1,0,0:0:0:0:
464,140,35177,2,0,P|500:176|488:264,1,135.000005149842,2|0,0:0|0:0,0:0:0:0:
424,212,35740,2,0,P|392:200|356:204,1,67.5000025749208
292,252,36115,6,0,P|280:284|284:320,2,67.5000025749208,2|0|0,0:0|0:0|0:0,0:0:0:0:
216,228,36677,2,0,P|196:180|116:140,1,135.000005149842,2|0,0:0|0:0,0:0:0:0:
48,160,37240,1,0,0:0:0:0:
12,232,37427,1,0,0:0:0:0:
43,306,37615,6,0,P|67:330|115:338,1,67.5000025749208,2|0,0:0|0:0,0:0:0:0:
180,372,37990,1,0,0:0:0:0:
180,372,38177,2,0,P|224:344|304:344,1,135.000005149842,2|0,0:0|0:0,0:0:0:0:
384,364,38740,2,0,P|428:364|456:348,1,67.5000025749208
480,280,39115,5,2,0:0:0:0:
456,204,39302,1,0,0:0:0:0:
380,180,39490,1,0,0:0:0:0:
308,212,39677,2,0,P|232:220|184:188,1,135.000005149842,2|0,0:0|0:0,0:0:0:0:
124,136,40240,2,0,P|131:102|124:68,1,67.5000025749208
52,104,40615,5,2,0:0:0:0:
52,184,40802,1,0,0:0:0:0:
112,236,40990,1,0,0:0:0:0:
192,236,41177,2,0,P|224:220|248:184,2,67.5000025749208,2|0|0,0:0|0:0|0:0,0:0:0:0:
256,288,41740,2,0,P|288:304|312:340,1,67.5000025749208
356,264,42115,6,0,P|375:239|407:223,1,67.5000025749208,2|0,0:0|0:0,0:0:0:0:
480,260,42490,1,0,0:0:0:0:
484,180,42677,2,0,P|452:148|360:148,1,135.000005149842,2|0,0:0|0:0,0:0:0:0:
288,176,43240,2,0,P|252:188|212:180,1,67.5000025749208
156,132,43615,6,0,P|144:96|152:56,2,67.5000025749208,2|0|0,0:0|0:0|0:0,0:0:0:0:
224,92,44177,1,0,0:0:0:0:
224,92,44365,2,0,P|237:56|269:31,1,67.5000025749208,2|0,0:0|0:0,0:0:0:0:
304,104,44740,2,0,P|337:85|378:86,1,67.5000025749208,0|0,0:0|0:0,0:0:0:0:
420,36,45115,6,0,P|368:80|364:168,1,153.000002918243,2|0,0:0|0:0,0:0:0:0:
392,232,45677,2,0,P|385:312|333:356,1,153.000002918243,2|0,0:0|0:0,0:0:0:0:
264,328,46240,1,0,0:0:0:0:
188,344,46427,1,0,0:0:0:0:
124,304,46615,6,0,L|124:220,2,76.5000014591217,2|0|0,0:0|0:0|0:0,0:0:0:0:
52,272,47177,2,0,L|52:112,1,153.000002918243,2|0,0:0|0:0,0:0:0:0:
108,64,47740,2,0,P|136:92|172:96,1,76.5000014591217
244,72,48115,6,0,P|280:76|308:104,1,76.5000014591217,2|0,0:0|0:0,0:0:0:0:
376,140,48490,1,0,0:0:0:0:
376,140,48677,2,0,P|360:208|392:292,1,153.000002918243,2|0,0:0|0:0,0:0:0:0:
456,316,49240,2,0,P|460:264|440:232,1,76.5000014591217
316,312,49615,6,0,P|256:356|180:356,1,153.000002918243,2|0,0:0|0:0,0:0:0:0:
112,320,50177,1,0,0:0:0:0:
80,252,50365,2,0,P|84:204|108:172,1,76.5000014591217,2|0,0:0|0:0,0:0:0:0:
188,164,50740,2,0,P|184:212|160:244,1,76.5000014591217
268,184,51115,6,0,P|336:152|412:164,1,153.000002918243,2|0,0:0|0:0,0:0:0:0:
420,236,51677,2,0,L|400:72,1,153.000002918243,2|0,0:0|0:0,0:0:0:0:
344,36,52240,1,0,0:0:0:0:
268,24,52427,1,0,0:0:0:0:
204,64,52615,6,0,P|152:92|60:80,1,153.000002918243,2|0,0:0|0:0,0:0:0:0:
0,148,53177,2,0,P|56:164|116:244,1,153.000002918243,2|0,0:0|0:0,0:0:0:0:
139,308,53740,1,0,0:0:0:0:
202,349,53927,1,0,0:0:0:0:
276,330,54115,6,0,P|307:296|309:262,2,76.5000014591217,2|0|0,0:0|0:0|0:0,0:0:0:0:
231,267,54677,2,0,P|252:210|347:198,1,153.000002918243,2|0,0:0|0:0,0:0:0:0:
402,228,55240,1,0,0:0:0:0:
469,193,55427,5,0,0:0:0:0:
469,193,55521,1,0,0:0:0:0:
469,193,55615,2,0,P|492:113|463:50,1,153.000002918243,2|0,0:0|0:0,0:0:0:0:
391,30,56177,1,0,0:0:0:0:
337,85,56365,2,0,L|322:165,1,76.5000014591217,2|0,0:0|0:0,0:0:0:0:
254,237,56740,2,0,L|239:157,1,76.5000014591217,2|0,0:0|0:0,0:0:0:0:
183,101,57115,5,2,3:0:0:0:
100,97,57302,1,0,3:0:0:0:
39,153,57490,1,0,0:0:0:0:
39,235,57677,2,0,P|53:277|86:298,1,82.7999972204591,2|0,0:0|0:0,0:0:0:0:
143,355,58052,2,0,P|210:319|305:331,1,165.599994440918,2|0,0:0|0:0,0:0:0:0:
372,363,58615,5,2,0:0:0:0:
453,352,58802,1,0,0:0:0:0:
487,276,58990,1,0,0:0:0:0:
447,203,59177,2,0,P|435:160|437:117,1,82.7999972204591,2|0,0:0|0:0,0:0:0:0:
348,144,59552,2,0,P|304:84|215:57,1,165.599994440918,2|0,0:0|0:0,0:0:0:0:
164,119,60115,6,0,P|111:126|77:108,1,82.7999972204591,2|0,0:0|0:0,0:0:0:0:
46,41,60490,1,0,0:0:0:0:
130,50,60677,2,0,L|116:217,1,165.599994440918,2|0,0:0|0:0,0:0:0:0:
140,294,61240,1,0,0:0:0:0:
215,328,61427,1,0,0:0:0:0:
290,292,61615,6,0,P|318:260|316:214,1,82.7999972204591,2|0,0:0|0:0,0:0:0:0:
258,163,61990,1,0,0:0:0:0:
258,163,62177,2,0,P|306:215|410:219,1,165.599994440918,2|0,0:0|0:0,0:0:0:0:
461,171,62740,1,0,0:0:0:0:
454,88,62927,5,0,0:0:0:0:
454,88,63021,1,0,0:0:0:0:
454,88,63115,2,0,P|426:52|390:39,1,82.7999972204591,2|0,3:0|0:0,0:0:0:0:
318,77,63490,1,0,0:0:0:0:
318,77,63677,2,0,P|248:94|156:50,1,165.599994440918,2|0,0:0|0:0,0:0:0:0:
84,34,64240,1,0,0:0:0:0:
15,80,64427,1,0,0:0:0:0:
36,160,64615,6,0,P|74:186|124:182,1,82.7999972204591,2|0,0:0|0:0,0:0:0:0:
173,239,64990,1,0,0:0:0:0:
173,239,65177,2,0,P|242:222|326:269,1,165.599994440918,2|0,0:0|0:0,0:0:0:0:
326,347,65740,2,0,P|281:338|252:307,1,82.7999972204591
302,158,66115,1,2,0:0:0:0:
374,118,66302,1,0,0:0:0:0:
446,157,66490,1,0,0:0:0:0:
256,192,66677,12,0,68365,0:0:0:0:
94,251,68740,5,0,0:0:0:0:
94,251,68927,2,0,P|116:290|230:310,1,165.599994440918,2|0,0:0|0:0,0:0:0:0:
299,352,69490,1,0,0:0:0:0:
299,352,69677,2,0,P|351:338|394:349,1,82.7999972204591,2|0,0:0|0:0,0:0:0:0:
486,269,70052,2,0,P|434:283|391:272,1,82.7999972204591,2|0,0:0|0:0,0:0:0:0:
330,243,70427,6,0,P|300:182|340:85,1,165.599994440918,2|0,0:0|0:0,0:0:0:0:
400,20,70990,1,0,0:0:0:0:
400,20,71177,2,0,P|430:81|390:178,1,165.599994440918,2|0,0:0|0:0,0:0:0:0:
315,195,71740,1,0,0:0:0:0:
240,158,71927,6,0,P|178:144|85:196,1,165.599994440918,2|0,0:0|0:0,0:0:0:0:
66,268,72490,1,0,0:0:0:0:
100,343,72677,2,0,P|140:370|179:371,1,82.7999972204591,2|0,0:0|0:0,0:0:0:0:
241,321,73052,2,0,P|201:294|162:293,1,82.7999972204591,2|0,0:0|0:0,0:0:0:0:
160,212,73427,6,0,P|236:220|311:279,1,165.599994440918,2|0,0:0|0:0,0:0:0:0:
309,350,73990,1,0,0:0:0:0:
309,350,74177,2,0,P|310:262|359:197,1,165.599994440918,2|0,0:0|0:0,0:0:0:0:
421,152,74740,1,0,0:0:0:0:
387,76,74927,5,0,0:0:0:0:
387,76,75021,1,0,0:0:0:0:
387,76,75115,2,0,P|343:40|310:36,1,82.7999972204591,2|0,0:0|0:0,0:0:0:0:
252,85,75490,1,0,0:0:0:0:
252,85,75677,2,0,P|162:91|93:41,1,165.599994440918,2|0,0:0|0:0,0:0:0:0:
23,83,76240,1,0,0:0:0:0:
82,139,76427,5,0,0:0:0:0:
82,139,76521,1,0,0:0:0:0:
82,139,76615,2,0,P|91:186|74:224,1,82.7999972204591,2|0,0:0|0:0,0:0:0:0:
25,281,76990,1,0,0:0:0:0:
73,348,77177,2,0,P|126:370|224:322,1,165.599994440918,2|0,0:0|0:0,0:0:0:0:
239,247,77740,1,0,0:0:0:0:
239,247,77927,2,0,P|225:203|194:172,1,82.7999972204591,2|0,0:0|0:0,0:0:0:0:
298,29,78490,5,0,0:0:0:0:
298,29,78677,2,0,P|312:73|343:104,1,82.7999972204591,2|0,0:0|0:0,0:0:0:0:
460,208,79240,1,0,0:0:0:0:
460,208,79427,2,0,B|396:272|268:272|268:144|140:144|76:208,1,413.999986102295,2|0,0:0|0:0,0:0:0:0:
52,284,80552,1,0,0:0:0:0:
100,352,80740,1,0,1:0:0:0:
184,360,80927,1,0,0:0:0:0:
248,304,81115,6,0,P|268:248|256:208,1,90,4|0,1:0|0:0,0:0:0:0:
178,183,81490,1,0,0:0:0:0:
178,183,81677,2,0,P|233:216|343:186,1,180,0|0,1:0|0:0,0:0:0:0:
383,110,82240,2,0,P|384:54|360:13,1,90,0|0,1:0|0:0,0:0:0:0:
301,83,82615,5,0,1:0:0:0:
383,110,82802,1,0,0:0:0:0:
466,76,82990,1,0,0:0:0:0:
455,165,83177,2,0,P|420:215|381:225,1,90,0|0,1:0|0:0,0:0:0:0:
320,276,83552,1,0,0:0:0:0:
321,277,83740,2,0,P|282:252|227:252,1,90,0|0,1:0|0:0,0:0:0:0:
156,283,84115,6,0,P|95:295|4:230,1,180,0|0,1:0|0:0,0:0:0:0:
55,156,84677,2,0,P|59:109|37:65,1,90,0|0,1:0|0:0,0:0:0:0:
139,117,85052,1,0,0:0:0:0:
139,117,85240,2,0,P|182:135|225:128,1,90,0|0,1:0|0:0,0:0:0:0:
306,93,85615,6,0,P|373:77|485:125,1,180,0|0,1:0|0:0,0:0:0:0:
462,203,86177,2,0,P|395:219|283:171,1,180,0|0,1:0|0:0,0:0:0:0:
232,116,86740,1,0,1:0:0:0:
188,220,86927,5,0,0:0:0:0:
188,220,87021,1,0,0:0:0:0:
188,220,87115,2,0,P|137:253|98:253,1,90,0|0,1:0|0:0,0:0:0:0:
32,348,87490,1,0,0:0:0:0:
32,348,87677,2,0,P|100:335|203:377,1,180,0|0,1:0|0:0,0:0:0:0:
280,332,88240,1,0,1:0:0:0:
364,364,88427,1,0,1:0:0:0:
444,320,88615,6,0,P|448:272|420:228,1,90,0|0,1:0|0:0,0:0:0:0:
372,144,88990,1,0,0:0:0:0:
372,144,89177,2,0,P|304:184|196:180,1,180,0|0,1:0|0:0,0:0:0:0:
132,104,89740,1,0,1:0:0:0:
48,176,89927,6,0,P|32:224|44:268,1,90,0|0,0:0|1:0,0:0:0:0:
188,276,90302,2,8,P|154:238|110:226,1,90,0|0,0:0|0:0,0:0:0:0:
32,352,90677,2,8,P|81:341|113:309,1,90,0|0,1:0|0:0,0:0:0:0:
228,204,91052,1,0,0:0:0:0:
248,360,91240,1,0,1:0:0:0:
396,308,91427,6,0,L|428:220,1,90,0|0,1:0|1:0,0:0:0:0:
340,188,91802,2,0,L|372:100,1,90
232,204,92177,2,0,L|264:116,1,90,0|0,1:0|0:0,0:0:0:0:
178,48,92552,1,0,1:0:0:0:
151,41,92645,1,0,1:0:0:0:
124,41,92739,1,0,1:0:0:0:
99,49,92833,1,0,1:0:0:0:
75,63,92927,1,0,1:0:0:0:
57,82,93020,1,0,1:0:0:0:
44,105,93115,6,0,P|39:157|65:205,1,90,4|0,1:0|0:0,0:0:0:0:
74,280,93490,1,0,0:0:0:0:
74,280,93677,2,0,P|139:269|237:320,1,180,0|0,1:0|0:0,0:0:0:0:
312,270,94240,2,0,P|363:297|416:294,1,90,0|0,1:0|1:0,0:0:0:0:
477,263,94615,5,0,1:0:0:0:
483,173,94802,1,0,0:0:0:0:
419,108,94990,1,0,0:0:0:0:
331,128,95177,2,0,P|282:126|245:102,1,90,0|0,1:0|0:0,0:0:0:0:
175,51,95552,1,0,0:0:0:0:
175,51,95740,2,0,P|164:106|131:140,1,90,0|0,1:0|0:0,0:0:0:0:
65,178,96115,6,0,P|119:218|223:176,1,180,0|0,1:0|0:0,0:0:0:0:
223,89,96677,2,0,P|169:49|65:91,1,180,0|0,1:0|0:0,0:0:0:0:
144,134,97240,1,0,1:0:0:0:
218,184,97427,1,0,1:0:0:0:
307,175,97615,6,0,P|342:151|359:102,1,90,0|0,1:0|0:0,0:0:0:0:
448,28,97990,1,0,0:0:0:0:
448,28,98177,2,0,P|440:95|507:195,1,180,0|0,1:0|0:0,0:0:0:0:
510,284,98740,2,0,P|460:266|414:276,1,90,0|0,1:0|0:0,0:0:0:0:
346,226,99115,6,0,P|308:258|172:260,1,180,0|0,1:0|0:0,0:0:0:0:
109,212,99677,2,0,P|85:168|86:122,1,90,0|0,1:0|0:0,0:0:0:0:
148,64,100052,1,0,0:0:0:0:
148,64,100240,2,0,P|172:108|171:154,1,90,0|0,1:0|1:0,0:0:0:0:
248,196,100615,6,0,P|308:148|408:152,1,180,0|0,1:0|0:0,0:0:0:0:
472,212,101177,2,0,L|472:304,1,90,0|0,1:0|0:0,0:0:0:0:
380,356,101552,1,0,0:0:0:0:
292,292,101740,1,0,1:0:0:0:
192,332,101927,6,0,L|104:308,1,90,0|0,0:0|1:0,0:0:0:0:
64,204,102302,2,0,L|152:228,1,90
240,160,102677,2,0,L|152:136,1,90,0|0,1:0|0:0,0:0:0:0:
100,40,103052,1,0,0:0:0:0:
204,68,103240,1,0,1:0:0:0:
304,28,103427,6,0,P|372:20|416:44,1,90,0|0,1:0|0:0,0:0:0:0:
504,136,103802,2,0,P|436:144|392:120,1,90,0|0,0:0|1:0,0:0:0:0:
344,216,104177,2,0,B|280:184|216:184|160:224|160:224|120:252|52:292|4:256|-8:188|48:144|96:176,1,450,0|4,1:0|0:0,0:0:0:0:
28,184,117115,6,0,P|68:228|168:236,1,153.000002918243,2|0,0:0|0:0,0:0:0:0:
224,200,117677,2,0,P|313:211|353:255,1,153.000002918243,2|0,0:0|0:0,0:0:0:0:
340,328,118240,2,0,P|304:312|280:268,1,76.5000014591217
332,140,118615,5,2,0:0:0:0:
392,92,118802,1,0,0:0:0:0:
464,116,118990,1,0,0:0:0:0:
484,188,119177,2,0,L|484:264,1,76.5000014591217,2|0,0:0|0:0,0:0:0:0:
412,236,119552,2,0,P|348:220|272:264,1,153.000002918243,2|0,0:0|0:0,0:0:0:0:
204,232,120115,6,0,P|156:256|116:252,1,76.5000014591217,2|0,0:0|0:0,0:0:0:0:
72,204,120490,1,0,0:0:0:0:
72,204,120677,2,0,P|120:180|160:184,1,76.5000014591217,2|0,0:0|0:0,0:0:0:0:
184,116,121052,2,0,P|264:136|336:104,1,153.000002918243,2|0,0:0|0:0,0:0:0:0:
396,72,121615,6,0,P|444:68|480:84,1,76.5000014591217,2|0,0:0|0:0,0:0:0:0:
428,144,121990,1,0,0:0:0:0:
428,144,122177,2,0,P|428:192|448:224,1,76.5000014591217,2|0,0:0|0:0,0:0:0:0:
348,196,122552,2,0,P|332:252|256:304,1,153.000002918243,2|0,0:0|0:0,0:0:0:0:
188,272,123115,6,0,P|128:268|96:288,2,76.5000014591217,2|0|0,0:0|0:0|0:0,0:0:0:0:
152,344,123677,2,0,P|60:336|68:208,1,229.500004377365,2|0,0:0|0:0,0:0:0:0:
112,168,124427,1,0,0:0:0:0:
155,231,124615,6,0,P|195:247|247:223,1,76.5000014591217,2|0,0:0|0:0,0:0:0:0:
279,183,124990,1,0,0:0:0:0:
303,111,125177,2,0,P|187:57|98:93,1,229.500004377365,2|0,0:0|0:0,0:0:0:0:
112,168,125927,1,0,0:0:0:0:
155,231,126115,6,0,P|162:288|152:319,2,76.5000014591217,2|0|0,0:0|0:0|0:0,0:0:0:0:
236,264,126677,2,0,P|308:216|492:296,1,306.000005836487,2|0,0:0|0:0,0:0:0:0:
440,352,127615,6,0,P|396:360|360:344,1,76.5000014591217,2|0,0:0|0:0,0:0:0:0:
292,360,127990,1,0,0:0:0:0:
292,360,128177,2,0,P|224:332|144:348,1,153.000002918243,2|0,0:0|0:0,0:0:0:0:
48,304,128740,2,0,P|115:275|161:207,1,153.000002918243,2|0,0:0|3:0,0:0:0:0:
168,136,129302,6,0,P|160:88|132:52,1,76.5000014591217,2|0,0:0|0:0,0:0:0:0:
240,108,129677,2,0,P|268:172|344:216,1,153.000002918243,2|0,0:0|0:0,0:0:0:0:
412,208,130240,1,2,0:0:0:0:
476,168,130427,1,0,0:0:0:0:
412,208,130615,6,0,P|400:256|408:304,1,76.5000014591217,2|0,0:0|0:0,0:0:0:0:
352,340,130990,1,0,0:0:0:0:
352,340,131177,2,0,P|292:296|204:296,1,153.000002918243,2|0,0:0|0:0,0:0:0:0:
144,316,131740,2,0,P|67:312|7:268,1,153.000002918243,2|0,0:0|0:0,0:0:0:0:
8,192,132302,5,0,0:0:0:0:
64,140,132490,1,0,0:0:0:0:
136,168,132677,2,0,L|172:248,1,76.5000014591217,2|0,0:0|0:0,0:0:0:0:
228,160,133052,2,0,L|259:90,1,76.5000014591217,2|0,0:0|0:0,0:0:0:0:
328,56,133427,1,0,0:0:0:0:
404,64,133615,6,0,P|440:84|464:128,2,76.5000014591217,2|0|0,0:0|0:0|0:0,0:0:0:0:
388,140,134177,2,0,P|380:192|356:220,1,76.5000014591217,2|0,0:0|0:0,0:0:0:0:
312,156,134552,2,0,P|256:144|168:184,1,153.000002918243,2|0,0:0|0:0,0:0:0:0:
100,148,135115,6,0,L|92:60,1,76.5000014591217,2|0,3:0|0:0,0:0:0:0:
12,128,135490,1,0,0:0:0:0:
28,204,135677,2,0,P|72:272|216:264,1,229.500004377365,2|0,0:0|0:0,0:0:0:0:
272,312,136427,1,0,0:0:0:0:
272,312,136615,6,0,P|328:296|368:304,1,76.5000014591217,2|0,0:0|0:0,0:0:0:0:
420,316,136990,1,0,0:0:0:0:
420,316,137177,2,0,P|456:268|384:128,1,229.500004377365,2|0,0:0|0:0,0:0:0:0:
316,144,137927,5,0,0:0:0:0:
248,176,138115,1,2,0:0:0:0:
172,164,138302,1,0,0:0:0:0:
124,104,138490,1,0,0:0:0:0:
256,192,138677,12,0,140740,0:0:0:0:
80,248,141115,6,0,P|120:280|160:280,1,82.7999972204591,2|0,0:0|0:0,0:0:0:0:
224,244,141490,1,0,0:0:0:0:
224,244,141677,2,0,P|304:232|392:268,1,165.599994440918,2|0,0:0|0:0,0:0:0:0:
456,300,142240,1,0,0:0:0:0:
476,220,142427,6,0,L|488:132,1,82.7999972204591,2|0,0:0|0:0,0:0:0:0:
392,72,142802,2,0,L|403:154,1,82.7999972204591
324,124,143177,2,0,P|256:88|144:104,1,165.599994440918,2|0,0:0|0:0,0:0:0:0:
96,136,143740,1,0,0:0:0:0:
80,216,143927,6,0,P|88:264|128:304,1,82.7999972204591,2|0,0:0|0:0,0:0:0:0:
192,304,144302,2,0,P|184:256|144:216,1,82.7999972204591,0|0,0:0|0:0,0:0:0:0:
256,228,144677,2,0,P|256:176|324:72,1,165.599994440918,2|0,0:0|0:0,0:0:0:0:
396,64,145240,1,0,0:0:0:0:
464,112,145427,6,0,L|492:204,1,82.7999972204591,2|0,0:0|0:0,0:0:0:0:
376,248,145802,2,0,L|400:168,1,82.7999972204591
464,276,146177,2,0,P|412:332|316:320,1,165.599994440918,2|0,0:0|0:0,0:0:0:0:
268,268,146740,1,0,0:0:0:0:
264,184,146927,6,0,P|280:140|316:112,1,82.7999972204591,2|0,0:0|0:0,0:0:0:0:
396,124,147302,2,0,P|380:168|344:196,1,82.7999972204591,0|0,0:0|0:0,0:0:0:0:
184,160,147677,2,0,P|136:204|124:312,1,165.599994440918,2|0,0:0|0:0,0:0:0:0:
172,364,148240,5,0,0:0:0:0:
172,364,148427,2,0,P|200:328|196:280,1,82.7999972204591,2|0,0:0|0:0,0:0:0:0:
276,256,148802,2,0,P|280:216|312:176,1,82.7999972204591
356,248,149177,2,0,L|400:336,2,82.7999972204591,2|0|0,0:0|0:0|0:0,0:0:0:0:
420,196,149740,5,0,0:0:0:0:
420,196,149927,2,0,P|412:128|332:60,1,165.599994440918,2|0,0:0|0:0,0:0:0:0:
268,128,150490,1,0,0:0:0:0:
268,128,150677,2,0,P|188:156|116:115,1,165.599994440918,2|0,0:0|0:0,0:0:0:0:
198,58,151240,1,0,0:0:0:0:
256,192,151427,12,0,152740,1:0:0:0:
376,104,153115,6,0,P|432:128|448:160,1,90,4|0,1:0|0:0,0:0:0:0:
444,240,153490,1,0,0:0:0:0:
372,184,153677,2,0,P|352:232|440:332,1,180,0|0,1:0|0:0,0:0:0:0:
444,240,154240,1,0,1:0:0:0:
372,184,154427,1,0,0:0:0:0:
284,212,154615,6,0,P|232:228|184:216,1,90,0|0,1:0|0:0,0:0:0:0:
124,172,154990,1,0,0:0:0:0:
124,172,155177,2,0,L|96:80,1,90,0|0,1:0|0:0,0:0:0:0:
212,24,155552,1,0,0:0:0:0:
212,24,155740,2,0,L|184:116,1,90,0|0,1:0|0:0,0:0:0:0:
276,104,156115,6,0,P|348:84|452:140,1,180,0|0,1:0|0:0,0:0:0:0:
496,196,156677,2,0,P|516:268|460:372,1,180,0|0,1:0|0:0,0:0:0:0:
384,360,157240,2,0,P|352:328|344:276,1,90,0|0,1:0|0:0,0:0:0:0:
364,200,157615,6,0,P|344:284|236:320,1,180,0|0,1:0|0:0,0:0:0:0:
184,288,158177,2,0,P|140:276|96:292,1,90,0|0,1:0|0:0,0:0:0:0:
28,344,158552,1,0,0:0:0:0:
28,344,158740,2,0,P|8:288|16:252,1,90,0|0,1:0|0:0,0:0:0:0:
80,196,159115,6,0,P|85:167|65:111,2,90,0|0|0,1:0|0:0|0:0,0:0:0:0:
160,128,159677,2,0,P|200:88|336:88,1,180,0|0,1:0|0:0,0:0:0:0:
384,140,160240,1,0,1:0:0:0:
468,116,160427,1,0,0:0:0:0:
448,204,160615,6,0,P|404:228|360:228,1,90,0|0,1:0|0:0,0:0:0:0:
268,284,160990,1,0,0:0:0:0:
268,284,161177,2,0,P|307:284|351:308,1,90,0|0,1:0|0:0,0:0:0:0:
260,368,161552,1,0,0:0:0:0:
160,332,161740,1,0,1:0:0:0:
152,224,161927,6,0,P|168:180|216:148,1,90,0|0,0:0|1:0,0:0:0:0:
280,85,162302,2,0,P|310:121|314:179,1,90,0|0,0:0|0:0,3:0:0:0:
335,266,162677,2,0,P|289:274|237:248,1,90,0|0,1:0|0:0,3:0:0:0:
124,144,163052,1,0,0:0:0:0:
48,220,163240,1,0,1:0:0:0:
96,316,163427,6,0,L|204:340,1,90,0|0,1:0|0:0,0:0:0:0:
256,224,163802,2,0,L|148:248,1,90
280,312,164177,2,0,L|388:336,1,90,0|0,1:0|0:0,0:0:0:0:
464,280,164552,1,0,1:0:0:0:
475,255,164645,1,0,1:0:0:0:
479,229,164739,1,0,1:0:0:0:
477,202,164833,1,0,1:0:0:0:
467,177,164927,1,0,1:0:0:0:
452,155,165020,1,0,1:0:0:0:
431,138,165115,6,0,P|380:112|336:116,1,90,4|0,1:0|0:0,1:0:0:0:
264,148,165490,1,0,0:0:0:0:
264,148,165677,2,0,P|184:160|104:104,1,180,0|0,1:0|0:0,0:0:0:0:
76,20,166240,1,0,1:0:0:0:
164,32,166427,1,0,1:0:0:0:
20,140,166615,6,0,L|28:232,1,90,0|0,1:0|0:0,0:0:0:0:
96,288,166990,1,0,0:0:0:0:
176,244,167177,2,0,P|256:216|360:264,1,180,0|0,1:0|0:0,0:0:0:0:
412,304,167740,2,0,P|432:260|424:212,1,90,0|0,1:0|0:0,0:0:0:0:
392,136,168115,6,0,P|320:152|216:80,1,180,0|0,1:0|0:0,0:0:0:0:
132,156,168677,2,0,P|202:178|256:292,1,180,0|0,1:0|0:0,0:0:0:0:
200,340,169240,1,0,1:0:0:0:
124,292,169427,1,0,1:0:0:0:
48,340,169615,6,0,L|16:256,1,90,0|0,1:0|0:0,0:0:0:0:
56,176,169990,1,0,0:0:0:0:
136,216,170177,2,0,P|208:224|296:156,1,180,0|0,1:0|0:0,0:0:0:0:
324,80,170740,1,0,1:0:0:0:
396,132,170927,1,0,0:0:0:0:
484,124,171115,6,0,P|504:80|496:28,1,90,0|0,1:0|0:0,0:0:0:0:
412,44,171490,1,0,0:0:0:0:
396,132,171677,2,0,P|412:204|504:284,1,180,0|0,1:0|0:0,0:0:0:0:
428,348,172240,1,0,1:0:0:0:
352,300,172427,1,0,0:0:0:0:
272,336,172615,6,0,P|220:332|184:308,1,90,0|0,1:0|0:0,0:0:0:0:
100,316,172990,1,0,0:0:0:0:
100,316,173177,2,0,P|188:312|248:228,1,180,0|0,1:0|0:0,0:0:0:0:
228,156,173740,1,0,1:0:0:0:
156,104,173927,6,0,P|108:104|60:132,1,90,0|0,0:0|1:0,0:0:0:0:
228,156,174302,2,0,P|276:156|324:128,1,90
480,184,174677,2,0,P|404:180|312:236,1,180,0|0,1:0|0:0,0:0:0:0:
304,320,175240,1,0,1:0:0:0:
220,356,175427,1,0,1:0:0:0:
220,356,175615,6,0,L|172:268,1,90,0|0,1:0|0:0,0:0:0:0:
304,180,175990,2,0,L|260:259,1,90,0|0,0:0|1:0,0:0:0:0:
388,356,176365,2,0,L|340:268,1,90
396,204,176740,1,0,1:0:0:0:
476,248,176927,1,0,0:0:0:0:
256,192,177115,12,4,180115,0:0:0:0:
