osu file format v14

[General]
AudioFilename: Assassination Classroom Opening - OP.mp3
AudioLeadIn: 0
PreviewTime: 46951
Countdown: 1
SampleSet: Soft
StackLeniency: 0.7
Mode: 0
LetterboxInBreaks: 1
WidescreenStoryboard: 0

[Editor]
DistanceSpacing: 0.5
BeatDivisor: 4
GridSize: 4
TimelineZoom: 1

[Metadata]
Title:Seishun Satsubatsuron
TitleUnicode:青春サツバツ論
Artist:3-nen E-gumi Utatan
ArtistUnicode:3-nen E-gumi Utatan
Creator:saisee2010
Version:Insane
Source:Assassination Classroom Opening 1
Tags:
BeatmapID:665616
BeatmapSetID:296455

[Difficulty]
HPDrainRate:7
CircleSize:4.3
OverallDifficulty:8
ApproachRate:9
SliderMultiplier:2.8
SliderTickRate:1

[Events]
//Background and Video events
0,0,"assassination-classroom-ansatsu-kyoshitsu-anime-picture-1366x768.jpg",0,0
//Break Periods
//Storyboard Layer 0 (Background)
//Storyboard Layer 1 (Fail)
//Storyboard Layer 2 (Pass)
//Storyboard Layer 3 (Foreground)
//Storyboard Sound Samples

[TimingPoints]
205,410.958904109589,4,2,0,55,1,0
205,-200,4,2,0,55,0,0
924,-200,4,2,0,10,0,0
1026,-200,4,2,0,55,0,0
1746,-200,4,2,0,10,0,0
1848,-200,4,2,0,55,0,0
5136,-100,4,2,0,65,0,0
10684,-86.9565217391304,4,2,0,55,0,0
12944,-133.333333333333,4,2,0,55,0,0
13355,-117.647058823529,4,2,0,45,0,0
18287,-142.857142857143,4,2,0,30,0,0
18698,-100,4,2,0,50,0,0
19109,-100,4,2,0,65,0,0
21574,-133.333333333333,4,2,0,60,0,0
24759,-166.666666666667,4,2,0,60,0,0
25273,-111.111111111111,4,2,0,60,0,0
35136,-111.111111111111,4,2,0,30,0,0
35444,-111.111111111111,4,2,0,55,0,0
36883,-111.111111111111,4,2,0,40,0,0
37191,-111.111111111111,4,2,0,50,0,0
37602,-111.111111111111,4,2,0,60,0,0
38013,-111.111111111111,4,2,0,70,0,0
38424,-125,4,2,0,60,0,0
39657,-142.857142857143,4,2,0,55,0,0
40478,-166.666666666667,4,2,0,50,0,0
41300,-200,4,2,0,45,0,0
42122,-133.333333333333,4,2,0,65,0,0
44999,-117.647058823529,4,2,0,55,0,0
46129,-200,4,2,0,50,0,0
47054,-100,4,2,0,75,0,1
53629,-133.333333333333,4,2,0,60,0,0
56917,-90.9090909090909,4,2,0,70,0,0
57533,-90.9090909090909,4,2,0,75,0,0
58150,-90.9090909090909,4,2,0,80,0,0
59383,-90.9090909090909,4,2,0,90,0,0
60204,-83.3333333333333,4,2,0,80,0,1
65239,-133.333333333333,4,2,0,70,0,0
65650,-166.666666666667,4,2,0,70,0,0
66061,-125,4,2,0,70,0,0
66985,-133.333333333333,4,2,0,70,0,0
70068,-100,4,2,0,80,0,0
70889,-95.2380952380952,4,2,0,85,0,0
71711,-90.9090909090909,4,2,0,90,0,0
73355,-90.9090909090909,4,2,0,95,0,0
73766,-90.9090909090909,4,2,0,97,0,0
74177,-90.9090909090909,4,2,0,99,0,0
74588,-90.9090909090909,4,2,0,100,0,0
75410,-200,4,2,0,55,0,0
76026,-200,4,2,0,10,0,0
76643,-200,4,2,0,70,0,0
79931,-200,4,2,0,75,0,1
80136,-111.111111111111,4,2,0,85,0,1
86506,-111.111111111111,4,2,0,70,0,0

[HitObjects]
96,92,205,6,0,B|180:156|224:36|336:96,1,245,2|0,0:0|0:0,0:0:0:0:
356,96,1026,2,0,B|424:160|328:252|404:340,1,245,2|0,0:0|0:0,0:0:0:0:
368,328,1848,2,0,B|272:252|200:392|92:288,1,280,2|2,0:0|0:0,0:0:0:0:
72,192,3081,1,2,0:0:0:0:
180,220,3492,6,0,L|328:12,1,245,4|0,0:0|0:0,0:0:0:0:
348,28,4314,2,0,B|360:132|484:132|476:248,1,245,4|0,0:0|0:0,0:0:0:0:
472,284,5136,2,0,P|408:340|328:316,1,140,4|0,3:0|0:0,0:0:0:0:
304,320,5444,6,0,L|288:240,1,70,8|0,3:0|0:0,0:0:0:0:
176,264,5752,2,0,L|192:344,1,70,4|0,3:0|0:0,0:0:0:0:
392,256,6061,2,0,L|376:176,1,70,4|8,3:0|3:0,3:0:0:0:
372,168,6266,1,4,3:0:0:0:
368,148,6369,1,8,3:0:0:0:
364,128,6472,1,4,3:0:0:0:
360,108,6574,1,8,3:0:0:0:
356,88,6677,1,4,3:0:0:0:
352,68,6780,6,0,P|296:104|216:104,1,140,4|2,0:0|3:0,0:0:0:0:
92,60,7191,2,0,L|52:144,2,70,0|0|2,0:0|0:0|3:0,0:0:0:0:
144,140,7499,2,0,P|196:184|268:188,1,140
332,172,7807,2,0,L|356:268,1,70,2|0,3:0|0:0,0:0:0:0:
420,232,8013,2,0,L|440:320,1,70
376,336,8218,2,0,P|304:328|252:264,1,140,2|0,3:0|0:0,0:0:0:0:
176,264,8526,6,0,L|96:300,1,70,0|2,0:0|3:0,0:0:0:0:
224,184,8835,2,0,L|312:148,2,70,0|0|2,0:0|0:0|3:0,0:0:0:0:
176,264,9143,2,0,P|136:208|148:136,1,140
172,68,9451,2,0,L|96:40,2,70,2|0|0,3:0|0:0|0:0,0:0:0:0:
220,140,9759,2,0,L|292:160,1,70,0|2,0:0|3:0,0:0:0:0:
364,176,9965,1,0,0:0:0:0:
436,200,10068,6,0,B|420:296|420:296|388:284|376:332,1,140,0|2,0:0|3:0,0:0:0:0:
314,333,10376,1,0,0:0:0:0:
244,300,10478,1,0,0:0:0:0:
176,264,10581,1,0,0:0:0:0:
240,224,10684,2,0,P|268:188|272:144,1,80.5000015354157,2|0,3:0|0:0,0:0:0:0:
116,196,10992,2,0,P|88:232|84:276,1,80.5000015354157,0|2,0:0|3:0,0:0:0:0:
244,300,11300,2,0,P|280:328|324:332,1,80.5000015354157
396,324,11506,1,2,3:0:0:0:
448,264,11609,1,0,0:0:0:0:
432,184,11711,6,0,L|424:12,1,161.000003070831,4|0,0:0|0:0,0:0:0:0:
358,60,12020,2,0,L|366:232,1,161.000003070831,4|0,0:0|0:0,0:0:0:0:
300,256,12328,2,0,L|292:112,1,80.5000015354157,4|0,0:0|0:0,0:0:0:0:
244,300,12533,2,0,P|136:332|48:212,1,241.500004606247,4|0,0:0|0:0,0:0:0:0:
156,240,12944,2,0,L|216:68,1,157.500006008148,0|0,1:0|0:0,0:0:0:0:
252,76,13355,6,0,P|312:88|376:36,1,119.000002269745,0|0,1:0|0:0,0:0:0:0:
416,168,13766,1,0,0:0:0:0:
348,268,13972,2,0,P|408:288|472:276,1,119.000002269745,0|0,1:0|0:0,0:0:0:0:
284,172,14383,1,0,0:0:0:0:
284,172,14485,2,0,P|236:256|268:348,1,178.500003404617,0|0,1:0|0:0,0:0:0:0:
348,268,14999,5,0,1:0:0:0:
416,168,15204,1,0,0:0:0:0:
284,172,15410,2,0,P|224:152|160:164,2,119.000002269745,0|0|0,1:0|0:0|1:0,0:0:0:0:
472,272,16026,2,0,L|488:344,2,59.5000011348725,0|0|0,0:0|1:0|1:0,0:0:0:0:
416,168,16335,2,0,L|400:96,2,59.5000011348725
348,268,16643,2,0,L|364:340,2,59.5000011348725,0|0|0,1:0|0:0|0:0,0:0:0:0:
284,172,17054,5,0,1:0:0:0:
276,144,17157,1,0,0:0:0:0:
268,116,17259,1,0,0:0:0:0:
260,88,17362,1,0,0:0:0:0:
252,60,17465,2,0,P|192:64|144:96,1,119.000002269745,0|0,1:0|0:0,0:0:0:0:
28,76,17876,2,0,P|32:136|64:184,1,119.000002269745,0|0,1:0|0:0,0:0:0:0:
40,300,18287,2,0,P|120:284|168:224,1,146.999995513916,0|0,1:0|0:0,0:0:0:0:
196,204,18698,2,0,L|232:348,1,140,0|0,1:0|0:0,0:0:0:0:
360,288,19109,5,0,1:0:0:0:
312,156,19314,1,0,1:0:0:0:
312,156,19417,1,0,0:0:0:0:
200,72,19622,1,0,0:0:0:0:
200,72,19725,1,0,1:0:0:0:
200,72,19828,1,0,0:0:0:0:
200,72,19931,2,0,P|120:92|76:144,1,140,0|0,0:0|1:0,0:0:0:0:
128,188,20239,2,0,L|204:208,1,70
360,288,20547,5,0,1:0:0:0:
360,288,20650,1,0,0:0:0:0:
360,288,20752,2,0,L|380:212,2,70,0|0|0,0:0|0:0|1:0,0:0:0:0:
200,72,21163,1,0,0:0:0:0:
84,304,21369,1,0,1:0:0:0:
360,288,21574,2,0,P|408:312|464:308,2,105.000004005432,0|0|0,0:0|1:0|1:0,0:0:0:0:
268,240,22191,1,0,0:0:0:0:
268,240,22396,6,0,P|344:200|384:112,1,157.500006008148,4|0,0:0|0:0,0:0:0:0:
336,144,22807,2,0,L|232:88,1,105.000004005432
200,72,23115,1,0,0:0:0:0:
80,196,23424,1,2,0:0:0:0:
80,196,23629,1,0,1:0:0:0:
80,196,23835,1,2,0:0:0:0:
80,196,24040,2,0,L|44:328,1,105.000004005432,4|0,0:0|0:0,0:0:0:0:
160,256,24451,2,0,L|196:388,1,105.000004005432,0|0,1:0|1:0,0:0:0:0:
244,368,24759,2,0,P|340:360|404:268,1,209.999993591309,0|0,0:0|1:0,0:0:0:0:
160,256,25684,6,0,L|232:228,1,62.9999980773926,2|2,0:0|0:0,0:0:0:0:
80,196,25992,2,0,L|152:168,1,62.9999980773926,2|2,0:0|0:0,0:0:0:0:
256,124,26300,2,0,L|232:52,2,62.9999980773926,2|2|0,0:0|0:0|0:0,0:0:0:0:
352,116,26609,2,0,L|376:188,2,62.9999980773926,2|0|0,0:0|0:0|0:0,0:0:0:0:
352,116,26917,1,2,0:0:0:0:
352,116,27122,1,2,0:0:0:0:
352,116,27328,2,0,P|424:104|460:52,1,125.999996154785,4|0,0:0|0:0,0:0:0:0:
256,124,27739,2,0,P|184:136|148:188,1,125.999996154785,4|0,0:0|0:0,0:0:0:0:
420,196,28150,5,4,0:0:0:0:
152,176,28424,1,4,0:0:0:0:
352,116,28732,1,4,0:0:0:0:
232,204,28972,2,0,L|257:261,2,62.9999980773926,2|2|2,0:0|0:0|3:0,0:0:0:0:
116,156,29383,2,0,L|88:92,4,62.9999980773926,2|2|2|2|2,0:0|0:0|3:0|0:0|0:0,0:0:0:0:
132,280,29999,1,2,3:0:0:0:
232,204,30204,2,0,P|296:172|320:124,2,125.999996154785,0|2|0,0:0|3:0|0:0,0:0:0:0:
132,280,30821,5,2,3:0:0:0:
116,156,31026,1,2,0:0:0:0:
296,100,31232,1,2,3:0:0:0:
260,288,31437,1,6,0:0:0:0:
24,232,31746,1,4,0:0:0:0:
296,100,32054,1,4,0:0:0:0:
260,288,32259,2,0,P|312:324|376:320,1,125.999996154785,0|4,0:0|3:0,0:0:0:0:
116,156,32841,1,4,3:0:0:0:
116,156,33047,1,4,1:0:0:0:
372,320,33698,6,0,L|380:392,2,62.9999980773926,8|0|0,0:0|0:0|0:0,0:0:0:0:
360,196,34109,1,8,0:0:0:0:
256,264,34314,2,0,P|236:208|256:128,1,125.999996154785,2|0,0:0|0:0,0:0:0:0:
472,248,34725,2,0,P|483:186|432:92,1,125.999996154785,2|2,0:0|0:0,0:0:0:0:
412,84,35033,1,0,0:0:0:0:
348,76,35136,2,0,B|296:120|264:4|160:112,1,188.999994232178,8|2,0:0|3:0,0:0:0:0:
108,48,35547,2,0,L|100:192,1,125.999996154785,8|4,3:0|3:0,0:0:0:0:
372,320,36163,2,0,L|444:356,2,62.9999980773926,0|0|4,0:0|0:0|1:0,0:0:0:0:
348,76,36883,6,0,L|300:120,1,62.9999980773926,0|0,0:0|1:0,0:0:0:0:
280,140,37088,1,8,3:0:0:0:
252,156,37191,1,4,1:0:0:0:
220,156,37294,1,4,3:0:0:0:
192,140,37396,1,8,3:0:0:0:
172,120,37499,1,0,0:0:0:0:
144,108,37602,1,0,1:0:0:0:
112,116,37705,1,4,3:0:0:0:
92,140,37807,1,0,1:0:0:0:
96,172,37910,1,4,3:0:0:0:
112,200,38013,1,0,1:0:0:0:
140,212,38115,1,8,3:0:0:0:
160,236,38218,1,0,1:0:0:0:
168,268,38321,1,8,3:0:0:0:
160,296,38424,1,4,1:0:0:0:
320,316,38835,6,0,P|408:328|488:260,2,168,2|8|2,0:0|0:0|0:0,0:0:0:0:
380,212,39657,2,0,P|296:200|224:240,2,146.999995513916,4|8|2,0:0|0:0|0:0,0:0:0:0:
472,288,40478,2,0,L|500:152,2,125.999996154785,4|8|2,0:0|0:0|0:0,0:0:0:0:
380,212,41300,2,0,B|284:240|240:108|148:172,1,245,4|0,1:0|0:0,0:0:0:0:
108,128,42122,6,0,L|80:232,1,105.000004005432,0|4,0:0|0:0,0:0:0:0:
380,212,42739,2,0,L|407:110,1,105.000004005432,4|4,0:0|0:0,0:0:0:0:
200,236,43150,2,0,L|184:288,2,52.5000020027161,0|4|0,0:0|0:0|0:0,0:0:0:0:
108,128,43561,2,0,L|56:28,1,105.000004005432,4|0,0:0|0:0,0:0:0:0:
380,212,43972,2,0,L|432:312,1,105.000004005432,4|4,0:0|0:0,0:0:0:0:
312,148,44383,2,0,L|328:96,5,52.5000020027161,0|0|4|0|0|0,0:0|0:0|0:0|0:0|0:0|0:0,0:0:0:0:
312,148,44999,2,0,P|256:160|196:140,1,119.000002269745,4|0,0:0|0:0,0:0:0:0:
108,80,45410,2,0,P|89:135|101:193,1,119.000002269745,4|4,0:0|0:0,0:0:0:0:
40,280,45821,2,0,P|95:298|153:286,1,119.000002269745,4|4,0:0|0:0,0:0:0:0:
188,276,46129,2,0,B|296:200|360:368|460:248,1,280,4|0,0:0|0:0,0:0:0:0:
424,192,47054,6,0,L|384:24,1,140,4|2,0:0|3:0,0:0:0:0:
156,140,47465,2,0,L|196:308,1,140,4|2,0:0|3:0,0:0:0:0:
342,338,47876,1,4,0:0:0:0:
156,140,48081,1,2,3:0:0:0:
424,192,48287,1,4,0:0:0:0:
176,307,48492,1,2,3:0:0:0:
304,72,48698,1,4,0:0:0:0:
315,350,48903,1,2,3:0:0:0:
166,123,49109,1,4,0:0:0:0:
421,221,49314,2,0,L|504:196,1,70,2|4,3:0|0:0,0:0:0:0:
156,292,49622,2,0,L|84:320,1,70,2|4,3:0|0:0,0:0:0:0:
328,78,49931,1,4,0:0:0:0:
286,358,50136,1,4,0:0:0:0:
179,108,50341,5,4,0:0:0:0:
413,249,50547,2,0,L|499:239,2,70,2|2|4,0:0|3:0|0:0,0:0:0:0:
140,273,50958,2,0,L|64:288,2,70,2|2|4,0:0|3:0|0:0,0:0:0:0:
347,93,51369,1,2,3:0:0:0:
257,361,51574,1,4,0:0:0:0:
195,96,51779,1,2,3:0:0:0:
401,276,51985,2,0,L|487:280,2,70,4|2|2,0:0|0:0|3:0,0:0:0:0:
127,251,52396,2,0,L|50:253,2,70,4|2|2,0:0|0:0|3:0,0:0:0:0:
363,110,52807,1,4,1:0:0:0:
257,361,53013,1,4,3:0:0:0:
256,340,53115,1,4,3:0:0:0:
256,320,53218,1,4,3:0:0:0:
256,300,53321,1,4,3:0:0:0:
256,280,53424,1,4,3:0:0:0:
256,260,53526,1,4,3:0:0:0:
256,240,53629,6,0,L|256:88,2,105.000004005432,0|2|4,0:0|0:0|0:0,0:0:0:0:
326,276,54246,1,2,0:0:0:0:
136,132,54451,1,4,0:0:0:0:
374,136,54657,1,8,0:0:0:0:
374,136,54759,1,4,0:0:0:0:
184,276,54965,1,8,0:0:0:0:
184,276,55068,1,4,0:0:0:0:
256,48,55273,1,4,0:0:0:0:
326,276,55478,2,0,P|380:288|436:270,2,105.000004005432,2|4|2,3:0|0:0|3:0,0:0:0:0:
48,236,56095,1,4,0:0:0:0:
256,172,56300,1,2,3:0:0:0:
256,172,56403,1,4,0:0:0:0:
428,276,56609,2,0,L|442:326,2,52.5000020027161,2|4|2,0:0|0:0|3:0,0:0:0:0:
372,136,56917,6,0,P|320:68|248:48,1,154.000004699707,0|8,1:0|3:0,0:0:0:0:
137,209,57328,2,0,P|189:277|261:297,1,154.000004699707,0|4,1:0|3:0,0:0:0:0:
340,68,57739,2,0,P|260:35|188:53,1,154.000004699707,0|8,1:0|3:0,0:0:0:0:
172,272,58150,2,0,P|251:304|323:286,1,154.000004699707,0|0,1:0|1:0,0:0:0:0:
276,32,58561,2,0,P|191:43|138:95,1,154.000004699707,0|0,1:0|1:0,0:0:0:0:
236,312,58972,2,0,P|320:300|373:248,1,154.000004699707,0|0,1:0|1:0,0:0:0:0:
256,172,59383,1,0,1:0:0:0:
256,172,59794,1,4,1:0:0:0:
412,232,60204,6,0,L|448:308,2,83.9999974365235,2|0|4,0:0|0:0|0:0,0:0:0:0:
416,152,60513,2,0,L|472:76,2,83.9999974365235,2|2|0,0:0|0:0|0:0,0:0:0:0:
336,200,60821,2,0,L|227:187,2,83.9999974365235,4|2|2,0:0|0:0|0:0,0:0:0:0:
216,60,61232,1,4,0:0:0:0:
336,200,61437,1,2,0:0:0:0:
153,235,61643,1,4,0:0:0:0:
153,235,61848,2,0,L|124:314,2,83.9999974365235,2|0|4,0:0|0:0|0:0,0:0:0:0:
210,173,62157,2,0,L|314:141,2,83.9999974365235,2|2|0,0:0|0:0|0:0,0:0:0:0:
122,158,62465,2,0,L|37:107,2,83.9999974365235,4|0|2,0:0|0:0|0:0,0:0:0:0:
240,252,62876,1,4,0:0:0:0:
240,252,62978,1,0,0:0:0:0:
240,252,63081,1,2,0:0:0:0:
240,252,63184,1,0,0:0:0:0:
240,252,63287,6,0,P|304:304|392:292,1,167.999994873047,4|2,0:0|0:0,0:0:0:0:
448,208,63595,1,0,0:0:0:0:
336,200,63698,2,0,L|368:104,2,83.9999974365235,4|2|2,0:0|0:0|0:0,0:0:0:0:
240,252,64006,2,0,L|208:348,2,83.9999974365235,0|4|0,0:0|0:0|0:0,0:0:0:0:
236,144,64314,1,2,0:0:0:0:
384,296,64520,1,4,0:0:0:0:
436,96,64725,1,2,3:0:0:0:
240,252,64931,2,0,P|152:212|128:136,1,167.999994873047,4|2,0:0|3:0,0:0:0:0:
128,108,65239,2,0,P|184:48|264:40,1,157.500006008148,4|2,3:0|3:0,0:0:0:0:
288,48,65650,2,0,P|340:100|348:172,1,125.999996154785,4|4,3:0|0:0,0:0:0:0:
384,296,66061,2,0,L|432:364,5,56,4|4|4|4|0|0,3:0|3:0|3:0|3:0|0:0|0:0,0:0:0:0:
240,252,66780,6,0,P|200:292|140:300,1,112,8|4,0:0|0:0,0:0:0:0:
112,292,67088,2,0,L|48:108,1,157.500006008148,8|4,0:0|0:0,0:0:0:0:
240,252,67602,2,0,P|296:244|332:204,1,105.000004005432,8|4,0:0|0:0,0:0:0:0:
356,180,67910,2,0,L|420:364,1,157.500006008148,8|4,0:0|0:0,0:0:0:0:
241,114,68424,1,2,0:0:0:0:
111,292,68629,1,4,0:0:0:0:
112,72,68835,1,2,0:0:0:0:
240,252,69040,1,4,0:0:0:0:
31,182,69246,1,2,0:0:0:0:
241,114,69451,1,4,0:0:0:0:
241,114,69554,1,0,0:0:0:0:
356,180,69759,1,0,0:0:0:0:
356,180,69862,1,4,0:0:0:0:
356,180,69965,1,0,0:0:0:0:
356,180,70068,6,0,P|424:148|448:72,1,140,2|4,3:0|0:0,0:0:0:0:
240,252,70478,2,0,P|172:284|148:360,1,140,2|4,3:0|0:0,0:0:0:0:
356,180,70889,2,0,P|324:112|240:88,1,146.999995513916,2|4,3:0|0:0,0:0:0:0:
240,252,71300,2,0,P|272:320|356:344,1,146.999995513916,2|4,3:0|0:0,0:0:0:0:
356,180,71711,2,0,L|448:28,1,154.000004699707,2|4,3:0|0:0,0:0:0:0:
240,252,72122,2,0,L|148:404,1,154.000004699707,2|4,3:0|0:0,0:0:0:0:
240,116,72533,1,4,1:0:0:0:
240,116,72944,1,4,3:0:0:0:
216,116,73047,1,4,3:0:0:0:
192,116,73150,1,4,3:0:0:0:
168,116,73252,1,4,3:0:0:0:
144,116,73355,1,0,1:0:0:0:
272,268,73561,5,0,0:0:0:0:
120,116,73766,1,0,1:0:0:0:
300,268,73972,1,0,0:0:0:0:
96,116,74177,1,0,1:0:0:0:
320,268,74383,1,0,0:0:0:0:
72,116,74588,1,0,1:0:0:0:
348,268,74794,1,0,1:0:0:0:
52,116,74999,1,4,3:0:0:0:
52,116,75102,1,4,3:0:0:0:
52,116,75205,1,4,3:0:0:0:
52,116,75307,1,4,3:0:0:0:
52,116,75410,2,0,L|52:340,1,210,4|0,1:0|0:0,0:0:0:0:
216,317,76643,5,4,0:0:0:0:
368,108,76917,1,0,1:0:0:0:
122,188,77191,1,0,1:0:0:0:
368,268,77465,1,4,0:0:0:0:
216,58,77739,1,0,1:0:0:0:
148,267,78013,1,0,1:0:0:0:
395,192,78287,1,4,0:0:0:0:
151,108,78561,1,0,1:0:0:0:
299,320,78835,1,0,1:0:0:0:
304,60,79109,1,4,1:0:0:0:
256,188,79931,5,4,1:0:0:0:
256,188,80136,2,0,P|188:148|168:92,2,125.999996154785,0|2|2,0:0|0:0|3:0,0:0:0:0:
392,156,80752,2,0,P|460:196|480:252,2,125.999996154785,0|2|2,1:0|0:0|3:0,0:0:0:0:
348,284,81369,1,0,0:0:0:0:
256,188,81574,2,0,L|228:48,1,125.999996154785,0|2,1:0|0:0,0:0:0:0:
392,156,81985,2,0,L|420:296,2,125.999996154785,0|2|0,1:0|0:0|1:0,0:0:0:0:
176,324,82602,1,0,1:0:0:0:
140,88,82807,1,0,1:0:0:0:
392,156,83013,1,2,3:0:0:0:
176,324,83218,6,0,P|104:328|40:296,2,125.999996154785,4|2|2,1:0|3:0|0:0,0:0:0:0:
260,92,83835,1,0,0:0:0:0:
336,324,84040,1,0,1:0:0:0:
336,324,84246,2,0,P|408:328|472:296,2,125.999996154785,0|2|2,0:0|3:0|0:0,0:0:0:0:
136,178,84862,1,0,1:0:0:0:
380,182,85068,1,2,0:0:0:0:
180,323,85273,1,0,1:0:0:0:
260,92,85478,1,2,0:0:0:0:
336,324,85684,5,0,1:0:0:0:
136,180,85889,1,0,1:0:0:0:
388,32,86095,1,0,1:0:0:0:
456,308,86300,1,0,1:0:0:0:
456,308,86437,1,4,1:0:0:0:
