osu file format v14

[General]
AudioFilename: Assassination Classroom OP.mp3
AudioLeadIn: 0
PreviewTime: -1
Countdown: 1
SampleSet: Normal
StackLeniency: 0.7
Mode: 0
LetterboxInBreaks: 1
WidescreenStoryboard: 0

[Editor]
DistanceSpacing: 1.5
BeatDivisor: 4
GridSize: 4
TimelineZoom: 0.8

[Metadata]
Title:Seishun Satsubatsuron
TitleUnicode:Seishun Satsubatsuron
Artist:3-nen E-gumi Utatan
ArtistUnicode:3-nen E-gumi Utatan
Creator:Valiant Serpant
Version:Easy
Source:Assasination Classroom
Tags:Assassination Classroom Savage Youth Theory Seishun Satsubatsuron 3-nen E-gumi Utatan
BeatmapID:627149
BeatmapSetID:276657

[Difficulty]
HPDrainRate:4
CircleSize:3
OverallDifficulty:4
ApproachRate:5
SliderMultiplier:1
SliderTickRate:1

[Events]
//Background and Video events
0,0,"Assassination Classroom wallpaper.jpg",0,0
Video,592,"Assassination Classroom OPConverted.avi"
//Break Periods
//Storyboard Layer 0 (Background)
//Storyboard Layer 1 (Fail)
//Storyboard Layer 2 (Pass)
//Storyboard Layer 3 (Foreground)
//Storyboard Sound Samples

[TimingPoints]
1330,410.958904109589,4,1,0,100,1,0
33385,-100,4,1,0,100,0,0

[Colours]
Combo1 : 0,255,0
Combo2 : 0,255,255
Combo3 : 255,0,0
Combo4 : 255,255,0

[HitObjects]
148,192,4617,5,0,0:0:0:0:
256,192,5439,1,0,0:0:0:0:
368,192,6261,1,0,0:0:0:0:
68,112,7905,6,0,P|156:68|240:128,1,200
68,272,9549,2,0,P|156:316|240:256,1,200
444,272,11193,2,0,P|356:316|272:256,1,200
220,156,12836,5,0,0:0:0:0:
220,228,13145,1,0,0:0:0:0:
296,228,13453,1,0,0:0:0:0:
296,156,13658,1,0,0:0:0:0:
216,136,14480,6,0,B|256:88|256:88|264:80|288:80|296:88|296:88|296:224|296:304,1,300
296,136,16124,2,0,B|256:88|256:88|248:80|224:80|216:88|216:88|216:224|216:304,1,300
216,232,18590,1,0,0:0:0:0:
296,232,19001,1,0,0:0:0:0:
344,192,20234,6,0,B|255:131|254:251|136:192,3,200
192,152,23110,6,0,B|216:136|216:136|238:127|268:129|280:147|278:162|265:174|265:174|238:196|238:196|238:196|201:231|201:231|181:246|223:246|223:246|270:246|270:246|285:246,1,300
320,152,24754,2,0,B|296:136|296:136|274:127|244:129|232:147|234:162|247:174|247:174|274:196|274:196|274:196|311:231|311:231|331:246|289:246|289:246|242:246|242:246|227:246,1,300
256,152,26809,1,0,0:0:0:0:
256,72,27631,1,0,0:0:0:0:
256,152,28453,1,0,0:0:0:0:
216,94,30097,6,0,B|159:140|159:243|216:289|297:289|354:243|354:140|297:94,1,400
216,232,32562,5,0,0:0:0:0:
292,232,32871,1,0,0:0:0:0:
256,168,33179,1,0,0:0:0:0:
217,136,33590,6,0,B|256:136|256:136|285:145|282:184|256:184|256:184|219:192|256:199|256:199|282:199|285:238|256:247|256:247|217:247|217:247,1,250
294,136,36672,2,0,B|256:136|256:136|226:145|229:184|256:184|256:184|292:192|256:199|256:199|229:199|226:238|256:247|256:247|294:247|294:247,1,250
92,192,39960,6,0,B|140:215|140:152|184:188,1,100,0|0,0:0|0:0,0:0:0:0:
183,187,40782,2,0,B|230:210|230:147|274:183,1,100,0|0,0:0|0:0,0:0:0:0:
273,182,41603,2,0,B|320:205|320:142|364:178,1,100,0|0,0:0|0:0,0:0:0:0:
363,177,42425,2,0,B|410:200|410:137|454:173,1,100,0|0,0:0|0:0,0:0:0:0:
256,192,45097,12,0,47357,0:0:0:0:
104,192,48179,5,0,0:0:0:0:
133,264,48590,2,0,B|220:264|256:192|220:118|133:119,2,250,0|0|0,0:0|0:0|0:0,0:0:0:0:
408,192,51466,5,0,0:0:0:0:
378,264,51877,2,0,B|291:264|256:192|291:118|378:119,2,250,0|0|0,0:0|0:0|0:0,0:0:0:0:
256,56,54754,5,0,0:0:0:0:
328,69,55165,2,0,B|329:156|256:192|182:156|183:69,2,250,0|0|0,0:0|0:0|0:0,0:0:0:0:
121,299,58042,6,0,B|256:299|372:236|345:105|256:48|166:105|139:236|256:299|390:299,1,600
256,192,60919,5,0,0:0:0:0:
56,192,61329,2,0,B|104:44|174:44|126:362|256:291|385:362|337:44|407:44|455:192,1,600
256,192,64617,5,0,0:0:0:0:
186,129,65028,2,0,B|301:129|301:129|316:129|325:139|325:153|325:153|325:230|325:230|325:244|316:254|301:254|301:254|210:254|210:254|195:254|186:244|186:230|186:230|186:119,1,500
256,192,67905,5,0,0:0:0:0:
256,97,68316,2,0,B|240:149|240:149|174:149|174:149|219:192|219:192|198:257|198:257|256:218|256:218|313:257|313:257|292:192|292:192|337:149|337:149|271:149|271:149|256:97,1,625
256,192,71398,6,0,B|220:248|172:199|132:50|339:35|441:162|354:239|263:322|241:315|165:286|117:213|157:126,1,575
150,148,74686,6,0,B|117:213|165:286|241:315|263:322|354:239|441:162|339:35|132:50|168:200|220:248|256:192,1,550
256,47,77768,6,0,B|222:47|222:85|256:85|256:85|291:85|291:122|256:122|256:122|222:122|222:157|256:157|256:157|291:157|291:186|256:186|256:186|222:186|222:221|256:221|256:221|291:221|291:250|256:250|256:250|222:250|222:282|256:282|256:282|291:282|291:312|256:312|256:312|222:312|222:341|256:341,1,600
248,184,83624,5,0,0:0:0:0:
256,192,83829,1,0,0:0:0:0:
264,200,84035,1,0,0:0:0:0:
216,152,86809,5,0,0:0:0:0:
216,232,87014,1,0,0:0:0:0:
296,232,87220,1,0,0:0:0:0:
296,152,87425,1,0,0:0:0:0:
256,192,87631,1,0,0:0:0:0:
