osu file format v14

[General]
AudioFilename: audio.mp3
AudioLeadIn: 0
PreviewTime: 46554
Countdown: 0
SampleSet: Soft
StackLeniency: 0.3
Mode: 0
LetterboxInBreaks: 0
WidescreenStoryboard: 1

[Editor]
DistanceSpacing: 1.2
BeatDivisor: 4
GridSize: 8
TimelineZoom: 1.9

[Metadata]
Title:Jiriki Hongan Revolution (TV Size)
TitleUnicode:自力本願レボリューション (TV Size)
Artist:3 Nen E Gumi Utatan (Nagisa & Kayano & Karuma & Isogai & Maehara)
ArtistUnicode:3年E組うた担(渚&茅野&業&磯貝&前原)
Creator:Lian2002
Version:YAHURI'S HARD
Source:暗殺教室
Tags:潮 田 渚 Nagisa Shiota 茅野 カエデ Kaede Kayano 赤羽 業 Karuma Karma Akabane 磯貝 悠馬 Yuuma Isogai Yūma 前原 陽斗 Hiroto Maehara Anime Japanese Yahuri AirinCat Ansatsu Kyoushitsu Assassination Classroom Opening 2 one season
BeatmapID:1738076
BeatmapSetID:829592

[Difficulty]
HPDrainRate:5
CircleSize:3.5
OverallDifficulty:6
ApproachRate:7
SliderMultiplier:1.35
SliderTickRate:1

[Events]
//Background and Video events
0,0,"Ansatsu.jpg",0,0
//Break Periods
//Storyboard Layer 0 (Background)
//Storyboard Layer 1 (Fail)
//Storyboard Layer 2 (Pass)
//Storyboard Layer 3 (Foreground)
//Storyboard Sound Samples

[TimingPoints]
1305,333.333333333333,4,2,1,70,1,0
11971,-100,4,2,1,60,0,0
30638,-100,4,2,1,70,0,0
33304,-100,4,2,1,60,0,0
37304,-100,4,2,1,60,0,0
41304,-100,4,2,1,70,0,0
46554,-100,4,2,1,5,0,0
46638,-100,4,2,1,85,0,1
62554,-100,4,2,1,85,0,0
62638,-100,4,2,1,85,0,1
78554,-100,4,2,1,85,0,0
78638,-100,4,2,1,85,0,1
83971,-100,4,2,1,85,0,0
88971,-100,4,2,1,5,0,0

[Colours]
Combo1 : 26,118,242
Combo2 : 163,32,240
Combo3 : 37,184,239
Combo4 : 22,209,116
Combo5 : 226,46,122

[HitObjects]
260,157,638,5,2,3:2:0:0:
260,157,805,2,0,L|260:197,2,33.75,0|0|0,1:2|1:2|1:2,2:2:0:0:
233,80,1138,1,2,3:2:0:0:
142,161,1305,6,0,P|66:188|12:140,1,135,6|0,3:2|1:2,2:2:0:0:
24,39,1804,1,0,3:2:0:0:
24,39,1971,2,0,P|82:11|141:39,1,135,2|0,3:2|1:2,2:2:0:0:
280,154,2638,6,0,B|258:219|258:219|286:300,1,135,2|0,3:2|1:2,2:2:0:0:
402,282,3138,2,0,B|424:217|424:217|402:154,1,135,2|0,3:2|3:2,2:2:0:0:
341,100,3638,1,0,1:2:0:0:
280,154,3804,1,2,3:2:0:0:
196,66,3971,6,0,P|120:39|66:87,1,135,2|0,3:2|1:2,2:2:0:0:
78,188,4471,1,0,3:2:0:0:
78,188,4638,2,0,P|136:216|195:188,1,135,2|0,3:2|1:2,2:2:0:0:
363,73,5304,6,0,B|428:51|428:51|509:79,1,135,2|0,3:2|1:2,2:2:0:0:
491,195,5804,2,0,B|426:217|426:217|363:195,1,135,2|0,3:2|3:2,2:2:0:0:
309,256,6304,1,0,1:2:0:0:
256,320,6471,1,0,3:2:0:0:
153,255,6638,6,0,B|88:224|88:284|24:255,1,135,6|0,3:2|1:2,2:2:0:0:
24,133,7138,2,0,B|88:104|88:164|153:133,1,135,0|0,3:2|3:2,2:2:0:0:
189,60,7638,1,0,1:2:0:0:
359,255,7971,6,0,B|424:224|424:284|488:255,1,135,6|0,3:2|1:2,2:2:0:0:
488,133,8471,2,0,B|424:104|424:164|359:133,1,135,0|0,3:2|3:2,2:2:0:0:
323,60,8971,1,0,1:2:0:0:
161,192,9304,6,0,B|128:197|128:197|60:186|60:186|20:193,1,135,2|4,3:2|1:2,2:2:0:0:
212,281,9971,2,0,B|244:286|244:286|312:275|312:275|352:282,1,135,2|4,3:2|1:2,2:2:0:0:
161,369,10638,5,2,3:2:0:0:
111,281,10804,1,2,1:2:0:0:
212,103,11138,2,0,B|244:108|244:108|312:97|312:97|352:104,1,135,6|0,3:2|1:2,2:2:0:0:
424,87,11638,1,0,1:2:0:0:
475,196,11804,1,0,1:2:0:0:
475,196,11888,1,0,1:2:0:0:
475,196,11971,5,4,3:2:0:0:
320,245,12304,2,0,P|249:245|167:263,1,135,0|0,1:2|3:2,2:2:0:0:
117,299,12804,1,0,3:2:0:0:
46,258,12971,6,0,P|33:191|33:124,1,135,0|0,1:2|3:2,2:2:0:0:
70,51,13471,1,0,3:2:0:0:
140,89,13638,2,0,P|206:101|273:101,2,135,0|0|0,1:2|0:2|1:2,2:2:0:0:
192,242,14638,5,0,3:2:0:0:
340,176,14971,2,0,B|407:166|407:166|479:189,1,135,0|0,1:2|3:2,2:2:0:0:
505,260,15471,1,0,3:2:0:0:
461,328,15638,6,0,B|393:337|393:337|321:314,1,135,0|0,1:2|3:2,2:2:0:0:
294,244,16138,1,0,3:2:0:0:
340,176,16304,2,0,B|349:108|349:108|326:36,2,135,0|0|0,1:2|0:2|1:2,2:2:0:0:
187,120,17304,5,0,3:2:0:0:
152,193,17471,2,0,L|159:273,1,67.5,0|0,3:2|1:2,2:2:0:0:
195,331,17804,2,0,B|262:321|262:321|334:344,1,135,0|0,3:2|3:2,2:2:0:0:
401,311,18304,1,0,1:2:0:0:
369,152,18638,5,0,3:2:0:0:
294,119,18804,2,0,L|213:126,1,67.5,0|0,3:2|1:2,2:2:0:0:
150,97,19138,2,0,B|130:161|130:161|139:228,1,135,0|0,3:2|3:2,2:2:0:0:
109,303,19638,5,0,1:2:0:0:
265,261,19971,2,0,B|333:249|330:277|401:270,1,135,0|0,3:2|1:2,2:2:0:0:
472,238,20471,2,0,B|460:169|488:172|483:105,1,135,0|0,3:2|3:2,2:2:0:0:
422,51,20971,2,0,P|388:60|344:52,1,67.5,0|0,1:2|2:2,2:2:0:0:
281,27,21304,5,0,3:2:0:0:
227,88,21471,2,0,L|220:169,1,67.5,0|0,3:2|1:2,2:2:0:0:
249,231,21804,2,0,B|180:242|183:214|116:219,1,135,0|0,3:2|3:2,2:2:0:0:
41,187,22304,2,0,P|31:153|39:109,1,67.5,0|0,1:2|2:2,2:2:0:0:
129,43,22638,5,4,3:2:0:0:
269,123,22971,2,0,P|340:123|422:105,1,135,0|0,1:2|3:2,2:2:0:0:
474,72,23471,1,0,3:2:0:0:
509,144,23638,6,0,B|519:211|519:211|496:283,1,135,0|0,1:2|3:2,2:2:0:0:
420,253,24138,2,0,L|339:260,1,67.5,0|0,3:2|1:2,2:2:0:0:
280,294,24471,2,0,P|213:281|146:282,1,135,0|0,3:2|3:2,2:2:0:0:
75,321,24971,1,0,1:2:0:0:
156,181,25304,6,0,B|176:116|176:116|166:49,1,135,0|0,3:2|1:2,2:2:0:0:
242,21,25804,2,0,P|308:33|375:32,1,135,0|0,3:2|3:2,2:2:0:0:
448,68,26304,1,0,1:2:0:0:
501,221,26638,6,0,L|494:302,1,67.5,0|0,3:2|3:2,2:2:0:0:
415,275,26971,2,0,L|368:341,1,67.5,0|0,1:2|3:2,2:2:0:0:
313,278,27304,2,0,L|239:312,1,67.5,0|0,2:2|3:2,2:2:0:0:
223,229,27638,6,0,P|189:232|157:222,1,67.5,0|0,1:2|2:2,2:2:0:0:
92,174,27971,2,0,B|115:109|87:107|101:37,1,135,0|0,3:2|1:2,2:2:0:0:
176,69,28471,2,0,B|240:92|242:64|315:82,1,135,0|0,3:2|3:2,2:2:0:0:
384,49,28971,1,0,1:2:0:0:
493,168,29304,6,0,B|469:232|497:234|479:306,2,135,0|0|0,3:2|1:2|0:2,2:2:0:0:
419,132,30138,2,0,L|338:139,1,67.5,0|0,3:2|1:2,2:2:0:0:
279,175,30471,1,2,0:2:0:0:
196,88,30638,6,0,P|120:61|66:109,1,135,2|4,3:2|1:2,2:2:0:0:
138,323,31304,2,0,P|196:351|255:322,1,135,2|4,3:2|1:2,2:2:0:0:
316,88,31971,2,0,B|381:66|381:66|462:94,1,135,2|0,1:2|3:2,2:2:0:0:
379,191,32471,6,0,B|314:213|314:213|251:191,1,135,6|0,1:2|3:2,2:2:0:0:
181,149,32971,1,0,1:2:0:0:
181,149,33054,1,8,2:3:0:0:
181,149,33138,1,0,3:2:0:0:
63,115,33304,6,0,B|43:179|43:179|52:246,1,135,4|0,3:2|1:2,2:2:0:0:
97,313,33804,2,0,B|164:304|164:304|228:324,1,135,0|0,3:2|3:2,2:2:0:0:
298,364,34304,2,0,P|330:354|363:357,1,67.5,0|0,1:2|2:2,2:2:0:0:
436,321,34638,6,0,B|445:254|445:254|425:190,1,135,0|0,3:2|1:2,2:2:0:0:
360,140,35138,1,0,3:2:0:0:
286,174,35304,2,0,B|219:183|219:183|155:163,1,135,0|0,0:0|1:2,2:2:0:0:
56,291,35971,6,0,B|123:282|123:282|187:302,1,135,0|0,3:2|1:2,2:2:0:0:
331,376,36638,1,0,2:2:0:0:
359,300,36804,2,0,L|353:232,1,67.5,0|0,3:2|1:2,2:2:0:0:
315,160,37138,1,0,2:2:0:0:
353,45,37304,6,0,P|429:18|483:66,1,135,4|0,3:2|1:2,2:2:0:0:
353,233,37971,2,0,P|277:260|223:212,1,135,4|8,3:2|2:3,2:2:0:0:
198,161,38471,1,0,0:2:0:0:
85,113,38638,6,0,B|62:178|90:180|75:249,1,135,4|0,2:2|0:2,2:2:0:0:
17,303,39138,1,0,3:2:0:0:
74,361,39304,1,0,1:2:0:0:
226,305,39638,1,0,2:2:0:0:
283,361,39804,1,0,2:2:0:0:
365,271,39971,6,0,P|377:204|376:137,1,135,4|0,3:2|2:2,2:2:0:0:
344,62,40471,1,0,3:2:0:0:
270,96,40638,2,0,P|203:108|136:107,1,135,0|8,1:3|2:3,2:2:0:0:
60,78,41138,1,0,3:2:0:0:
29,195,41304,6,0,P|96:194|162:206,1,135,4|0,1:2|1:2,2:2:0:0:
230,251,41804,1,0,3:2:0:0:
307,226,41971,2,0,L|314:145,2,67.5,0|0|0,1:2|3:2|3:2,2:2:0:0:
420,269,42471,6,0,P|432:202|431:135,1,135,4|0,1:2|3:2,2:2:0:0:
395,62,42971,2,0,P|361:65|329:55,1,67.5,0|0,1:2|3:2,2:2:0:0:
256,21,43304,1,0,1:2:0:0:
184,56,43471,2,0,P|152:66|119:63,2,67.5,0|0|0,3:2|3:2|1:2,2:2:0:0:
256,152,43971,5,4,3:2:0:0:
214,221,44138,1,0,1:2:0:0:
256,289,44304,2,0,L|323:283,1,67.5,0|0,1:2|3:2,2:2:0:0:
365,214,44638,1,0,1:2:0:0:
323,147,44804,2,0,L|255:152,1,67.5,0|0,1:2|3:2,2:2:0:0:
189,49,45138,6,0,B|222:44|222:44|290:55|290:55|330:48,1,135,4|8,1:2|2:3,2:2:0:0:
396,16,45638,1,0,1:3:0:0:
469,50,45804,1,0,3:2:0:0:
469,50,46138,6,0,L|452:235,1,168.75,2|0,2:2|2:2,2:2:0:0:
420,269,46638,5,6,3:2:0:0:
344,240,46804,2,0,L|277:251,1,67.5,2|0,3:2|1:2,2:2:0:0:
208,292,47138,2,0,P|159:328|127:277,1,135,2|2,3:2|3:2,2:2:0:0:
94,204,47638,1,2,1:2:0:0:
173,62,47971,5,2,3:2:0:0:
249,91,48138,2,0,L|315:79,1,67.5,2|0,3:2|1:2,2:2:0:0:
390,111,48471,2,0,P|426:159|375:191,1,135,2|2,3:2|3:2,2:2:0:0:
301,223,48971,2,0,P|289:255|290:288,1,67.5,2|0,1:2|2:2,2:2:0:0:
330,358,49304,6,0,B|368:351|388:327|388:327|415:342|454:336,1,135,2|2,3:2|1:2,2:2:0:0:
493,265,49804,2,0,L|504:198,1,67.5,2|0,3:2|2:2,2:2:0:0:
472,123,50138,2,0,L|460:56,1,67.5,2|0,3:2|1:2,2:2:0:0:
385,24,50471,6,0,B|346:30|326:54|326:54|299:39|260:45,1,135,2|2,3:2|3:2,2:2:0:0:
184,18,50971,1,0,1:2:0:0:
199,97,51138,2,0,L|226:252,1,135,2|2,3:2|3:2,2:2:0:0:
198,307,51638,2,0,P|165:295|132:296,1,67.5,2|2,1:2|2:2,2:2:0:0:
20,342,51971,5,6,3:2:0:0:
45,264,52138,2,0,L|33:197,1,67.5,2|0,3:2|1:2,2:2:0:0:
1,122,52471,2,0,B|13:89|46:74|46:74|81:77|105:103,1,135,2|2,3:2|3:2,2:2:0:0:
174,145,52971,2,0,P|207:146|239:134,1,67.5,2|2,1:2|2:2,2:2:0:0:
307,91,53304,5,2,3:2:0:0:
375,135,53471,2,0,L|386:201,1,67.5,2|0,3:2|1:2,2:2:0:0:
419,277,53804,2,0,B|406:309|373:324|373:324|338:321|314:295,1,135,2|2,3:2|3:2,2:2:0:0:
246,254,54304,2,0,P|212:252|180:264,1,67.5,2|2,1:2|2:2,2:2:0:0:
133,198,54638,6,0,B|110:133|137:129|109:66,1,135,2|2,3:2|1:2,2:2:0:0:
28,67,55138,2,0,B|0:129|27:134|4:198,1,135,2|2,3:2|3:2,2:2:0:0:
69,247,55638,1,2,1:2:0:0:
114,313,55804,6,0,B|179:329|180:302|247:313,1,135,2|0,2:2|3:2,2:2:0:0:
323,343,56304,2,0,L|334:277,1,67.5,2|0,1:2|3:2,2:2:0:0:
409,245,56638,2,0,L|420:179,1,67.5,2|0,2:2|3:2,2:2:0:0:
464,110,56971,2,0,P|465:76|453:44,1,67.5,0|2,1:2|2:2,2:2:0:0:
335,14,57304,6,0,B|237:42|237:42|202:31,1,135,2|6,3:2|1:2,2:2:0:0:
129,61,57804,2,0,P|117:92|118:126,1,67.5,2|0,2:2|3:2,2:2:0:0:
165,192,58138,2,0,P|176:223|175:257,1,67.5,2|4,3:2|1:2,2:2:0:0:
191,337,58471,1,2,2:2:0:0:
304,292,58638,6,0,B|369:270|369:270|431:291,1,135,2|0,3:2|1:2,2:2:0:0:
432,170,59138,2,0,B|367:192|367:192|304:170,1,135,2|0,3:2|3:2,2:2:0:0:
269,96,59638,1,0,1:2:0:0:
233,21,59804,1,2,2:2:0:0:
137,96,59971,6,0,B|109:194|109:194|120:229,1,135,2|4,3:2|1:2,2:2:0:0:
162,294,60471,2,0,L|150:360,1,67.5,2|0,2:2|3:2,2:2:0:0:
69,360,60804,2,0,L|57:294,1,67.5,2|4,3:2|1:2,2:2:0:0:
39,172,61138,6,0,P|12:96|60:42,1,135,2|2,0:0|3:2,0:0:0:0:
110,18,61638,1,2,1:2:0:0:
205,91,61804,2,0,P|281:118|335:70,1,135,2|0,3:2|3:2,2:2:0:0:
397,60,62304,1,0,1:2:0:0:
397,60,62388,1,0,1:2:0:0:
397,60,62471,1,0,1:2:0:0:
458,165,62638,5,6,3:2:0:0:
406,227,62804,2,0,L|395:294,1,67.5,2|0,3:2|1:2,2:2:0:0:
351,362,63138,2,0,B|317:356|317:356|251:368|251:368|217:362,1,135,2|2,3:2|3:2,2:2:0:0:
145,327,63638,1,2,1:2:0:0:
62,186,63971,5,2,3:2:0:0:
126,136,64138,2,0,L|138:70,1,67.5,2|0,3:2|1:2,2:2:0:0:
212,36,64471,2,0,B|245:30|245:30|311:42|311:42|345:36,1,135,2|2,3:2|3:2,2:2:0:0:
419,68,64971,2,0,P|431:100|430:133,1,67.5,2|2,1:2|2:2,2:2:0:0:
394,205,65304,6,0,B|381:271|381:271|397:298|391:336,1,135,2|2,3:2|1:2,2:2:0:0:
316,368,65804,2,0,L|249:357,1,67.5,2|0,3:2|2:2,2:2:0:0:
223,278,66138,2,0,L|235:211,1,67.5,2|0,3:2|1:2,2:2:0:0:
215,131,66471,6,0,B|148:118|148:118|121:134|83:128,1,135,2|2,2:2|3:2,2:2:0:0:
9,158,66971,1,0,1:2:0:0:
71,210,67138,2,0,L|98:365,1,135,2|2,3:2|3:2,2:2:0:0:
168,371,67638,2,0,P|201:371|233:359,1,67.5,2|2,1:2|2:2,2:2:0:0:
321,276,67971,5,6,3:2:0:0:
296,198,68138,2,0,L|308:131,1,67.5,2|0,3:2|1:2,2:2:0:0:
348,61,68471,2,0,B|414:48|414:48|449:42|480:59,1,135,2|2,3:2|3:2,2:2:0:0:
457,136,68971,2,0,P|456:169|468:201,1,67.5,2|2,1:2|2:2,2:2:0:0:
508,271,69304,5,2,3:2:0:0:
456,333,69471,2,0,L|390:344,1,67.5,2|0,3:2|1:2,2:2:0:0:
321,300,69804,2,0,B|288:285|255:290|255:290|189:302,1,135,2|2,3:2|3:2,2:2:0:0:
114,269,70304,2,0,P|116:235|104:203,1,67.5,2|2,1:2|2:2,2:2:0:0:
111,122,70638,6,0,B|161:113|161:113|176:118|176:118|188:108|188:108|241:99,1,135,2|2,3:2|1:2,2:2:0:0:
316,72,71138,2,0,B|368:81|368:81|380:90|380:90|395:85|395:85|446:94,1,135,2|2,3:2|3:2,2:2:0:0:
488,163,71638,1,0,1:2:0:0:
446,232,71804,6,0,B|394:241|394:241|382:250|382:250|367:245|367:245|316:254,1,135,2|0,3:2|3:2,2:2:0:0:
243,290,72304,2,0,L|177:279,1,67.5,2|0,1:2|3:2,2:2:0:0:
129,212,72638,2,0,L|118:146,1,67.5,2|0,2:2|3:2,2:2:0:0:
150,70,72971,2,0,P|183:71|215:59,1,67.5,2|2,1:2|2:2,2:2:0:0:
328,14,73304,6,0,B|426:42|426:42|461:31,1,135,2|6,3:2|1:2,2:2:0:0:
500,102,73804,2,0,P|512:133|511:167,1,67.5,2|0,2:2|3:2,2:2:0:0:
457,236,74138,2,0,P|446:267|447:301,1,67.5,2|4,3:2|1:2,2:2:0:0:
478,375,74471,1,2,2:2:0:0:
370,319,74638,6,0,B|305:297|305:297|243:318,1,135,2|0,3:2|1:2,2:2:0:0:
242,197,75138,2,0,B|307:219|307:219|370:197,1,135,2|0,3:2|3:2,2:2:0:0:
405,123,75638,1,0,1:2:0:0:
370,50,75804,1,2,2:2:0:0:
256,90,75971,6,0,B|158:118|158:118|123:107,1,135,2|6,3:2|1:2,2:2:0:0:
52,142,76471,2,0,L|64:208,1,67.5,2|0,2:2|3:2,2:2:0:0:
114,271,76804,2,0,L|180:259,1,67.5,2|4,3:2|1:2,2:2:0:0:
286,198,77138,6,0,P|315:257|288:316,1,135,2|2,2:2|3:2,2:2:0:0:
211,343,77638,1,2,1:2:0:0:
114,271,77804,1,2,3:2:0:0:
131,190,77971,2,0,L|119:124,1,67.5,2|0,2:2|3:2,2:2:0:0:
77,54,78304,1,2,1:2:0:0:
277,192,78638,6,0,B|340:164|344:191|409:168,1,135,6|2,1:2|1:2,2:2:0:0:
458,104,79138,1,2,3:2:0:0:
407,41,79304,2,0,L|341:53,1,67.5,2|0,1:2|3:2,2:2:0:0:
269,92,79638,2,0,P|235:93|203:82,1,67.5,2|0,1:2|3:2,2:2:0:0:
84,47,79971,6,0,B|88:115|62:110|61:179,1,135,6|2,1:2|1:2,2:2:0:0:
96,253,80471,1,2,3:2:0:0:
170,222,80638,2,0,L|236:210,1,67.5,2|0,1:2|3:2,2:2:0:0:
282,278,80971,2,0,P|313:289|347:288,1,67.5,2|0,1:2|3:2,2:2:0:0:
443,214,81304,6,0,B|447:146|447:146|417:76,1,135,6|0,1:2|1:2,2:2:0:0:
347,57,81804,2,0,L|281:69,1,67.5,0|0,3:2|1:2,2:2:0:0:
205,101,82138,1,2,3:2:0:0:
148,43,82304,1,8,2:3:0:0:
60,124,82471,6,0,B|55:191|55:191|85:261,1,135,6|0,3:2|3:2,2:2:0:0:
152,295,82971,2,0,L|232:309,1,67.5,0|0,1:2|3:2,2:2:0:0:
226,227,83304,2,0,L|301:198,1,67.5,0|0,1:2|1:2,2:2:0:0:
311,124,83638,1,0,1:2:0:0:
420,43,83804,1,0,1:2:0:0:
420,43,83888,1,0,1:2:0:0:
420,43,83971,6,0,P|458:96|440:159,1,135,6|0,1:2|1:2,2:2:0:0:
408,233,84471,1,0,3:2:0:0:
373,305,84638,2,0,L|292:319,1,67.5,0|0,1:2|3:2,2:2:0:0:
256,252,84971,1,0,1:2:0:0:
256,170,85138,1,0,1:2:0:0:
197,64,85304,6,0,P|138:35|79:62,1,135,6|0,1:2|1:2,2:2:0:0:
48,137,85804,1,0,3:2:0:0:
79,212,85971,2,0,L|159:226,1,67.5,8|0,2:3|3:2,2:2:0:0:
218,259,86304,2,0,L|298:244,1,67.5,0|0,1:2|3:2,2:2:0:0:
356,147,86638,6,0,B|361:114|361:114|350:46|350:46|357:6,1,135,2|4,1:2|1:2,2:2:0:0:
156,147,87304,2,0,B|151:114|151:114|162:46|162:46|155:6,1,135,8|8,2:3|0:3,2:2:0:0:
256,235,87971,5,2,1:2:0:0:
256,336,88138,1,2,3:2:0:0:
156,147,88471,2,0,B|256:133|256:133|359:147,1,202.5,4|0,1:2|2:2,2:2:0:0:
