osu file format v14

[General]
AudioFilename: audio.mp3
AudioLeadIn: 0
PreviewTime: 46554
Countdown: 0
SampleSet: Soft
StackLeniency: 0.7
Mode: 0
LetterboxInBreaks: 0
WidescreenStoryboard: 1

[Editor]
Bookmarks: 27879,56518
DistanceSpacing: 1
BeatDivisor: 4
GridSize: 16
TimelineZoom: 1

[Metadata]
Title:Jiriki Hongan Revolution (TV Size)
TitleUnicode:自力本願レボリューション (TV Size)
Artist:3 Nen E Gumi Utatan (Nagisa & Kayano & Karuma & Isogai & Maehara)
ArtistUnicode:3年E組うた担(渚&茅野&業&磯貝&前原)
Creator:Lian2002
Version:NORMAL
Source:暗殺教室
Tags:潮 田 渚 Nagisa Shiota 茅野 カエデ Kaede Kayano 赤羽 業 Karuma Karma Akabane 磯貝 悠馬 Yuuma Isogai Yūma 前原 陽斗 Hiroto Maehara Anime Japanese Yahuri AirinCat Ansatsu Kyoushitsu Assassination Classroom Opening 2 one season
BeatmapID:1752716
BeatmapSetID:829592

[Difficulty]
HPDrainRate:3.5
CircleSize:3
OverallDifficulty:4
ApproachRate:5.5
SliderMultiplier:1.05
SliderTickRate:1

[Events]
//Background and Video events
0,0,"Ansatsu.jpg",0,0
//Break Periods
//Storyboard Layer 0 (Background)
//Storyboard Layer 1 (Fail)
//Storyboard Layer 2 (Pass)
//Storyboard Layer 3 (Foreground)
//Storyboard Sound Samples

[TimingPoints]
1305,333.333333333333,4,2,1,70,1,0
11971,-100,4,2,1,60,0,0
30638,-100,4,2,1,70,0,0
33304,-100,4,2,1,60,0,0
37304,-100,4,2,1,60,0,0
41304,-100,4,2,1,70,0,0
46638,-100,4,2,1,85,0,1
62554,-100,4,2,1,85,0,0
62638,-100,4,2,1,85,0,1
78554,-100,4,2,1,85,0,0
78638,-100,4,2,1,85,0,1
83971,-100,4,2,1,85,0,0
88971,-100,4,2,1,5,0,0

[Colours]
Combo1 : 26,118,242
Combo2 : 163,32,240
Combo3 : 37,184,239
Combo4 : 22,209,116
Combo5 : 226,46,122

[HitObjects]
56,256,1305,6,0,P|43:308|64:368,1,105,6|0,3:2|1:2,2:2:0:0:
148,305,1971,1,2,3:2:0:0:
240,353,2304,1,0,1:2:0:0:
308,273,2638,2,0,B|364:265|364:265|404:289|404:289|476:273,2,157.5,2|2|0,3:2|3:2|1:2,2:2:0:0:
217,219,3971,6,0,P|201:167|216:109,1,105,2|0,3:2|1:2,2:2:0:0:
294,54,4638,1,2,3:2:0:0:
350,142,4971,1,0,1:2:0:0:
454,139,5304,2,0,P|497:60|469:-9,2,157.5,2|2|0,3:2|3:2|1:2,2:2:0:0:
388,221,6638,6,0,L|276:205,1,105,6|0,3:2|1:2,2:2:0:0:
256,161,7138,2,0,L|144:177,1,105,2|0,3:2|3:2,2:2:0:0:
99,181,7638,1,2,1:2:0:0:
9,236,7971,6,0,P|-4:292|30:348,1,105,6|0,3:2|1:2,2:2:0:0:
63,351,8471,2,0,L|175:335,1,105,2|0,3:2|3:2,2:2:0:0:
219,330,8971,1,2,1:2:0:0:
311,279,9304,6,0,P|357:304|423:296,1,105,2|4,3:2|1:2,2:2:0:0:
481,226,9971,2,0,P|435:201|369:209,1,105,2|4,3:2|1:2,2:2:0:0:
284,166,10638,2,0,L|300:102,1,52.5,2|2,1:2|1:2,2:2:0:0:
320,12,11138,2,0,P|267:15|220:48,1,105,6|0,1:2|1:2,2:2:0:0:
190,83,11638,1,0,1:2:0:0:
91,46,11971,5,4,3:2:0:0:
40,138,12304,2,0,L|56:250,1,105,2|2,1:2|3:2,2:2:0:0:
82,343,12971,2,0,L|194:359,1,105,2|2,1:2|3:2,2:2:0:0:
221,258,13638,1,2,1:2:0:0:
322,283,13971,2,0,L|434:267,1,105,2|2,3:2|1:2,2:2:0:0:
502,195,14638,5,0,3:2:0:0:
406,152,14971,2,0,L|294:168,1,105,2|2,1:2|3:2,2:2:0:0:
231,88,15638,2,0,L|113:69,1,105,2|2,1:2|3:2,2:2:0:0:
25,101,16304,2,0,P|24:43|51:-2,2,105,2|2|2,1:2|3:2|1:2,2:2:0:0:
97,176,17304,6,0,B|81:304,1,105,2|0,3:2|1:2,2:2:0:0:
73,330,17804,2,0,P|122:360|174:358,1,105,2|0,3:2|3:2,2:2:0:0:
211,324,18304,1,2,1:2:0:0:
311,354,18638,2,0,P|355:326|406:327,1,105,2|0,3:2|1:2,2:2:0:0:
452,352,19138,2,0,B|442:298|442:298|466:250|466:250|458:186,1,157.5,2|2,3:2|1:2,2:2:0:0:
494,102,19971,6,0,P|442:96|393:119,1,105,2|2,3:2|1:2,2:2:0:0:
356,82,20471,2,0,L|244:98,1,105,2|2,3:2|3:2,2:2:0:0:
210,64,20971,1,2,1:2:0:0:
163,158,21304,2,0,B|51:142,1,105,2|0,3:2|1:2,2:2:0:0:
17,175,21804,2,0,P|0:225|12:283,1,105,2|2,3:2|3:2,2:2:0:0:
57,293,22304,1,2,1:2:0:0:
140,357,22638,6,0,L|252:341,1,105,6|2,3:2|1:2,2:2:0:0:
283,244,23304,2,0,B|355:257|355:257|386:230,1,105,2|2,3:2|1:2,2:2:0:0:
471,285,23971,2,0,P|484:235|468:182,1,105,2|2,3:2|1:2,2:2:0:0:
420,163,24471,2,0,L|436:51,1,105,2|2,3:2|3:2,2:2:0:0:
443,8,24971,1,2,1:2:0:0:
340,28,25304,6,0,L|228:12,1,105,2|0,3:2|1:2,2:2:0:0:
207,57,25804,2,0,L|79:73,1,105,2|0,3:2|3:2,2:2:0:0:
51,81,26304,1,2,1:2:0:0:
120,160,26638,2,0,L|104:272,1,105,2|2,3:2|1:2,2:2:0:0:
70,362,27304,1,2,3:2:0:0:
170,329,27638,2,0,L|250:345,1,52.5,2|2,1:2|2:2,2:2:0:0:
256,300,27971,6,0,L|384:284,1,105,2|2,3:2|1:2,2:2:0:0:
412,279,28471,1,2,3:2:0:0:
470,191,28804,1,2,3:2:0:0:
431,155,28971,2,0,L|303:139,1,105,2|2,1:2|3:2,2:2:0:0:
232,94,29638,1,2,1:2:0:0:
148,29,29971,2,0,P|127:77|132:129,1,105,2|0,3:2|1:2,2:2:0:0:
38,176,30638,6,0,L|54:304,1,105,2|4,3:2|1:2,2:2:0:0:
150,248,31304,2,0,L|134:360,1,105,2|4,3:2|1:2,2:2:0:0:
240,347,31971,2,0,P|304:299|384:323,2,157.5,6|6|0,2:2|1:2|1:2,2:2:0:0:
172,266,33304,6,0,L|-4:250,2,157.5,4|2|2,2:2|3:2|1:2,2:2:0:0:
261,209,34638,2,0,B|283:178|283:178|267:98,2,105,2|0|2,3:2|1:2|3:2,2:2:0:0:
172,151,35638,1,2,1:2:0:0:
188,47,35971,6,0,P|231:17|288:9,1,105,2|2,3:2|1:2,2:2:0:0:
345,92,36638,1,2,3:2:0:0:
443,55,36971,1,2,1:2:0:0:
427,158,37304,2,0,L|467:366,2,210,6|6|6,2:2|2:2|2:2,2:2:0:0:
261,287,39304,5,0,1:2:0:0:
183,358,39638,2,0,P|162:302|175:233,1,105,2|6,3:2|3:2,2:2:0:0:
246,191,40304,1,2,3:2:0:0:
267,87,40638,1,2,1:2:0:0:
169,47,40971,1,2,3:2:0:0:
104,129,41304,6,0,L|-8:113,1,105,6|2,1:2|1:2,2:2:0:0:
19,217,41971,2,0,L|131:233,1,105,2|2,1:2|3:2,2:2:0:0:
142,280,42471,2,0,L|270:264,1,105,6|2,1:2|3:2,2:2:0:0:
298,258,42971,1,2,1:2:0:0:
351,167,43304,5,2,1:2:0:0:
389,202,43471,2,0,L|469:218,1,52.5,2|2,3:2|3:2,2:2:0:0:
481,244,43804,2,0,P|491:293|457:355,1,105,2|2,1:2|1:2,2:2:0:0:
419,357,44304,2,0,L|307:373,1,105,2|2,1:2|1:2,2:2:0:0:
267,348,44804,1,2,1:2:0:0:
192,274,45138,6,0,L|208:162,1,105,6|2,1:2|3:2,2:2:0:0:
257,154,45638,2,0,L|241:74,1,52.5,2|2,1:2|3:2,2:2:0:0:
219,0,46138,1,2,2:2:0:0:
70,51,46638,6,0,L|86:179,1,105,6|2,3:2|1:2,2:2:0:0:
133,169,47138,2,0,L|117:281,1,105,2|2,3:2|3:2,2:2:0:0:
112,325,47638,1,2,1:2:0:0:
209,364,47971,2,0,P|266:360|311:322,1,105,2|2,3:2|1:2,2:2:0:0:
322,283,48471,2,0,L|434:299,1,105,2|2,3:2|3:2,2:2:0:0:
465,262,48971,1,2,1:2:0:0:
382,197,49304,6,0,L|366:85,1,105,2|2,3:2|1:2,2:2:0:0:
359,41,49804,2,0,P|406:20|457:29,2,105,2|2|2,3:2|3:2|3:2,2:2:0:0:
309,21,50638,2,0,L|197:37,1,105,2|2,3:2|1:2,2:2:0:0:
152,32,51138,1,2,3:2:0:0:
73,101,51471,2,0,L|9:85,2,52.5,2|2|2,3:2|1:2|3:2,2:2:0:0:
120,124,51971,6,0,L|136:236,1,105,6|0,3:2|1:2,2:2:0:0:
145,279,52471,1,2,3:2:0:0:
223,348,52804,2,0,L|162:375,2,52.5,2|2|2,3:2|1:2|3:2,2:2:0:0:
249,302,53304,2,0,L|361:318,1,105,2|2,3:2|1:2,2:2:0:0:
361,264,53804,2,0,L|473:248,1,105,2|0,3:2|3:2,2:2:0:0:
496,207,54304,1,2,1:2:0:0:
459,108,54638,6,0,L|347:124,1,105,2|2,3:2|1:2,2:2:0:0:
314,89,55138,2,0,L|202:73,1,105,2|2,3:2|3:2,2:2:0:0:
158,83,55638,1,2,1:2:0:0:
62,126,55971,2,0,P|54:74|79:18,2,105,2|2|2,3:2|1:2|3:2,2:2:0:0:
99,224,56971,1,2,1:2:0:0:
201,247,57304,6,0,B|193:311|193:311|217:343,1,105,2|4,3:2|1:2,2:2:0:0:
299,278,57971,1,2,3:2:0:0:
403,264,58304,1,6,1:2:0:0:
488,202,58638,2,0,P|512:273|467:348,2,157.5,2|2|0,3:2|3:2|1:2,2:2:0:0:
492,98,59971,6,0,P|442:106|399:144,1,105,2|4,3:2|1:2,2:2:0:0:
305,98,60638,1,2,3:2:0:0:
316,204,60971,1,4,1:2:0:0:
412,246,61304,2,0,P|440:305|375:366,2,157.5,6|2|0,3:2|3:2|1:2,2:2:0:0:
316,204,62638,6,0,L|204:188,1,105,6|2,3:2|1:2,2:2:0:0:
159,192,63138,2,0,P|141:245|153:305,1,105,2|2,3:2|3:2,2:2:0:0:
191,321,63638,1,2,1:2:0:0:
290,355,63971,2,0,L|402:339,1,105,2|2,3:2|1:2,2:2:0:0:
418,293,64471,1,2,3:2:0:0:
453,194,64804,2,0,L|517:210,2,52.5,2|2|2,3:2|1:2|3:2,2:2:0:0:
415,156,65304,6,0,L|303:172,1,105,2|2,3:2|1:2,2:2:0:0:
281,127,65804,2,0,L|169:111,1,105,2|2,3:2|3:2,2:2:0:0:
125,101,66304,1,2,1:2:0:0:
83,197,66638,2,0,L|89:249,2,52.5,2|2|2,3:2|3:2|1:2,2:2:0:0:
39,167,67138,1,2,3:2:0:0:
62,64,67471,6,0,L|-7:79,2,52.5,2|2|2,3:2|1:2|3:2,2:2:0:0:
95,23,67971,2,0,L|223:39,1,105,6|2,3:2|1:2,2:2:0:0:
234,75,68471,2,0,L|362:58,1,105,2|2,3:2|3:2,2:2:0:0:
386,81,68971,1,0,1:2:0:0:
468,16,69304,2,0,P|490:63|482:127,1,105,2|2,3:2|1:2,2:2:0:0:
450,152,69804,2,0,L|466:264,1,105,2|2,3:2|3:2,2:2:0:0:
475,307,70304,1,2,1:2:0:0:
382,357,70638,6,0,B|254:341,1,105,2|2,3:2|1:2,2:2:0:0:
269,291,71138,2,0,L|150:304,1,105,2|2,3:2|3:2,2:2:0:0:
136,257,71638,1,2,1:2:0:0:
36,224,71971,2,0,P|30:275|47:325,2,105,2|2|2,3:2|1:2|3:2,2:2:0:0:
31,118,72971,1,2,1:2:0:0:
135,128,73304,6,0,L|263:120,1,105,2|4,3:2|1:2,2:2:0:0:
292,30,73971,1,2,3:2:0:0:
396,31,74304,1,6,1:2:0:0:
433,129,74638,2,0,P|488:90|488:-6,2,157.5,2|2|2,3:2|3:2|1:2,2:2:0:0:
344,185,75971,6,0,L|360:313,1,105,2|6,3:2|1:2,2:2:0:0:
284,365,76638,1,2,3:2:0:0:
182,338,76971,1,6,1:2:0:0:
79,314,77304,2,0,P|98:272|146:241,1,105,2|2,3:2|1:2,2:2:0:0:
99,148,77971,1,2,3:2:0:0:
192,95,78304,1,2,1:2:0:0:
249,182,78638,6,0,L|353:190,1,105,6|2,1:2|1:2,2:2:0:0:
438,252,79304,2,0,P|455:215|441:143,1,105,2|2,1:2|1:2,2:2:0:0:
508,66,79971,2,0,P|456:47|399:55,1,105,6|2,1:2|1:2,2:2:0:0:
309,15,80638,1,2,1:2:0:0:
205,34,80971,1,2,1:2:0:0:
196,138,81304,6,0,L|208:257,1,105,6|2,1:2|1:2,2:2:0:0:
150,331,81971,1,0,1:2:0:0:
246,372,82304,1,2,3:2:0:0:
289,343,82471,2,0,P|373:341|420:288,1,157.5,6|2,1:2|1:2,2:2:0:0:
460,193,83304,2,0,L|518:204,2,52.5,2|2|2,1:2|1:2|1:2,2:2:0:0:
419,159,83804,1,2,1:2:0:0:
382,121,83971,6,0,L|278:136,1,105,6|0,3:2|1:2,2:2:0:0:
247,92,84471,2,0,L|138:70,1,105,2|0,3:2|3:2,2:2:0:0:
104,37,84971,1,2,1:2:0:0:
37,117,85304,6,0,L|55:242,1,105,6|0,3:2|1:2,2:2:0:0:
36,271,85804,2,0,L|139:255,1,105,2|0,3:2|3:2,2:2:0:0:
182,224,86304,1,0,1:2:0:0:
258,296,86638,6,0,L|379:312,1,105,2|4,3:2|1:2,2:2:0:0:
442,377,87304,2,0,P|463:311|452:268,1,105,8|8,2:3|2:3,2:2:0:0:
368,219,87971,2,0,L|375:160,1,52.5,2|2,1:2|1:2,2:2:0:0:
413,69,88471,6,0,P|357:125|269:93,1,157.5,6|0,1:2|2:2,2:2:0:0:
