osu file format v14

[General]
AudioFilename: audio.mp3
AudioLeadIn: 0
PreviewTime: 46554
Countdown: 0
SampleSet: Soft
StackLeniency: 0.8
Mode: 0
LetterboxInBreaks: 0
WidescreenStoryboard: 0

[Editor]
DistanceSpacing: 1
BeatDivisor: 4
GridSize: 4
TimelineZoom: 1

[Metadata]
Title:Jiriki Hongan Revolution (TV Size)
TitleUnicode:自力本願レボリューション (TV Size)
Artist:3 Nen E Gumi Utatan (Nagisa & Kayano & Karuma & Isogai & Maehara)
ArtistUnicode:3年E組うた担(渚&茅野&業&磯貝&前原)
Creator:Lian2002
Version:EASY
Source:暗殺教室
Tags:潮 田 渚 Nagisa Shiota 茅野 カエデ Kaede Kayano 赤羽 業 Karuma Karma Akabane 磯貝 悠馬 Yuuma Isogai Yūma 前原 陽斗 Hiroto Maehara Anime Japanese Yahuri AirinCat Ansatsu Kyoushitsu Assassination Classroom Opening 2 one season
BeatmapID:1752715
BeatmapSetID:829592

[Difficulty]
HPDrainRate:2
CircleSize:3
OverallDifficulty:2
ApproachRate:4
SliderMultiplier:0.8
SliderTickRate:1

[Events]
//Background and Video events
0,0,"Ansatsu.jpg",0,0
//Break Periods
//Storyboard Layer 0 (Background)
//Storyboard Layer 1 (Fail)
//Storyboard Layer 2 (Pass)
//Storyboard Layer 3 (Foreground)
//Storyboard Sound Samples

[TimingPoints]
1305,333.333333333333,4,2,1,70,1,0
11971,-100,4,2,1,60,0,0
30638,-100,4,2,1,70,0,0
33304,-100,4,2,1,60,0,0
37304,-100,4,2,1,60,0,0
41304,-100,4,2,1,70,0,0
46638,-100,4,2,1,85,0,1
62554,-100,4,2,1,85,0,0
62638,-100,4,2,1,85,0,1
78554,-100,4,2,1,85,0,0
78638,-100,4,2,1,85,0,1
83971,-100,4,2,1,85,0,0
88971,-100,4,2,1,5,0,0

[Colours]
Combo1 : 26,118,242
Combo2 : 163,32,240
Combo3 : 37,184,239
Combo4 : 23,208,116
Combo5 : 226,46,122

[HitObjects]
68,234,1305,6,0,B|84:330,1,80,6|0,2:2|1:2,2:2:0:0:
154,344,1971,1,2,3:2:0:0:
217,295,2304,1,0,1:2:0:0:
290,326,2638,2,0,B|409:306,2,120,2|2|0,3:2|3:2|1:2,2:2:0:0:
217,295,3971,6,0,B|201:216,1,80,2|0,3:2|1:2,2:2:0:0:
254,157,4638,1,2,3:2:0:0:
200,97,4971,1,0,1:2:0:0:
251,36,5304,2,0,L|387:50,2,120,2|2|0,3:2|3:2|1:2,2:2:0:0:
200,97,6638,6,0,L|77:118,2,120,6|2|2,3:2|3:2|1:2,2:2:0:0:
254,157,7971,2,0,L|374:142,2,120,6|2|2,3:2|3:2|1:2,2:2:0:0:
206,221,9304,6,0,L|217:300,1,80,2|4,3:2|1:2,2:2:0:0:
289,336,9971,1,0,3:2:0:0:
353,288,10304,1,4,1:2:0:0:
408,230,10638,2,0,P|433:286|408:348,2,120,2|6|0,3:2|3:2|1:2,2:2:0:0:
371,158,11971,5,4,3:2:0:0:
311,104,12304,2,0,L|231:120,1,80,2|2,1:2|3:2,2:2:0:0:
153,102,12971,2,0,P|155:142|175:176,1,80,2|2,1:2|3:2,2:2:0:0:
250,204,13638,1,2,1:2:0:0:
299,266,13971,2,0,L|292:345,1,80,2|2,3:2|1:2,2:2:0:0:
215,367,14638,5,0,3:2:0:0:
145,326,14971,2,0,L|55:339,1,80,2|2,1:2|3:2,2:2:0:0:
6,283,15638,1,2,1:2:0:0:
56,220,15971,2,0,L|135:235,2,80,2|2|2,3:2|1:2|3:2,2:2:0:0:
34,142,16971,1,2,1:2:0:0:
77,74,17304,6,0,P|129:42|190:55,2,120,2|2|2,3:2|3:2|1:2,2:2:0:0:
65,153,18638,2,0,L|53:272,2,120,2|2|2,3:2|3:2|1:2,2:2:0:0:
140,124,19971,6,0,L|236:108,2,80,2|2|2,3:2|1:2|3:2,2:2:0:0:
65,153,20971,1,2,1:2:0:0:
96,226,21304,2,0,L|80:306,1,80,2|2,3:2|1:2,2:2:0:0:
142,354,21971,2,0,L|221:370,1,80,2|2,3:2|1:2,2:2:0:0:
285,322,22638,5,6,3:2:0:0:
254,248,22971,2,0,L|269:169,1,80,2|2,1:2|3:2,2:2:0:0:
256,90,23638,1,2,1:2:0:0:
331,116,23971,2,0,L|409:101,1,80,2|2,3:2|1:2,2:2:0:0:
479,139,24638,1,2,3:2:0:0:
470,218,24971,1,2,1:2:0:0:
406,265,25304,6,0,L|429:382,2,120,2|2|2,3:2|3:2|1:2,2:2:0:0:
339,219,26638,2,0,P|259:211|193:259,1,160,2|2,3:2|3:2,2:2:0:0:
116,264,27638,1,2,1:2:0:0:
54,213,27971,2,0,P|26:144|55:63,1,160,2|2,3:2|3:2,2:2:0:0:
127,37,28971,5,2,1:2:0:0:
196,76,29304,2,0,L|275:91,2,80,2|2|2,3:2|1:2|3:2,2:2:0:0:
130,122,30304,1,2,1:2:0:0:
101,196,30638,6,0,P|99:237|116:272,1,80,2|4,3:2|1:2,2:2:0:0:
176,219,31304,2,0,L|254:204,1,80,2|4,3:2|1:2,2:2:0:0:
318,252,31971,2,0,B|435:274,2,120,6|14|2,3:2|1:2|1:2,2:2:0:0:
273,184,33304,6,0,B|295:67,2,120,6|2|2,2:2|3:2|1:2,2:2:0:0:
209,234,34638,2,0,L|223:312,1,80,2|0,3:2|1:2,2:2:0:0:
292,352,35304,2,0,L|370:337,1,80,2|2,3:2|1:2,2:2:0:0:
424,277,35971,5,2,3:2:0:0:
401,200,36304,2,0,L|307:184,1,80,2|2,1:2|3:2,2:2:0:0:
279,118,36971,1,2,1:2:0:0:
326,53,37304,6,0,B|485:82,2,160,6|6|6,2:2|2:2|2:2,2:2:0:0:
178,115,39304,5,0,1:2:0:0:
143,187,39638,1,2,3:2:0:0:
189,252,39971,2,0,L|269:236,1,80,6|2,1:2|3:2,2:2:0:0:
345,254,40638,2,0,P|342:214|321:177,1,80,2|2,1:2|3:2,2:2:0:0:
246,155,41304,6,0,L|262:75,1,80,6|2,1:2|1:2,2:2:0:0:
328,31,41971,2,0,P|389:42|435:84,2,120,2|6|2,1:2|1:2|1:2,2:2:0:0:
261,76,43304,2,0,L|182:60,1,80,2|2,1:2|3:2,2:2:0:0:
104,77,43971,5,6,3:2:0:0:
62,145,44304,2,0,L|86:262,1,120,2|2,1:2|1:2,2:2:0:0:
148,313,45138,2,0,P|224:295|291:342,1,160,6|2,1:2|3:2,2:2:0:0:
358,298,46138,1,2,2:2:0:0:
377,179,46638,6,0,L|496:193,2,120,6|2|2,3:2|3:2|1:2,2:2:0:0:
316,125,47971,2,0,P|306:64|333:4,2,120,2|2|2,3:2|3:2|1:2,2:2:0:0:
377,179,49304,2,0,L|362:268,2,80,2|2|2,3:2|1:2|3:2,2:2:0:0:
317,124,50304,1,2,1:2:0:0:
243,155,50638,2,0,L|85:128,1,160,2|2,3:2|3:2,2:2:0:0:
52,201,51638,1,2,1:2:0:0:
108,257,51971,6,0,P|115:315|91:369,2,120,6|2|2,3:2|3:2|1:2,2:2:0:0:
52,201,53304,2,0,L|70:82,2,120,2|2|2,3:2|3:2|1:2,2:2:0:0:
108,257,54638,2,0,L|186:243,2,80,2|2|2,3:2|1:2|3:2,2:2:0:0:
52,201,55638,1,2,1:2:0:0:
93,132,55971,2,0,L|171:118,1,80,2|2,3:2|1:2,2:2:0:0:
234,168,56638,1,2,3:2:0:0:
307,136,56971,1,2,1:2:0:0:
306,55,57304,6,0,L|384:69,1,80,2|4,3:2|1:2,2:2:0:0:
461,46,57971,2,0,P|463:86|447:124,1,80,2|4,3:2|1:2,2:2:0:0:
410,193,58638,2,0,L|429:311,2,120,2|2|0,3:2|3:2|1:2,2:2:0:0:
331,172,59971,6,0,L|252:185,1,80,2|4,3:2|1:2,2:2:0:0:
189,233,60638,1,2,3:2:0:0:
175,311,60971,1,4,1:2:0:0:
236,362,61304,2,0,P|294:333|354:342,2,120,6|0|0,3:2|3:2|1:2,2:2:0:0:
175,311,62638,6,0,L|53:290,2,120,6|2|2,3:2|3:2|1:2,2:2:0:0:
230,253,63971,2,0,P|257:199|240:140,2,120,2|2|2,3:2|3:2|1:2,2:2:0:0:
178,193,65304,2,0,L|85:176,2,80,2|2|2,3:2|1:2|3:2,2:2:0:0:
240,143,66304,1,2,1:2:0:0:
313,174,66638,2,0,B|329:212|329:212|298:341,1,160,2|2,3:2|3:2,2:2:0:0:
227,358,67638,1,2,1:2:0:0:
165,307,67971,6,0,L|37:323,2,120,6|2|2,3:2|3:2|1:2,2:2:0:0:
216,245,69304,2,0,P|242:295|222:367,2,120,2|2|2,3:2|3:2|1:2,2:2:0:0:
139,221,70638,6,0,L|50:232,2,80,2|2|2,3:2|1:2|3:2,2:2:0:0:
195,164,71638,1,2,1:2:0:0:
167,88,71971,2,0,P|247:103|281:170,1,160,2|2,3:2|3:2,2:2:0:0:
358,149,72971,1,2,1:2:0:0:
421,198,73304,6,0,L|437:294,1,80,2|4,3:2|1:2,2:2:0:0:
380,336,73971,2,0,P|334:332|293:305,1,80,2|4,3:2|1:2,2:2:0:0:
238,271,74638,2,0,L|110:287,2,120,2|2|0,3:2|3:2|1:2,2:2:0:0:
286,207,75971,6,0,P|300:169|298:129,1,80,2|4,3:2|1:2,2:2:0:0:
231,86,76638,2,0,L|146:91,1,80,2|4,3:2|1:2,2:2:0:0:
111,160,77304,2,0,L|24:150,1,80,2|2,3:2|1:2,2:2:0:0:
6,227,77971,1,2,3:2:0:0:
41,298,78304,1,2,1:2:0:0:
116,325,78638,6,0,L|195:316,1,80,6|2,1:2|1:2,2:2:0:0:
253,261,79304,1,2,1:2:0:0:
322,300,79638,1,2,1:2:0:0:
380,245,79971,6,0,L|367:158,1,80,6|2,1:2|1:2,2:2:0:0:
346,88,80638,1,2,1:2:0:0:
277,46,80971,1,2,1:2:0:0:
204,79,81304,2,0,L|121:66,2,80,6|2|2,1:2|1:2|1:2,2:2:0:0:
290,162,82471,6,0,L|277:295,1,120,4|2,3:2|1:2,0:2:0:0:
216,331,83304,1,2,1:2:0:0:
143,297,83638,1,2,1:2:0:0:
128,218,83971,6,0,L|9:202,2,120,6|2|2,1:2|3:2|1:2,2:2:0:0:
204,241,85304,2,0,P|215:300|189:358,2,120,6|2|2,1:2|3:2|1:2,2:2:0:0:
156,175,86638,6,0,L|167:95,1,80,2|4,1:2|1:2,2:2:0:0:
234,53,87304,2,0,L|314:65,1,80,8|8,2:3|2:3,2:2:0:0:
392,76,87971,5,2,1:2:0:0:
409,194,88471,2,0,L|283:215,1,120,6|0,1:2|2:2,2:2:0:0:
