osu file format v14

[General]
AudioFilename: audio.mp3
AudioLeadIn: 0
PreviewTime: 46554
Countdown: 0
SampleSet: Soft
StackLeniency: 0.5
Mode: 0
LetterboxInBreaks: 0
WidescreenStoryboard: 0

[Editor]
DistanceSpacing: 1.3
BeatDivisor: 4
GridSize: 4
TimelineZoom: 4.899997

[Metadata]
Title:Jiriki Hongan Revolution (TV Size)
TitleUnicode:自力本願レボリューション (TV Size)
Artist:3 Nen E Gumi Utatan (Nagisa & Kayano & Karuma & Isogai & Maehara)
ArtistUnicode:3年E組うた担(渚&茅野&業&磯貝&前原)
Creator:Lian2002
Version:AIRIN'S INSANE
Source:暗殺教室
Tags:潮 田 渚 Nagisa Shiota 茅野 カエデ Kaede Kayano 赤羽 業 Karuma Karma Akabane 磯貝 悠馬 Yuuma Isogai Yūma 前原 陽斗 Hiroto Maehara Anime Japanese Yahuri AirinCat Ansatsu Kyoushitsu Assassination Classroom Opening 2 one season
BeatmapID:1783944
BeatmapSetID:829592

[Difficulty]
HPDrainRate:5.5
CircleSize:3.8
OverallDifficulty:7
ApproachRate:9
SliderMultiplier:1.55
SliderTickRate:1

[Events]
//Background and Video events
0,0,"Ansatsu.jpg",0,0
//Break Periods
//Storyboard Layer 0 (Background)
//Storyboard Layer 1 (Fail)
//Storyboard Layer 2 (Pass)
//Storyboard Layer 3 (Foreground)
//Storyboard Sound Samples

[TimingPoints]
1305,333.333333333333,4,2,1,70,1,0
1888,-100,4,2,1,5,0,0
1971,-100,4,2,1,70,0,0
2554,-100,4,2,1,5,0,0
2638,-100,4,2,1,70,0,0
4554,-100,4,2,1,5,0,0
4638,-100,4,2,1,70,0,0
5221,-100,4,2,1,5,0,0
5304,-100,4,2,1,70,0,0
7888,-100,4,2,1,5,0,0
7971,-100,4,2,1,70,0,0
9304,-83.3333333333333,4,2,1,70,0,0
9638,-100,4,2,1,70,0,0
9888,-100,4,2,1,5,0,0
9971,-83.3333333333333,4,2,1,70,0,0
10304,-100,4,2,1,70,0,0
10554,-100,4,2,1,5,0,0
10638,-71.4285714285714,4,2,1,70,0,0
11138,-100,4,2,1,70,0,0
11971,-111.111111111111,4,2,1,60,0,0
29221,-111.111111111111,4,2,1,5,0,0
29304,-111.111111111111,4,2,1,60,0,0
30638,-100,4,2,1,70,0,0
31221,-100,4,2,1,5,0,0
31304,-100,4,2,1,70,0,0
31888,-100,4,2,1,5,0,0
31971,-100,4,2,1,70,0,0
33304,-100,4,2,1,60,0,0
37304,-100,4,2,1,60,0,0
37638,-111.111111111111,4,2,1,60,0,0
37888,-111.111111111111,4,2,1,5,0,0
37971,-111.111111111111,4,2,1,60,0,0
38638,-142.857142857143,4,2,1,60,0,0
40638,-125,4,2,1,60,0,0
40971,-111.111111111111,4,2,1,60,0,0
41304,-111.111111111111,4,2,1,70,0,0
46138,-100,4,2,1,70,0,0
46554,-100,4,2,1,5,0,0
46638,-90.9090909090909,4,2,1,85,0,1
57888,-90.9090909090909,4,2,1,5,0,1
57971,-90.9090909090909,4,2,1,85,0,1
58554,-90.9090909090909,4,2,1,5,0,1
58638,-90.9090909090909,4,2,1,85,0,1
62554,-90.9090909090909,4,2,1,85,0,0
62638,-90.9090909090909,4,2,1,85,0,1
73304,-86.9565217391304,4,2,1,85,0,1
73888,-86.9565217391304,4,2,1,5,0,1
73971,-86.9565217391304,4,2,1,85,0,1
74554,-86.9565217391304,4,2,1,5,0,1
74638,-86.9565217391304,4,2,1,85,0,1
75138,-90.9090909090909,4,2,1,85,0,1
78554,-86.9565217391304,4,2,1,85,0,0
78638,-83.3333333333333,4,2,1,85,0,1
82471,-100,4,2,1,85,0,1
83971,-100,4,2,1,85,0,0
86638,-83.3333333333333,3,2,1,85,0,0
86971,-100,3,2,1,85,0,0
87221,-100,3,2,1,5,0,0
87304,-83.3333333333333,3,2,1,85,0,0
87638,-100,3,2,1,85,0,0
87888,-100,3,2,1,5,0,0
87971,-66.6666666666667,4,2,1,85,0,0
88471,-55.5555555555556,4,2,1,85,0,0
88971,-62.5,4,2,1,5,0,0

[Colours]
Combo1 : 26,116,242
Combo2 : 164,32,240
Combo3 : 37,185,239
Combo4 : 23,209,116
Combo5 : 226,45,124

[HitObjects]
195,300,638,5,0,3:2:0:0:
99,278,805,1,0,1:2:0:0:
99,278,888,1,0,1:2:0:0:
99,278,971,2,0,L|112:361,1,77.5,0|2,1:2|3:2,2:2:0:0:
229,204,1305,6,0,L|211:114,1,77.5,6|0,3:2|3:2,2:2:0:0:
314,3,1638,2,0,L|332:123,1,116.25,0|0,1:2|2:2,2:2:0:0:
340,136,1971,2,0,P|347:88|360:44,1,77.5,2|0,3:2|3:2,2:2:0:0:
478,137,2304,2,0,L|436:264,1,116.25,0|0,1:2|2:2,2:2:0:0:
434,261,2638,6,0,P|424:214|412:172,1,77.5,2|0,3:2|3:2,2:2:0:0:
239,191,2971,1,0,1:2:0:0:
306,240,3138,2,0,P|317:168|228:106,1,155,2|0,3:2|3:2,2:2:0:0:
230,272,3638,2,0,L|254:368,1,77.5,0|2,1:2|2:2,2:2:0:0:
60,204,3971,6,0,L|37:108,1,77.5,2|0,3:2|3:2,2:2:0:0:
136,9,4304,2,0,L|169:147,1,116.25,0|0,1:2|2:2,2:2:0:0:
171,139,4638,2,0,P|183:97|197:62,1,77.5,2|0,3:2|3:2,2:2:0:0:
305,131,4971,2,0,L|263:253,1,116.25,0|0,1:2|2:2,2:2:0:0:
259,258,5304,6,0,P|249:212|239:179,1,77.5,2|0,3:2|3:2,2:2:0:0:
372,270,5638,1,0,1:2:0:0:
307,341,5804,2,0,P|233:348|168:275,1,155,2|0,3:2|3:2,2:2:0:0:
375,192,6304,2,0,L|370:289,1,77.5,0|2,1:2|2:2,2:2:0:0:
223,169,6638,6,0,L|231:63,1,77.5,6|0,3:2|3:2,2:2:0:0:
291,214,6971,1,2,1:2:0:0:
229,92,7138,2,0,L|237:-14,1,77.5,2|0,2:2|3:2,2:2:0:0:
323,3,7471,1,0,3:2:0:0:
151,127,7638,2,0,L|22:109,1,116.25,0|0,1:2|2:2,2:2:0:0:
37,138,7971,6,0,L|119:150,1,77.5,6|0,3:2|3:2,2:2:0:0:
36,26,8304,1,0,1:2:0:0:
113,149,8471,2,0,L|195:161,1,77.5,2|0,2:2|3:2,2:2:0:0:
229,92,8804,1,0,3:2:0:0:
164,237,8971,2,0,L|172:331,1,77.5,0|0,1:2|2:2,2:2:0:0:
229,92,9304,6,0,L|322:56,1,92.9999971618653,2|0,3:2|3:2,2:2:0:0:
374,151,9638,2,0,L|243:201,1,116.25,6|0,1:2|2:2,2:2:0:0:
266,209,9971,6,0,L|354:175,1,92.9999971618653,2|0,3:2|3:2,2:2:0:0:
412,278,10304,2,0,L|281:328,1,116.25,6|0,1:2|2:2,2:2:0:0:
287,307,10638,6,0,L|399:267,1,108.499996688843,2|2,3:2|1:2,2:2:0:0:
393,384,10971,1,0,3:2:0:0:
191,323,11138,2,0,B|131:311|131:311|93:315|93:315|24:307,1,155,2|0,1:2|1:2,2:2:0:0:
14,302,11554,1,0,1:2:0:0:
14,302,11638,1,0,1:2:0:0:
22,159,11804,1,0,1:2:0:0:
22,159,11888,1,0,1:2:0:0:
22,159,11971,6,0,L|108:170,1,69.749997871399,4|0,3:2|3:2,2:2:0:0:
224,52,12304,2,0,L|137:74,1,69.749997871399,2|0,1:2|3:2,2:2:0:0:
222,157,12638,2,0,L|310:132,1,69.749997871399,2|0,2:2|3:2,2:2:0:0:
381,23,12971,2,0,L|294:43,1,69.749997871399,2|0,1:2|2:2,2:2:0:0:
493,91,13304,5,2,3:2:0:0:
474,9,13471,1,0,3:2:0:0:
411,118,13638,2,0,L|430:202,1,69.749997871399,2|0,1:2|3:2,2:2:0:0:
245,154,13971,2,0,L|328:133,1,69.749997871399,2|0,2:2|3:2,2:2:0:0:
294,284,14304,2,0,L|219:301,1,69.749997871399,2|0,1:2|2:2,2:2:0:0:
384,281,14638,5,0,3:2:0:0:
334,355,14804,1,0,3:2:0:0:
302,206,14971,2,0,L|316:121,1,69.749997871399,2|0,1:2|3:2,2:2:0:0:
413,52,15304,2,0,L|399:137,1,69.749997871399,2|0,2:2|3:2,2:2:0:0:
245,87,15638,2,0,L|256:18,1,69.749997871399,2|0,1:2|2:2,2:2:0:0:
313,137,15971,5,2,3:2:0:0:
214,178,16138,1,0,3:2:0:0:
176,72,16304,2,0,L|256:89,1,69.749997871399,2|0,1:2|3:2,2:2:0:0:
94,117,16638,2,0,P|83:65|95:23,1,69.749997871399,2|0,2:2|3:2,2:2:0:0:
213,177,16971,2,0,P|224:209|223:244,1,69.749997871399,2|0,1:2|2:2,2:2:0:0:
55,252,17304,5,2,3:2:0:0:
155,233,17471,2,0,L|242:248,1,69.749997871399,2|0,3:2|1:2,2:2:0:0:
25,375,17804,2,0,P|16:307|78:239,1,139.499995742798,2|0,3:2|3:2,2:2:0:0:
180,341,18304,2,0,L|111:329,1,69.749997871399,2|0,1:2|2:2,2:2:0:0:
300,223,18638,5,2,3:2:0:0:
255,316,18804,2,0,L|273:397,1,69.749997871399,2|0,3:2|1:2,2:2:0:0:
427,229,19138,2,0,P|370:202|292:231,1,139.499995742798,2|0,3:2|3:2,2:2:0:0:
376,355,19638,2,0,P|362:304|363:264,1,69.749997871399,2|0,1:2|2:2,2:2:0:0:
511,205,19971,6,0,P|512:240|501:282,1,69.749997871399,2|0,3:2|3:2,2:2:0:0:
361,287,20304,1,2,1:2:0:0:
390,201,20471,2,0,B|311:182|318:240|241:220,1,139.499995742798,2|2,3:2|3:2,2:2:0:0:
218,85,20971,2,0,P|246:108|266:147,1,69.749997871399,2|2,1:2|2:2,2:2:0:0:
96,143,21304,5,2,3:2:0:0:
150,70,21471,2,0,P|186:72|227:91,1,69.749997871399,2|0,3:2|1:2,2:2:0:0:
63,222,21804,2,0,P|15:162|42:86,1,139.499995742798,2|2,3:2|3:2,2:2:0:0:
148,212,22304,2,0,L|138:298,1,69.749997871399,2|2,1:2|2:2,2:2:0:0:
269,376,22638,6,0,L|266:285,1,69.749997871399,6|2,3:2|3:2,2:2:0:0:
376,216,22971,2,0,L|387:294,1,69.749997871399,2|0,1:2|3:2,2:2:0:0:
272,204,23304,2,0,L|270:117,1,69.749997871399,2|0,2:2|3:2,2:2:0:0:
348,30,23638,2,0,L|359:108,1,69.749997871399,2|0,1:2|2:2,2:2:0:0:
145,155,23971,5,2,3:2:0:0:
199,76,24138,2,0,P|232:50|275:42,1,69.749997871399,2|0,3:2|1:2,2:2:0:0:
145,155,24471,2,0,P|86:118|17:119,1,139.499995742798,2|2,3:2|3:2,2:2:0:0:
0,253,24971,2,0,P|25:230|57:216,1,69.749997871399,2|0,1:2|2:2,2:2:0:0:
145,341,25304,6,0,P|112:329|83:309,1,69.749997871399,2|0,3:2|3:2,2:2:0:0:
150,239,25638,1,0,1:2:0:0:
228,344,25804,2,0,B|269:337|269:337|322:346|322:346|386:331,1,139.499995742798,2|0,3:2|3:2,2:2:0:0:
400,238,26304,2,0,L|392:157,1,69.749997871399,2|0,1:2|2:2,2:2:0:0:
511,69,26638,6,0,L|503:150,1,69.749997871399,2|2,3:2|3:2,2:2:0:0:
334,100,26971,1,2,1:2:0:0:
360,15,27138,1,2,3:2:0:0:
393,168,27304,1,2,2:2:0:0:
420,83,27471,1,2,3:2:0:0:
304,186,27638,1,2,1:2:0:0:
475,147,27804,1,2,2:2:0:0:
333,99,27971,6,0,L|236:77,1,69.749997871399,2|2,3:2|3:2,2:2:0:0:
172,1,28304,1,2,1:2:0:0:
130,107,28471,2,0,L|107:191,1,69.749997871399,2|0,3:2|2:2,2:2:0:0:
41,247,28804,1,2,3:2:0:0:
205,258,28971,2,0,P|258:284|282:344,1,104.624996807098,2|0,1:2|2:2,2:2:0:0:
289,336,29304,6,0,L|363:316,1,69.749997871399,2|0,3:2|3:2,2:2:0:0:
510,364,29638,2,0,L|433:347,1,69.749997871399,2|0,1:2|3:2,2:2:0:0:
331,222,29971,1,2,2:2:0:0:
433,248,30138,2,0,L|504:263,1,69.749997871399,2|0,3:2|1:2,2:2:0:0:
356,318,30471,1,2,2:2:0:0:
453,161,30638,6,0,L|467:57,1,77.5,2|0,3:2|3:2,2:2:0:0:
339,12,30971,2,0,L|325:153,1,116.25,4|0,1:2|2:2,2:2:0:0:
323,146,31304,2,0,L|313:46,1,77.5,2|0,3:2|3:2,2:2:0:0:
173,12,31638,2,0,L|187:153,1,116.25,4|0,1:2|2:2,2:2:0:0:
182,146,31971,6,0,L|146:51,1,77.5,6|2,1:2|3:2,2:2:0:0:
54,148,32304,1,2,3:2:0:0:
161,255,32471,2,0,P|227:226|313:208,1,155,6|8,1:2|2:3,2:2:0:0:
463,209,32971,2,0,L|520:226,1,38.75,2|8,1:2|2:3,2:2:0:0:
494,137,33138,1,2,1:2:0:0:
429,287,33304,6,0,P|416:325|423:372,1,77.5,6|0,3:2|3:2,2:2:0:0:
503,336,33638,1,0,1:2:0:0:
343,297,33804,2,0,P|272:301|188:324,1,155,2|2,3:2|3:2,2:2:0:0:
69,267,34304,1,2,1:2:0:0:
106,356,34471,1,2,2:2:0:0:
155,222,34638,6,0,L|134:139,1,77.5,2|0,3:2|3:2,2:2:0:0:
56,76,34971,1,0,1:2:0:0:
45,163,35138,1,0,3:2:0:0:
197,58,35304,2,0,L|282:61,1,77.5,2|0,2:2|3:2,2:2:0:0:
373,167,35638,2,0,L|288:164,1,77.5,2|0,1:2|2:2,2:2:0:0:
446,93,35971,5,2,3:2:0:0:
464,185,36138,1,0,3:2:0:0:
362,78,36304,2,0,L|368:-19,1,77.5,2|0,1:2|3:2,2:2:0:0:
510,16,36638,1,2,2:2:0:0:
446,93,36804,1,0,3:2:0:0:
512,173,36971,2,0,L|509:261,1,77.5,0|2,1:2|2:2,2:2:0:0:
301,223,37304,6,0,L|384:229,1,77.5,6|2,3:2|3:2,2:2:0:0:
258,314,37638,2,0,P|216:272|210:212,1,104.624996807098,2|0,1:2|2:2,2:2:0:0:
211,208,37971,2,0,P|210:157|194:113,1,69.749997871399,4|8,3:2|2:3,2:2:0:0:
151,58,38304,1,2,3:2:0:0:
60,67,38471,1,2,3:2:0:0:
20,160,38638,6,0,P|42:218|53:281,1,108.499996688843,6|0,3:2|3:2,2:2:0:0:
39,358,39138,1,0,3:2:0:0:
124,331,39304,2,0,L|248:337,1,108.499996688843,0|2,1:2|3:2,2:2:0:0:
314,384,39804,1,2,3:2:0:0:
317,292,39971,6,0,P|330:232|385:197,1,108.499996688843,6|0,3:2|3:2,2:2:0:0:
443,141,40471,1,0,3:2:0:0:
315,104,40638,2,0,L|239:119,1,62,2|8,1:2|2:3,2:2:0:0:
324,12,40971,2,0,L|401:22,1,69.749997871399,2|8,3:2|2:3,2:2:0:0:
178,165,41304,6,0,P|165:120|172:83,1,69.749997871399,6|0,1:2|3:2,2:2:0:0:
251,37,41638,1,2,1:2:0:0:
178,165,41804,2,0,L|91:156,1,69.749997871399,0|2,3:2|1:2,2:2:0:0:
282,194,42138,2,0,L|364:177,1,69.749997871399,0|0,3:2|3:2,2:2:0:0:
463,259,42471,6,0,L|311:291,1,139.499995742798,6|0,1:2|3:2,2:2:0:0:
183,338,42971,1,2,1:2:0:0:
190,249,43138,1,0,3:2:0:0:
102,359,43304,1,2,1:2:0:0:
120,202,43471,1,2,3:2:0:0:
257,299,43638,1,2,3:2:0:0:
102,359,43804,2,0,L|19:350,1,69.749997871399,2|4,1:2|3:2,2:2:0:0:
120,202,44138,5,2,1:2:0:0:
257,299,44304,2,0,L|338:285,1,69.749997871399,2|0,1:2|3:2,2:2:0:0:
308,163,44638,1,2,1:2:0:0:
190,248,44804,1,2,1:2:0:0:
325,287,44971,1,0,3:2:0:0:
206,153,45138,2,0,B|123:143|145:200|49:174,1,139.499995742798,4|2,1:2|3:2,2:2:0:0:
90,86,45638,1,2,1:2:0:0:
190,248,45804,1,2,3:2:0:0:
190,248,46138,6,0,B|294:244|254:316|368:303,1,193.75,2|0,2:2|2:2,2:2:0:0:
387,296,46638,6,0,L|403:212,1,85.2500026016236,6|2,3:2|3:2,2:2:0:0:
427,105,46971,1,0,1:2:0:0:
312,186,47138,2,0,P|228:193|165:129,1,170.500005203247,2|2,3:2|3:2,2:2:0:0:
279,15,47638,2,0,L|262:105,1,85.2500026016236,2|0,1:2|2:2,2:2:0:0:
48,81,47971,5,2,3:2:0:0:
108,14,48138,2,0,L|210:31,1,85.2500026016236,2|0,3:2|1:2,2:2:0:0:
91,158,48471,2,0,P|37:218|76:315,1,170.500005203247,2|2,3:2|3:2,2:2:0:0:
232,262,48971,1,2,1:2:0:0:
127,242,49138,1,0,2:2:0:0:
233,355,49304,6,0,L|347:366,1,85.2500026016236,2|0,3:2|3:2,2:2:0:0:
402,222,49638,1,2,1:2:0:0:
474,300,49804,2,0,L|458:395,1,85.2500026016236,2|0,3:2|2:2,2:2:0:0:
402,222,50138,2,0,L|418:127,1,85.2500026016236,2|0,3:2|1:2,2:2:0:0:
505,82,50471,1,2,2:2:0:0:
328,48,50638,5,2,3:2:0:0:
420,26,50804,1,2,3:2:0:0:
323,138,50971,1,2,1:2:0:0:
241,25,51138,2,0,L|134:19,1,85.2500026016236,2|0,3:2|2:2,2:2:0:0:
16,131,51471,1,2,3:2:0:0:
126,113,51638,1,2,1:2:0:0:
46,36,51804,1,2,2:2:0:0:
77,217,51971,6,0,L|73:307,1,85.2500026016236,6|2,3:2|3:2,2:2:0:0:
270,317,52304,1,2,1:2:0:0:
268,221,52471,2,0,P|211:238|176:338,1,170.500005203247,2|2,3:2|3:2,2:2:0:0:
360,308,52971,1,2,1:2:0:0:
268,221,53138,1,2,2:2:0:0:
315,383,53304,5,2,3:2:0:0:
359,220,53471,2,0,L|352:127,1,85.2500026016236,2|0,3:2|1:2,2:2:0:0:
479,21,53804,2,0,P|460:97|453:198,1,170.500005203247,2|2,3:2|3:2,2:2:0:0:
466,354,54304,1,2,1:2:0:0:
512,259,54471,1,2,2:2:0:0:
379,338,54638,6,0,L|284:326,1,85.2500026016236,2|0,3:2|3:2,2:2:0:0:
196,163,54971,1,2,1:2:0:0:
131,276,55138,2,0,L|136:375,1,85.2500026016236,2|0,3:2|2:2,2:2:0:0:
196,163,55471,2,0,L|191:64,1,85.2500026016236,2|2,3:2|1:2,2:2:0:0:
84,104,55804,1,2,2:2:0:0:
253,240,55971,5,2,3:2:0:0:
273,116,56138,1,2,3:2:0:0:
123,203,56304,1,2,1:2:0:0:
326,187,56471,2,0,L|420:204,1,85.2500026016236,2|0,3:2|2:2,2:2:0:0:
311,315,56804,1,2,3:2:0:0:
253,240,56971,1,0,1:2:0:0:
406,291,57138,1,2,2:2:0:0:
218,334,57304,6,0,L|120:358,1,85.2500026016236,2|0,3:2|3:2,2:2:0:0:
11,237,57638,2,0,L|153:205,1,127.875003902435,6|0,1:2|2:2,2:2:0:0:
152,202,57971,2,0,L|61:182,1,85.2500026016236,2|0,3:2|3:2,2:2:0:0:
58,48,58304,2,0,L|184:86,1,127.875003902435,4|0,1:2|2:2,2:2:0:0:
198,83,58638,6,0,L|132:24,1,85.2500026016236,2|0,3:2|3:2,2:2:0:0:
315,9,58971,1,0,1:2:0:0:
286,174,59138,2,0,B|279:227|279:227|299:305|299:305|292:358,1,170.500005203247,2|0,3:2|3:2,2:2:0:0:
168,223,59638,1,0,1:2:0:0:
286,174,59804,1,2,2:2:0:0:
168,223,59971,6,0,L|59:211,1,85.2500026016236,2|0,3:2|3:2,2:2:0:0:
201,89,60304,1,6,1:2:0:0:
84,214,60471,2,0,L|-25:202,1,85.2500026016236,2|0,2:2|3:2,2:2:0:0:
20,71,60804,2,0,L|104:80,1,85.2500026016236,2|4,3:2|1:2,2:2:0:0:
190,234,61138,1,2,2:2:0:0:
289,98,61304,5,6,3:2:0:0:
275,229,61471,1,2,3:2:0:0:
141,155,61638,1,2,1:2:0:0:
335,171,61804,2,0,B|433:168|396:224|502:222,1,170.500005203247,2|0,3:2|3:2,2:2:0:0:
413,41,62304,2,0,L|417:83,1,42.6250013008118,0|0,1:2|1:2,2:2:0:0:
344,129,62471,2,0,L|333:175,1,42.6250013008118,0|0,1:2|1:2,2:2:0:0:
352,257,62638,6,0,L|358:363,1,85.2500026016236,6|2,3:2|3:2,2:2:0:0:
485,306,62971,1,2,1:2:0:0:
352,257,63138,2,0,B|260:240|267:309|169:289,1,170.500005203247,2|2,3:2|3:2,2:2:0:0:
190,113,63638,2,0,L|204:206,1,85.2500026016236,2|0,1:2|2:2,2:2:0:0:
0,277,63971,5,2,3:2:0:0:
30,175,64138,2,0,L|123:177,1,85.2500026016236,2|0,3:2|1:2,2:2:0:0:
131,382,64471,2,0,P|82:319|147:264,1,170.500005203247,2|2,3:2|3:2,2:2:0:0:
270,335,64971,1,2,1:2:0:0:
131,382,65138,1,2,2:2:0:0:
214,203,65304,6,0,L|203:103,1,85.2500026016236,2|0,3:2|3:2,2:2:0:0:
303,7,65638,1,2,1:2:0:0:
370,80,65804,2,0,L|478:61,1,85.2500026016236,2|0,3:2|2:2,2:2:0:0:
303,7,66138,2,0,L|195:26,1,85.2500026016236,2|0,3:2|1:2,2:2:0:0:
137,0,66471,1,2,2:2:0:0:
211,110,66638,5,2,3:2:0:0:
80,64,66804,1,2,3:2:0:0:
219,21,66971,1,2,1:2:0:0:
126,136,67138,2,0,L|142:238,1,85.2500026016236,2|0,3:2|2:2,2:2:0:0:
255,293,67471,1,2,3:2:0:0:
233,205,67638,1,2,1:2:0:0:
166,311,67804,1,2,2:2:0:0:
319,230,67971,6,0,L|432:241,1,85.2500026016236,6|2,3:2|3:2,2:2:0:0:
231,381,68304,1,0,1:2:0:0:
166,311,68471,2,0,P|147:223|180:126,1,170.500005203247,2|2,3:2|3:2,2:2:0:0:
300,9,68971,1,2,1:2:0:0:
273,137,69138,1,2,2:2:0:0:
88,115,69304,5,2,3:2:0:0:
149,42,69471,2,0,L|241:61,1,85.2500026016236,2|0,3:2|1:2,2:2:0:0:
334,179,69804,2,0,P|256:159|165:146,1,170.500005203247,2|2,3:2|3:2,2:2:0:0:
6,185,70304,1,2,1:2:0:0:
88,115,70471,1,2,2:2:0:0:
46,259,70638,6,0,L|53:348,1,85.2500026016236,2|0,3:2|3:2,2:2:0:0:
218,350,70971,1,2,1:2:0:0:
255,257,71138,2,0,L|351:260,1,85.2500026016236,2|0,3:2|2:2,2:2:0:0:
218,350,71471,2,0,L|120:349,1,85.2500026016236,2|0,3:2|1:2,2:2:0:0:
164,266,71804,1,2,2:2:0:0:
309,357,71971,5,2,3:2:0:0:
218,350,72138,1,0,3:2:0:0:
262,193,72304,1,2,1:2:0:0:
346,280,72471,2,0,L|248:275,1,85.2500026016236,2|0,3:2|2:2,2:2:0:0:
449,199,72804,1,2,3:2:0:0:
434,297,72971,1,2,1:2:0:0:
353,190,73138,1,2,2:2:0:0:
456,111,73304,6,0,L|470:17,1,89.1250016999245,2|0,3:2|3:2,2:2:0:0:
306,0,73638,2,0,L|286:140,1,133.687502549887,4|0,1:2|2:2,2:2:0:0:
283,148,73971,2,0,L|267:54,1,89.1250016999245,2|0,3:2|3:2,2:2:0:0:
104,27,74304,2,0,L|131:172,1,133.687502549887,4|0,1:2|2:2,2:2:0:0:
129,174,74638,6,0,L|77:96,1,89.1250016999245,2|0,3:2|3:2,2:2:0:0:
14,206,74971,1,0,1:2:0:0:
167,271,75138,2,0,P|242:255|343:258,1,170.500005203247,2|0,3:2|3:2,2:2:0:0:
466,352,75638,1,0,1:2:0:0:
510,244,75804,1,2,2:2:0:0:
377,363,75971,6,0,L|279:348,1,85.2500026016236,2|0,3:2|3:2,2:2:0:0:
419,228,76304,1,6,1:2:0:0:
292,350,76471,2,0,L|194:335,1,85.2500026016236,2|0,2:2|3:2,2:2:0:0:
179,213,76804,2,0,L|277:228,1,85.2500026016236,2|4,3:2|1:2,2:2:0:0:
113,300,77138,1,2,2:2:0:0:
58,154,77304,5,2,3:2:0:0:
179,213,77471,1,2,3:2:0:0:
36,243,77638,1,2,1:2:0:0:
149,123,77804,2,0,B|248:109|214:173|327:151,1,170.500005203247,2|2,3:2|3:2,2:2:0:0:
385,20,78304,2,0,P|307:43|283:97,1,127.875003902435,2|0,1:2|2:2,2:2:0:0:
312,153,78638,6,0,L|308:257,1,92.9999971618653,6|0,1:2|3:2,2:2:0:0:
385,384,78971,1,2,1:2:0:0:
411,256,79138,1,0,3:2:0:0:
282,346,79304,2,0,L|166:348,1,92.9999971618653,2|0,1:2|3:2,2:2:0:0:
104,156,79638,1,2,1:2:0:0:
218,238,79804,1,0,3:2:0:0:
27,275,79971,6,0,L|10:165,1,92.9999971618653,6|0,1:2|3:2,2:2:0:0:
210,140,80304,1,2,1:2:0:0:
123,259,80471,1,0,3:2:0:0:
58,74,80638,2,0,L|157:72,1,92.9999971618653,2|0,1:2|3:2,2:2:0:0:
311,237,80971,2,0,L|212:239,1,92.9999971618653,2|0,1:2|3:2,2:2:0:0:
401,56,81304,6,0,L|402:172,1,92.9999971618653,6|0,1:2|3:2,2:2:0:0:
219,332,81638,2,0,L|218:216,1,92.9999971618653,2|0,1:2|3:2,2:2:0:0:
418,262,81971,1,2,1:2:0:0:
304,303,82138,1,0,3:2:0:0:
320,169,82304,1,0,1:2:0:0:
388,357,82471,6,0,P|331:335|242:365,1,155,4|0,1:2|3:2,2:2:0:0:
90,265,82971,2,0,L|81:168,1,77.5,2|0,1:2|3:2,2:2:0:0:
174,0,83304,1,2,1:2:0:0:
206,213,83471,1,0,1:2:0:0:
69,67,83638,1,0,1:2:0:0:
279,82,83804,1,0,1:2:0:0:
82,188,83971,6,0,L|93:293,1,77.5,6|0,1:2|3:2,2:2:0:0:
168,110,84304,1,2,1:2:0:0:
90,265,84471,2,0,L|101:366,1,77.5,2|0,3:2|1:2,2:2:0:0:
0,313,84804,1,0,3:2:0:0:
200,267,84971,2,0,L|297:279,1,77.5,2|2,1:2|1:2,2:2:0:0:
358,159,85304,6,0,L|275:150,1,77.5,6|0,1:2|3:2,2:2:0:0:
366,283,85638,1,2,1:2:0:0:
280,150,85804,2,0,L|197:141,1,77.5,2|8,3:2|2:3,2:2:0:0:
200,267,86138,1,0,1:2:0:0:
200,267,86221,1,0,1:2:0:0:
200,267,86304,2,0,L|189:353,1,77.5,0|0,1:2|3:2,2:2:0:0:
13,209,86638,6,0,L|21:106,1,92.9999971618653,2|0,1:2|3:2,2:2:0:0:
150,21,86971,2,0,L|139:149,1,116.25,4|0,1:2|2:2,2:2:0:0:
145,152,87304,2,0,L|192:67,1,92.9999971618653,8|0,2:3|3:2,2:2:0:0:
361,102,87638,2,0,L|292:212,1,116.25,8|0,2:3|2:2,2:2:0:0:
305,218,87971,6,0,P|344:176|401:170,2,116.250004434586,2|2|0,1:2|3:2|3:2,2:2:0:0:
465,218,88471,6,0,B|475:173|462:148|462:148|385:64|420:-9|515:2|547:71|534:112|426:168|409:175|362:171,1,418.499987228394,6|0,1:2|2:2,2:2:0:0:
