osu file format v14

[General]
AudioFilename: yesterday.mp3
AudioLeadIn: 0
PreviewTime: 48774
Countdown: 0
SampleSet: Normal
StackLeniency: 0.6
Mode: 2
LetterboxInBreaks: 0
WidescreenStoryboard: 0

[Editor]
Bookmarks: 70108
DistanceSpacing: 1.3
BeatDivisor: 4
GridSize: 4
TimelineZoom: 1.3

[Metadata]
Title:Bye Bye YESTERDAY
TitleUnicode:バイバイ YESTERDAY
Artist:3 Nen E Gumi Utatan (Nagisa & Kayano & Karuma & Isogai & Maehara)
ArtistUnicode:3年E組うた担(渚&茅野&業&磯貝&前原)
Creator:kotnana3131
Version:Nicotine's Cup
Source:暗殺教室 第2期 FINAL SEASON
Tags:潮 田 渚 Nagisa Shiota 渕上舞 Mai Fuchigami 茅野 カエデ Kaede Kayano Yukimura Akari 鈴木亜矢 Aya Suzuki 赤羽 業 Karuma Karma Akabane 岡本信彦 Nobuhiko Okamoto 磯貝 悠馬 Yuuma Isogai Yūma 逢坂 良太 Ryota Ohsaka Osaka Ryōta Ōsaka 前原 陽斗 Hiroto Maehara 浅沼 晋太郎 Shintarou Asanuma Bai Bai Ansatsu Kyoushitsu Assassination Classroom Second Season ajamez -nicotine nelly crowley
BeatmapID:1578854
BeatmapSetID:723015

[Difficulty]
HPDrainRate:3
CircleSize:2.5
OverallDifficulty:6
ApproachRate:6
SliderMultiplier:1.2
SliderTickRate:1

[Events]
//Background and Video events
0,0,"owo.jpg",0,0
//Break Periods
//Storyboard Layer 0 (Background)
//Storyboard Layer 1 (Fail)
//Storyboard Layer 2 (Pass)
//Storyboard Layer 3 (Foreground)
//Storyboard Sound Samples

[TimingPoints]
775,333.333333333333,4,1,0,60,1,0
48774,-100,4,2,1,75,0,1
59358,-100,4,2,1,75,0,0
59441,-100,4,2,1,75,0,1
70024,-100,4,2,1,75,0,0
70108,-100,4,2,1,75,0,1
77024,-100,4,2,1,75,0,0
77108,-100,4,2,1,75,0,1
77691,-100,4,2,1,75,0,0
77774,-100,4,2,1,75,0,1
80691,-100,4,2,1,75,0,0
80774,-100,4,2,1,75,0,1
80858,-100,4,2,1,60,0,0

[Colours]
Combo1 : 177,109,62
Combo2 : 176,74,89
Combo3 : 69,100,88

[HitObjects]
155,193,775,5,0,0:0:0:0:
275,193,1108,2,0,L|285:124,1,60
404,141,1608,2,0,L|394:72,1,60
263,60,2108,2,0,P|187:75|188:215,1,240
307,213,3108,1,0,0:0:0:0:
186,310,3441,5,0,0:0:0:0:
65,266,3774,2,0,L|55:197,1,60
179,160,4274,2,0,L|189:91,1,60
320,68,4774,6,0,L|433:131,1,120
319,267,5441,1,0,0:0:0:0:
284,268,5608,1,0,0:0:0:0:
238,280,5774,1,0,0:0:0:0:
123,252,6274,6,0,L|113:183,1,60
244,228,6774,2,0,L|370:80,1,180
159,62,7774,1,0,0:0:0:0:
297,60,8108,1,0,0:0:0:0:
152,64,8441,1,0,0:0:0:0:
284,105,8774,6,0,L|274:227,1,120
141,165,9441,2,0,L|151:287,1,120
271,295,10108,1,0,0:0:0:0:
403,293,10441,1,0,0:0:0:0:
265,271,10774,6,0,L|173:193,1,120
233,157,11441,1,0,0:0:0:0:
354,146,11774,1,0,0:0:0:0:
221,134,12108,6,0,L|211:257,1,120
338,285,12774,2,0,P|377:279|350:135,1,240
231,111,13774,1,0,0:0:0:0:
99,102,14108,6,0,L|114:226,1,120
245,250,14774,2,0,L|365:230,1,120
231,203,15441,1,0,0:0:0:0:
112,183,15774,1,0,0:0:0:0:
244,161,16108,6,0,P|310:149|365:171,1,120
388,183,16608,1,0,0:0:0:0:
352,316,16941,6,0,L|216:320,1,120
172,304,17441,2,0,P|92:284|83:235,1,120
142,197,18108,2,0,L|267:189,1,120
394,194,18774,1,0,0:0:0:0:
250,208,19108,1,0,0:0:0:0:
400,223,19441,6,0,L|458:344,1,120
332,330,20108,2,0,L|212:328,1,120
80,261,20774,1,0,0:0:0:0:
199,259,21107,1,0,0:0:0:0:
319,251,21441,6,0,L|438:202,1,120
370,171,21941,1,0,0:0:0:0:
248,139,22274,6,0,L|221:200,1,60
64,189,22774,2,0,L|75:315,1,120
207,334,23441,2,0,L|313:269,1,120
241,177,24108,1,0,0:0:0:0:
109,175,24441,1,0,0:0:0:0:
253,146,24774,5,0,0:0:0:0:
121,95,25108,1,0,0:0:0:0:
241,129,25441,2,0,L|335:217,1,120
448,233,26108,2,0,P|443:268|315:323,1,180
261,318,26774,1,0,0:0:0:0:
393,268,27108,1,0,0:0:0:0:
255,244,27441,1,0,0:0:0:0:
421,203,28108,6,0,L|310:153,1,120
180,316,28774,1,0,0:0:0:0:
86,249,29107,1,0,0:0:0:0:
93,134,29440,1,0,0:0:0:0:
195,80,29773,1,0,0:0:0:0:
328,79,30108,1,0,0:0:0:0:
144,310,30774,6,0,L|137:188,1,120
269,305,31441,1,0,0:0:0:0:
363,238,31774,1,0,0:0:0:0:
356,123,32107,1,0,0:0:0:0:
254,69,32440,1,0,0:0:0:0:
121,68,32775,1,0,0:0:0:0:
385,126,33441,6,0,L|349:257,1,120
221,282,34108,1,0,0:0:0:0:
189,166,34441,1,0,0:0:0:0:
69,95,34774,2,0,P|53:177|186:255,1,240
300,255,35774,1,0,0:0:0:0:
420,249,36108,1,0,0:0:0:0:
288,237,36441,1,0,0:0:0:0:
168,95,36774,6,0,L|146:237,1,120
270,209,37441,2,0,L|292:351,1,120
155,328,38108,1,0,0:0:0:0:
354,300,38774,6,0,L|412:188,1,120
277,300,39441,1,0,0:0:0:0:
183,233,39774,1,0,0:0:0:0:
190,118,40107,1,0,0:0:0:0:
292,64,40440,1,0,0:0:0:0:
425,63,40775,1,0,0:0:0:0:
161,298,41441,6,0,L|116:165,1,120
255,109,42108,1,0,0:0:0:0:
277,226,42441,1,0,0:0:0:0:
157,227,42774,1,0,0:0:0:0:
134,344,43107,1,0,0:0:0:0:
266,345,43441,1,0,0:0:0:0:
421,312,44108,6,0,L|322:228,1,120
197,165,44774,1,0,0:0:0:0:
317,163,45108,1,0,0:0:0:0:
191,165,45441,1,0,0:0:0:0:
323,163,45774,1,0,0:0:0:0:
179,164,46108,1,0,0:0:0:0:
419,196,46774,6,0,L|406:317,1,120
274,329,47441,2,0,P|160:299|161:178,1,240
392,208,48774,5,0,0:0:0:0:
260,208,49108,1,0,0:0:0:0:
116,116,49441,2,0,P|64:164|84:212,1,120
136,244,49941,1,0,0:0:0:0:
268,276,50274,6,0,L|449:229,1,180
311,193,51108,1,0,0:0:0:0:
443,139,51441,1,0,0:0:0:0:
298,102,51774,6,0,L|252:224,1,120
316,232,52274,1,0,0:0:0:0:
472,270,52608,2,0,P|478:199|391:120,1,180
276,84,53441,1,0,0:0:0:0:
138,94,53774,1,0,0:0:0:0:
282,117,54108,5,0,0:0:0:0:
312,126,54274,1,0,0:0:0:0:
280,116,54441,1,0,0:0:0:0:
148,160,54774,2,0,L|272:168,1,120
400,188,55441,2,0,L|436:312,1,120
236,296,56274,6,0,L|168:176,1,120
236,168,56774,1,0,0:0:0:0:
376,140,57108,1,0,0:0:0:0:
180,132,57608,6,0,L|172:196,1,60
40,328,58108,1,0,0:0:0:0:
32,210,58441,1,0,0:0:0:0:
99,113,58774,1,0,0:0:0:0:
212,79,59108,1,0,0:0:0:0:
356,208,59441,5,0,0:0:0:0:
224,208,59775,1,0,0:0:0:0:
80,116,60108,2,0,P|28:164|48:212,1,120
100,244,60608,1,0,0:0:0:0:
232,300,60941,6,0,P|312:280|316:176,1,180
188,160,61775,1,0,0:0:0:0:
320,144,62108,1,0,0:0:0:0:
464,172,62441,2,0,L|444:300,1,120
385,288,62941,1,0,0:0:0:0:
229,269,63274,6,0,P|197:198|277:124,1,180
389,126,64108,1,0,0:0:0:0:
257,112,64441,1,0,0:0:0:0:
113,154,64774,5,0,0:0:0:0:
83,163,64940,1,0,0:0:0:0:
115,153,65107,1,0,0:0:0:0:
265,154,65441,2,0,L|248:289,1,120
117,192,66108,2,0,L|134:327,1,120
192,328,66608,1,0,0:0:0:0:
324,327,66941,6,0,L|440:269,1,120
371,245,67441,1,0,0:0:0:0:
233,213,67774,1,0,0:0:0:0:
36,149,68274,6,0,P|26:211|123:279,1,180
241,275,69108,2,0,L|374:275,2,120
85,207,70108,5,0,0:0:0:0:
217,207,70442,1,0,0:0:0:0:
361,115,70775,2,0,P|413:163|393:211,1,120
341,243,71275,1,0,0:0:0:0:
200,288,71608,6,0,P|64:276|48:236,1,180
190,208,72441,1,0,0:0:0:0:
58,169,72774,1,0,0:0:0:0:
202,118,73108,6,0,L|343:89,1,120
380,121,73608,1,0,0:0:0:0:
224,179,73941,2,0,P|183:235|244:315,1,180
372,327,74774,1,0,0:0:0:0:
240,321,75108,1,0,0:0:0:0:
98,291,75441,1,0,0:0:0:0:
37,250,75608,6,0,L|147:177,1,120
268,136,76274,1,0,0:0:0:0:
298,151,76441,2,0,L|322:274,1,120
171,253,77108,6,0,L|144:180,1,60
326,145,77774,2,0,L|340:71,1,60
205,57,78274,5,0,0:0:0:0:
145,81,78441,2,0,L|121:220,1,120
257,209,79108,1,0,0:0:0:0:
389,201,79441,6,0,L|511:201,2,120
323,196,80274,1,0,0:0:0:0:
278,160,80440,1,0,0:0:0:0:
279,102,80607,1,0,0:0:0:0:
326,68,80774,1,0,0:0:0:0:
446,57,81108,6,0,L|433:132,1,60
315,209,81608,2,0,L|328:284,1,60
205,324,82108,2,0,P|148:337|101:184,1,240
207,157,83108,1,0,0:0:0:0:
328,135,83441,5,0,0:0:0:0:
207,157,83774,2,0,L|220:232,1,60
97,234,84274,2,0,L|84:309,1,60
207,319,84774,2,0,P|264:332|311:179,1,240
205,179,85774,1,0,0:0:0:0:
325,169,86108,5,0,0:0:0:0:
203,198,86441,2,0,L|213:257,1,60
334,274,86941,2,0,L|323:333,1,60
204,333,87441,2,0,P|133:311|181:180,1,240
290,153,88441,1,0,0:0:0:0:
410,202,88774,5,0,0:0:0:0:
290,213,89108,2,0,L|280:272,1,60
159,289,89608,2,0,L|170:348,1,60
290,341,90108,2,0,L|389:262,1,120
264,240,90774,1,0,0:0:0:0:
218,204,90940,1,0,0:0:0:0:
216,146,91107,1,0,0:0:0:0:
259,106,91274,1,0,0:0:0:0:
